osu file format v14

[General]
AudioFilename: audio.mp3
AudioLeadIn: 0
PreviewTime: 96799
Countdown: 0
SampleSet: None
StackLeniency: 0.7
Mode: 2
LetterboxInBreaks: 0
WidescreenStoryboard: 0

[Editor]
Bookmarks: 3465,18132,23465,34132,44799,55465,66132,76799,87465,98132,108799,119465,124799
DistanceSpacing: 2
BeatDivisor: 4
GridSize: 16
TimelineZoom: 1.9

[Metadata]
Title:Alice in Voodooland
TitleUnicode:Alice in Voodooland
Artist:RoughSketch ft.Aikapin
ArtistUnicode:RoughSketch ft.Aikapin
Creator:Seija
Version:Ace of Spades
Source:REFLEC BEAT plus
Tags:
BeatmapID:1934232
BeatmapSetID:926053

[Difficulty]
HPDrainRate:6
CircleSize:4.3
OverallDifficulty:9.4
ApproachRate:9.4
SliderMultiplier:2
SliderTickRate:2

[Events]
//Background and Video events
0,0,"Konachan.com - 242916 alice_in_wonderland alice_margatroid apron blonde_hair blue_eyes clouds dress headband petals ra-bit ribbons short_hair sky socks touhou.jpg",0,0
//Break Periods
//Storyboard Layer 0 (Background)
//Storyboard Layer 1 (Fail)
//Storyboard Layer 2 (Pass)
//Storyboard Layer 3 (Foreground)
//Storyboard Sound Samples

[TimingPoints]
3466,333.333333333333,4,2,1,100,1,0
3466,-100,4,2,1,20,0,0
7465,-100,4,1,1,50,0,0
18132,-100,4,2,1,50,0,0
23465,-100,4,1,2,50,0,0
23715,-100,4,2,1,50,0,0
44799,-100,4,1,3,50,0,0
44965,-100,4,2,1,50,0,0
46132,-100,4,1,3,50,0,0
46299,-100,4,2,1,50,0,0
47465,-100,4,1,3,50,0,0
47632,-100,4,2,1,50,0,0
48799,-100,4,1,3,50,0,0
48965,-100,4,2,1,50,0,0
50132,-100,4,1,3,50,0,0
50299,-100,4,2,1,50,0,0
51465,-100,4,1,3,50,0,0
51632,-100,4,2,1,50,0,0
52799,-100,4,1,3,50,0,0
66132,-100,4,2,1,50,0,0
76799,-83.3333333333333,4,2,1,50,0,1
96799,-100,4,1,3,50,0,0
97799,-100,4,2,1,50,0,0
98132,-83.3333333333333,4,2,1,50,0,1
110799,-100,4,2,1,50,0,0
111465,-100,4,2,1,50,0,1
113465,-100,4,2,1,50,0,0
114132,-100,4,2,1,50,0,1
119465,-100,4,1,2,50,0,0
119632,-100,4,1,1,50,0,0
124965,-100,4,2,1,30,0,0
126132,-100,4,2,1,20,0,0
127465,-100,4,2,1,10,0,0

[Colours]
Combo1 : 192,80,175
Combo2 : 244,19,64
Combo3 : 177,177,177
Combo4 : 132,158,251

[HitObjects]
256,192,3465,12,0,7132,0:0:0:0:
177,289,7465,6,0,P|106:258|195:201,1,200
274,185,7965,1,0,0:0:0:0:
135,197,8132,2,0,L|120:310,1,100
239,317,8465,2,0,L|350:317,1,100
443,245,8799,6,0,P|490:295|393:357,1,200
291,359,9299,1,0,0:0:0:0:
183,271,9465,2,0,L|309:270,1,100
414,200,9799,2,0,L|292:199,1,100
163,211,10132,6,0,P|109:170|201:107,1,200
295,100,10632,1,0,0:0:0:0:
395,178,10799,2,0,L|397:67,1,100
267,83,11132,2,0,L|159:81,1,100
412,109,11465,6,0,P|479:167|400:228,1,200
291,241,11965,1,0,0:0:0:0:
178,231,12132,2,0,L|180:102,1,100
354,181,12465,2,0,L|352:296,1,100
41,270,12799,6,0,L|50:157,1,100
200,153,13132,2,0,L|94:128,1,100
385,285,13465,2,0,L|390:170,1,100
275,120,13799,2,0,L|390:115,1,100
128,224,14132,6,0,L|41:284,3,100
210,143,14799,2,0,L|100:142,1,100
224,267,15132,2,0,L|328:268,1,100
63,244,15465,6,0,L|181:235,1,100
279,173,15799,2,0,L|166:157,1,100
285,104,16132,2,0,L|423:89,1,100
213,152,16465,2,0,L|203:262,1,100
437,222,16799,6,0,L|454:330,1,100
150,232,17132,2,0,L|127:332,1,100
407,207,17465,2,0,L|514:219,1,100
221,273,17799,5,0,0:0:0:0:
197,266,17840,1,0,0:0:0:0:
184,245,17882,1,0,0:0:0:0:
190,222,17924,1,0,0:0:0:0:
211,209,17965,1,0,0:0:0:0:
266,207,18049,1,0,0:0:0:0:
22,138,18132,6,0,L|254:103,2,200,10|0|0,0:1|0:0|0:0,0:0:0:0:
269,222,19132,2,0,L|505:269,2,200
470,150,20132,1,0,0:0:0:0:
203,218,20465,1,0,0:0:0:0:
255,216,20549,1,0,0:0:0:0:
307,217,20632,1,0,0:0:0:0:
61,174,20799,6,0,L|290:195,2,200
316,288,21965,1,0,0:0:0:0:
208,218,22132,6,0,L|390:218,1,150
191,162,22465,2,0,P|149:202|215:278,1,150
383,166,22799,2,0,P|429:237|354:280,1,150
185,273,23132,2,0,L|23:275,1,150
289,217,23465,6,0,L|448:207,1,150,6|0,0:0|0:0,0:0:0:0:
162,240,23799,2,0,P|162:169|184:117,1,100,8|0,0:1|0:1,0:1:0:0:
346,222,24132,2,0,P|366:285|348:318,1,100,8|0,0:1|0:1,0:1:0:0:
180,308,24465,2,0,L|72:309,1,100,8|0,0:1|0:1,0:1:0:0:
253,243,24799,5,8,0:1:0:0:
143,242,24965,1,0,0:1:0:0:
395,220,25132,2,0,P|427:275|401:312,1,100,8|0,0:1|0:1,0:1:0:0:
231,199,25465,2,0,L|352:199,1,100,8|0,0:1|0:1,0:1:0:0:
107,135,25799,1,8,0:1:0:0:
330,175,25965,2,8,L|347:138,2,25,8|8|8,0:1|0:1|0:1,0:1:0:0:
104,194,26132,6,0,P|100:267|154:300,1,100,8|0,0:1|0:1,0:1:0:0:
263,319,26465,2,0,L|370:319,1,100,8|0,0:1|0:1,0:1:0:0:
109,287,26799,2,0,L|103:166,1,100,8|0,0:1|0:1,0:1:0:0:
420,191,27132,2,0,L|423:301,1,100,8|0,0:1|0:1,0:1:0:0:
195,282,27465,6,0,L|70:280,1,100,8|0,0:1|0:1,0:1:0:0:
122,278,27674,2,0,L|166:278,1,25,0|0,0:1|0:1,0:1:0:0:
344,233,27799,2,0,L|468:231,1,100,8|0,0:1|0:1,0:1:0:0:
413,224,28007,2,0,L|368:222,1,25,0|0,0:1|0:1,0:1:0:0:
133,185,28132,1,8,0:1:0:0:
275,168,28299,1,8,0:1:0:0:
30,137,28465,1,8,0:1:0:0:
354,137,28632,2,0,L|372:168,2,25,0|0|0,0:1|0:1|0:1,0:1:0:0:
34,210,28799,6,0,L|34:85,1,100,10|0,0:1|0:1,0:1:0:0:
221,231,29132,2,0,L|394:211,1,150,8|0,0:1|0:1,0:1:0:0:
208,168,29465,2,0,L|320:155,1,100,8|0,0:1|0:1,0:1:0:0:
148,106,29799,2,0,L|44:93,1,100,8|0,0:1|0:1,0:1:0:0:
430,122,30132,6,0,P|472:195|418:234,1,150,8|0,0:1|0:1,0:1:0:0:
203,240,30465,2,0,P|200:305|253:332,1,100,8|0,0:1|0:1,0:1:0:0:
366,330,30799,1,8,0:1:0:0:
140,332,30965,1,8,0:1:0:0:
363,264,31132,1,8,0:1:0:0:
258,273,31299,1,8,0:1:0:0:
217,252,31340,1,0,0:1:0:0:
226,225,31382,1,0,0:1:0:0:
263,215,31424,1,0,0:1:0:0:
314,215,31465,5,8,0:1:0:0:
186,180,31632,1,8,0:1:0:0:
418,241,31799,2,0,L|427:346,1,100,8|0,0:1|0:1,0:1:0:0:
255,342,32132,2,0,L|142:346,1,100,8|0,0:1|0:1,0:1:0:0:
291,273,32465,1,8,0:1:0:0:
153,265,32632,2,8,L|77:264,1,50,8|8,0:1|0:1,0:1:0:0:
280,201,32799,5,8,0:1:0:0:
166,202,32965,1,8,0:1:0:0:
413,249,33132,2,0,P|428:191|365:160,1,100,8|0,0:1|0:1,0:1:0:0:
373,161,33340,2,8,L|327:161,1,25,8|8,0:1|0:1,0:1:0:0:
140,172,33465,1,8,0:1:0:0:
369,171,33632,1,8,0:1:0:0:
127,226,33799,2,0,P|79:270|117:302,1,100,8|0,0:1|0:1,0:1:0:0:
113,297,34007,2,8,L|157:297,1,25,8|8,0:1|0:1,0:1:0:0:
394,298,34132,5,2,0:1:0:0:
260,295,34465,1,8,0:1:0:0:
447,287,34799,1,8,0:1:0:0:
252,220,35132,1,8,0:1:0:0:
434,197,35465,6,0,L|438:306,1,100,8|0,0:1|0:1,0:1:0:0:
313,295,35799,2,0,L|218:243,1,100,8|0,0:1|0:1,0:1:0:0:
333,183,36132,2,0,L|419:126,1,100,8|0,0:1|0:1,0:1:0:0:
272,84,36465,2,0,L|157:84,1,100,8|0,0:1|0:1,0:1:0:0:
434,121,36799,6,0,L|316:140,2,100,8|0|8,0:1|0:1|0:1,0:1:0:0:
299,72,37299,1,0,0:1:0:0:
180,102,37465,2,0,L|296:101,1,100,8|0,0:1|0:1,0:1:0:0:
201,194,37799,2,0,L|63:195,1,100,8|0,0:1|0:1,0:1:0:0:
393,298,38132,6,0,P|409:219|389:192,1,100,8|0,0:1|0:1,0:1:0:0:
266,176,38465,2,0,P|242:119|258:78,1,100,8|0,0:1|0:1,0:1:0:0:
398,82,38799,2,0,L|513:84,1,100,8|0,0:1|0:1,0:1:0:0:
319,186,39132,1,8,0:1:0:0:
440,189,39299,1,8,0:1:0:0:
73,318,39465,6,0,L|53:177,1,100,8|0,0:1|0:1,0:1:0:0:
180,140,39799,2,0,L|70:144,2,100,8|0|8,0:1|0:1|0:1,0:1:0:0:
74,83,40299,1,0,0:1:0:0:
249,198,40465,2,0,L|133:198,1,100,8|0,0:1|0:1,0:1:0:0:
456,66,40799,6,0,L|455:186,1,100,8|0,0:1|0:1,0:1:0:0:
326,198,41132,2,0,L|219:199,2,100,8|0|8,0:1|0:1|0:1,0:1:0:0:
442,195,41632,1,0,0:1:0:0:
93,180,41799,2,8,L|93:292,1,100,0|0,0:1|0:1,0:1:0:0:
333,138,42132,6,0,L|210:135,1,100,8|0,0:1|0:1,0:1:0:0:
372,67,42465,2,0,L|476:70,1,100,8|0,0:1|0:1,0:1:0:0:
297,135,42799,2,0,L|425:138,1,100,8|0,0:1|0:1,0:1:0:0:
170,81,43132,2,0,L|50:79,1,100,8|0,0:1|0:1,0:1:0:0:
340,332,43465,5,8,0:1:0:0:
463,294,43632,1,8,0:1:0:0:
332,245,43799,1,8,0:1:0:0:
212,205,43965,1,8,0:1:0:0:
349,155,44132,1,8,0:1:0:0:
216,95,44299,1,8,0:1:0:0:
357,28,44465,1,8,0:1:0:0:
66,106,44632,1,8,0:1:0:0:
386,166,44799,5,2,0:0:0:0:
449,228,44965,1,0,0:0:0:0:
428,302,45132,1,0,0:0:0:0:
354,337,45299,1,0,0:0:0:0:
259,318,45465,1,0,0:0:0:0:
338,262,45632,1,0,0:0:0:0:
221,235,45799,2,0,L|90:234,1,100
353,193,46132,6,0,L|290:286,3,100,2|0|0|0,0:0|0:0|0:0|0:0,0:0:0:0:
420,202,46799,2,0,L|434:303,1,100
233,308,47132,2,0,L|398:309,1,150
134,242,47465,5,2,0:0:0:0:
86,189,47632,1,0,0:0:0:0:
114,126,47799,1,0,0:0:0:0:
188,120,47965,1,0,0:0:0:0:
275,119,48132,1,0,0:0:0:0:
170,74,48299,1,0,0:0:0:0:
298,68,48465,1,0,0:0:0:0:
155,28,48632,1,0,0:0:0:0:
453,54,48799,6,0,P|477:125|410:155,1,150,2|0,0:0|0:0,0:0:0:0:
190,141,49132,2,0,P|169:224|238:250,1,150
383,249,49465,2,0,P|401:305|319:315,1,150
269,307,49799,1,0,0:0:0:0:
378,297,49965,1,0,0:0:0:0:
197,254,50132,5,2,0:0:0:0:
303,220,50299,1,0,0:0:0:0:
180,195,50465,1,0,0:0:0:0:
290,154,50632,1,0,0:0:0:0:
61,206,50799,2,0,L|59:312,1,100
245,336,51132,2,0,L|355:334,1,100
112,299,51465,6,0,P|67:258|137:213,1,150,2|0,0:0|0:0,0:0:0:0:
322,211,51799,2,0,P|357:150|336:120,1,100
202,117,52132,2,0,L|88:118,1,100
423,167,52465,2,0,L|428:269,1,100
157,279,52799,1,2,0:0:0:0:
256,192,52965,12,0,54799,0:0:0:0:
191,307,55465,6,0,P|125:163|241:130,1,300,6|0,0:0|0:0,0:0:0:0:
382,173,56132,2,0,L|402:303,1,100
247,271,56465,2,0,L|399:271,1,150
120,114,56799,6,0,P|63:144|171:301,1,300,2|0,0:0|0:0,0:0:0:0:
308,263,57465,2,0,L|185:264,1,100
328,206,57799,2,0,L|169:206,1,150
364,285,58132,6,0,P|451:243|359:116,1,300,2|0,0:0|0:0,0:0:0:0:
195,130,58799,2,0,L|177:239,1,100
319,263,59132,2,0,L|129:276,1,150
380,290,59465,6,0,P|445:255|351:109,1,300,2|0,0:0|0:0,0:0:0:0:
173,182,60132,2,0,L|138:55,1,100
273,142,60465,2,0,L|429:73,1,150
113,241,60799,6,0,P|37:193|135:60,1,300,2|0,0:0|0:0,0:0:0:0:
328,85,61465,2,0,L|445:86,1,100
329,217,61799,2,0,L|177:217,1,150
374,298,62132,6,0,P|455:155|358:113,1,300,2|0,0:0|0:0,0:0:0:0:
218,196,62799,2,0,L|317:209,1,100
208,137,63132,2,0,L|50:106,1,150
309,87,63465,6,0,P|394:172|250:255,1,300,2|0,0:0|0:0,0:0:0:0:
164,258,64132,2,0,L|270:200,1,100
74,211,64465,2,0,P|32:176|115:121,1,150
350,299,64799,6,0,P|434:236|307:124,1,300,2|0,0:0|0:0,0:0:0:0:
155,108,65465,2,0,P|70:168|200:291,1,300
300,252,66132,6,0,L|182:250,1,100,10|0,0:1|0:1,0:1:0:0:
333,211,66465,2,0,L|200:213,1,100,8|0,0:1|0:1,0:1:0:0:
376,159,66799,2,0,L|257:162,1,100,8|0,0:1|0:1,0:1:0:0:
451,211,67132,2,0,L|451:319,1,100,8|0,0:1|0:1,0:1:0:0:
246,306,67465,6,0,L|354:308,1,100,8|0,0:1|0:1,0:1:0:0:
212,251,67799,2,0,L|330:252,1,100,8|0,0:1|0:1,0:1:0:0:
184,198,68132,2,0,L|321:197,1,100,8|0,0:1|0:1,0:1:0:0:
176,138,68465,1,8,0:1:0:0:
323,140,68632,1,8,0:1:0:0:
63,143,68799,6,0,L|54:251,1,100,8|0,0:1|0:1,0:1:0:0:
196,289,69132,2,0,L|309:295,1,100,8|0,0:1|0:1,0:1:0:0:
431,259,69465,2,0,L|442:158,1,100,8|0,0:1|0:1,0:1:0:0:
180,106,69799,2,0,L|296:107,1,100,8|0,0:1|0:1,0:1:0:0:
23,210,70132,6,0,L|146:212,2,100,8|0|8,0:1|0:1|0:1,0:1:0:0:
213,175,70632,2,0,L|232:148,2,25,0|0|0,0:1|0:1|0:1,0:1:0:0:
65,200,70799,1,8,0:1:0:0:
307,213,70965,1,0,0:1:0:0:
186,262,71132,1,8,0:1:0:0:
426,318,71299,1,0,0:1:0:0:
67,293,71465,5,10,0:1:0:0:
165,274,71632,1,8,0:1:0:0:
67,293,71799,1,8,0:1:0:0:
165,274,71965,1,8,0:1:0:0:
312,256,72132,1,8,0:1:0:0:
166,199,72299,1,8,0:1:0:0:
339,186,72465,1,8,0:1:0:0:
101,121,72632,1,8,0:1:0:0:
381,116,72799,5,10,0:1:0:0:
441,138,72882,1,0,0:1:0:0:
489,182,72965,1,0,0:1:0:0:
501,244,73049,1,0,0:1:0:0:
468,290,73132,1,0,0:1:0:0:
410,311,73215,1,0,0:1:0:0:
349,317,73299,1,0,0:1:0:0:
288,314,73382,1,0,0:1:0:0:
454,361,73465,6,0,L|404:361,1,50,8|0,0:1|0:1,0:1:0:0:
208,289,73632,1,0,0:1:0:0:
169,251,73715,1,0,0:1:0:0:
190,200,73799,1,8,0:1:0:0:
249,186,73882,1,0,0:1:0:0:
421,174,73965,2,0,L|490:174,1,50,0|0,0:1|0:1,0:1:0:0:
152,280,74132,6,0,L|391:259,3,200,0|0|0|0,0:1|0:1|0:1|0:1,0:1:0:0:
183,201,75299,2,0,L|239:195,1,50,8|0,0:1|0:1,0:1:0:0:
488,132,75465,2,0,L|265:89,2,200,8|8|8,0:1|0:1|0:1,0:1:0:0:
124,192,76465,1,8,0:1:0:0:
416,190,76799,6,0,P|435:254|421:309,1,119.999996337891,2|0,0:1|0:1,0:1:0:0:
206,231,77132,2,0,P|297:228|352:235,1,119.999996337891,8|0,0:1|0:1,0:1:0:0:
87,258,77465,2,0,P|74:198|110:120,1,119.999996337891,8|0,0:1|0:1,0:1:0:0:
229,140,77799,1,8,0:1:0:0:
91,143,77965,1,0,0:1:0:0:
374,198,78132,6,0,L|237:199,2,119.999996337891,8|0|8,0:1|0:1|0:1,0:1:0:0:
143,149,78632,1,0,0:1:0:0:
399,126,78799,2,0,P|439:211|372:248,1,179.999994506836,8|0,0:1|0:1,0:1:0:0:
139,236,79132,2,0,L|13:233,1,119.999996337891,8|0,0:1|0:1,0:1:0:0:
302,191,79465,6,0,L|488:189,1,179.999994506836,8|0,0:1|0:1,0:1:0:0:
274,118,79799,2,0,L|432:115,1,119.999996337891,8|0,0:1|0:1,0:1:0:0:
214,198,80132,2,0,P|146:155|248:70,1,239.999992675781,8|8,0:1|0:1,0:1:0:0:
90,54,80632,1,0,0:1:0:0:
334,153,80799,5,8,0:1:0:0:
208,158,80965,1,0,0:1:0:0:
332,103,81132,1,8,0:1:0:0:
81,111,81299,1,0,0:1:0:0:
364,170,81465,2,0,L|194:164,1,119.999996337891,8|0,0:1|0:1,0:1:0:0:
187,190,81715,1,0,0:1:0:0:
448,118,81799,2,0,P|484:215|468:237,1,119.999996337891,8|0,0:1|0:1,0:1:0:0:
453,239,82007,2,0,L|411:240,1,29.9999990844727,0|0,0:1|0:1,0:1:0:0:
148,227,82132,6,0,L|125:104,1,119.999996337891,10|0,0:1|0:1,0:1:0:0:
260,114,82465,2,0,L|135:78,1,119.999996337891,8|0,0:1|0:1,0:1:0:0:
327,64,82799,2,0,P|382:97|302:175,1,179.999994506836,8|0,0:1|0:1,0:1:0:0:
151,271,83132,2,0,L|288:265,1,119.999996337891,8|0,0:1|0:1,0:1:0:0:
147,209,83465,5,8,0:1:0:0:
321,158,83632,2,0,L|175:162,2,119.999996337891,0|8|0,0:1|0:1|0:1,0:1:0:0:
156,295,84132,2,0,L|28:273,1,119.999996337891,8|0,0:1|0:1,0:1:0:0:
333,241,84465,1,8,0:1:0:0:
103,206,84632,1,0,0:1:0:0:
448,140,84799,6,0,L|320:146,1,119.999996337891,8|0,0:1|0:1,0:1:0:0:
69,158,85132,2,0,L|53:302,1,119.999996337891,8|0,0:1|0:1,0:1:0:0:
223,300,85465,2,0,L|387:294,1,119.999996337891,8|0,0:1|0:1,0:1:0:0:
223,219,85799,1,8,0:1:0:0:
368,216,85965,1,0,0:1:0:0:
105,146,86132,5,8,0:1:0:0:
365,138,86299,1,0,0:1:0:0:
85,171,86465,2,0,L|277:169,1,179.999994506836,8|0,0:1|0:1,0:1:0:0:
185,126,86799,2,0,L|48:125,1,119.999996337891,8|0,0:1|0:1,0:1:0:0:
302,146,87132,1,8,0:1:0:0:
330,141,87173,1,0,0:1:0:0:
348,164,87215,1,0,0:1:0:0:
337,190,87257,1,0,0:1:0:0:
309,195,87298,1,0,0:1:0:0:
257,202,87382,1,0,0:1:0:0:
471,204,87465,6,0,L|472:329,1,119.999996337891,10|0,0:1|0:1,0:1:0:0:
335,343,87799,2,0,L|215:342,1,119.999996337891,8|0,0:1|0:1,0:1:0:0:
386,289,88132,2,0,P|460:273|367:219,1,239.999992675781,8|8,0:1|0:1,0:1:0:0:
478,188,88632,1,0,0:1:0:0:
217,193,88799,6,0,L|340:193,2,119.999996337891,8|0|8,0:1|0:1|0:1,0:1:0:0:
459,132,89299,1,0,0:1:0:0:
184,179,89465,2,0,L|367:180,1,179.999994506836,8|0,0:1|0:1,0:1:0:0:
139,137,89799,2,0,L|3:133,1,119.999996337891,8|0,0:1|0:1,0:1:0:0:
98,119,90049,1,8,0:1:0:0:
348,187,90132,6,0,L|376:69,1,119.999996337891,8|0,0:1|0:1,0:1:0:0:
268,83,90465,2,0,L|137:78,1,119.999996337891,8|0,0:1|0:1,0:1:0:0:
421,140,90799,2,0,P|455:230|360:226,1,179.999994506836,8|0,0:1|0:1,0:1:0:0:
188,254,91132,1,8,0:1:0:0:
340,251,91299,1,0,0:1:0:0:
174,173,91465,6,0,L|310:169,1,119.999996337891,8|0,0:1|0:1,0:1:0:0:
261,157,91674,2,0,L|212:157,1,29.9999990844727,0|0,0:1|0:1,0:1:0:0:
425,135,91799,2,0,L|426:271,1,119.999996337891,8|0,0:1|0:1,0:1:0:0:
247,257,92132,2,0,L|244:93,1,119.999996337891,8|0,0:1|0:1,0:1:0:0:
352,119,92465,1,8,0:1:0:0:
170,167,92632,2,0,L|154:133,2,29.9999990844727,0|0|0,0:1|0:1|0:1,0:1:0:0:
429,200,92799,6,0,L|432:335,1,119.999996337891,10|0,0:1|0:1,0:1:0:0:
311,319,93132,2,0,L|473:319,1,119.999996337891,0|0,0:1|0:1,0:1:0:0:
275,250,93465,1,8,0:1:0:0:
397,251,93632,1,0,0:1:0:0:
162,210,93799,1,0,0:1:0:0:
323,179,93965,2,0,L|263:179,1,59.9999981689454,0|0,0:1|0:1,0:1:0:0:
43,158,94132,6,0,L|246:155,1,179.999994506836,8|0,0:1|0:1,0:1:0:0:
44,82,94465,2,0,L|43:203,1,119.999996337891,8|0,0:1|0:1,0:1:0:0:
311,136,94799,1,8,0:1:0:0:
169,135,94965,1,0,0:1:0:0:
420,200,95132,2,0,L|452:234,6,29.9999990844727,8|0|0|0|0|0|0,0:1|0:1|0:1|0:1|0:1|0:1|0:1,0:1:0:0:
227,201,95465,6,0,L|364:189,1,119.999996337891,8|0,0:1|0:1,0:1:0:0:
53,135,95799,2,0,P|46:202|92:257,1,119.999996337891,8|0,0:1|0:1,0:1:0:0:
112,247,96007,2,0,L|154:249,1,29.9999990844727,0|0,0:1|0:1,0:1:0:0:
322,202,96132,2,0,L|156:202,1,119.999996337891,8|8,0:1|0:1,0:1:0:0:
434,132,96465,1,8,0:1:0:0:
151,122,96632,1,8,0:1:0:0:
448,258,96799,5,2,0:0:0:0:
218,263,97132,1,2,0:0:0:0:
378,263,97465,1,2,0:0:0:0:
175,267,97799,2,0,L|97:269,1,50
315,268,97965,2,0,L|329:299,2,25
52,223,98132,6,0,L|195:177,2,119.999996337891,10|0|8,0:1|0:1|0:1,0:1:0:0:
289,282,98632,1,0,0:1:0:0:
56,297,98799,2,0,L|37:166,1,119.999996337891,8|0,0:1|0:1,0:1:0:0:
172,154,99132,1,8,0:1:0:0:
414,121,99299,1,0,0:1:0:0:
137,208,99465,6,0,L|293:191,2,119.999996337891,8|0|8,0:1|0:1|0:1,0:1:0:0:
392,167,99965,1,0,0:1:0:0:
33,281,100132,2,0,L|39:142,1,119.999996337891,8|0,0:1|0:1,0:1:0:0:
174,184,100465,2,0,L|293:137,1,119.999996337891,8|0,0:1|0:1,0:1:0:0:
252,129,100674,2,0,L|211:132,1,29.9999990844727,0|0,0:1|0:1,0:1:0:0:
390,257,100799,5,10,0:1:0:0:
487,230,100965,1,0,0:1:0:0:
351,201,101132,1,8,0:1:0:0:
481,158,101299,1,0,0:1:0:0:
221,170,101465,2,0,L|359:141,2,119.999996337891,8|0|8,0:1|0:1|0:1,0:1:0:0:
369,232,101965,1,0,0:1:0:0:
119,284,102132,6,0,L|103:161,1,119.999996337891,8|0,0:1|0:1,0:1:0:0:
232,148,102465,1,8,0:1:0:0:
79,115,102632,2,0,L|155:101,1,59.9999981689454,0|0,0:1|0:1,0:1:0:0:
348,81,102799,2,0,L|469:78,1,119.999996337891,8|0,0:1|0:1,0:1:0:0:
397,62,103049,1,8,0:1:0:0:
143,109,103132,2,0,L|143:231,1,119.999996337891,8|0,0:1|0:1,0:1:0:0:
182,226,103340,2,0,L|218:226,1,29.9999990844727,0|0,0:1|0:1,0:1:0:0:
413,221,103465,6,0,L|433:100,1,119.999996337891,10|0,0:1|0:1,0:1:0:0:
305,91,103799,1,8,0:1:0:0:
432,102,103965,1,0,0:1:0:0:
210,220,104132,2,0,L|54:208,1,119.999996337891,8|0,0:1|0:1,0:1:0:0:
159,196,104382,1,0,0:1:0:0:
357,157,104465,2,0,L|486:157,1,119.999996337891,8|0,0:1|0:1,0:1:0:0:
316,89,104799,5,8,0:1:0:0:
190,90,104965,1,0,0:1:0:0:
420,109,105132,2,0,P|459:171|368:222,1,179.999994506836,8|0,0:1|0:1,0:1:0:0:
165,229,105465,2,0,L|304:226,1,119.999996337891,8|0,0:1|0:1,0:1:0:0:
42,237,105799,1,8,0:1:0:0:
41,119,105965,1,0,0:1:0:0:
320,316,106132,6,0,L|487:314,1,119.999996337891,8|0,0:1|0:1,0:1:0:0:
310,243,106465,1,8,0:1:0:0:
447,241,106632,1,0,0:1:0:0:
282,171,106799,2,0,L|139:177,2,119.999996337891,8|0|8,0:1|0:1|0:1,0:1:0:0:
57,106,107299,1,0,0:1:0:0:
346,262,107465,5,8,0:1:0:0:
459,257,107632,1,0,0:1:0:0:
286,207,107799,1,8,0:1:0:0:
426,194,107965,2,8,L|437:141,2,29.9999990844727,8|8|8,0:1|0:1|0:1,0:1:0:0:
216,208,108132,1,8,0:1:0:0:
343,211,108299,1,0,0:1:0:0:
91,206,108465,2,0,L|97:129,1,59.9999981689454,8|0,0:1|0:1,0:1:0:0:
275,146,108632,2,0,L|345:143,1,59.9999981689454,0|0,0:1|0:1,0:1:0:0:
148,248,108799,5,10,0:1:0:0:
23,221,108965,1,0,0:1:0:0:
180,212,109132,1,8,0:1:0:0:
38,173,109299,1,0,0:1:0:0:
288,215,109465,2,0,L|152:215,1,119.999996337891,8|0,0:1|0:1,0:1:0:0:
307,160,109799,1,8,0:1:0:0:
162,161,109965,1,0,0:1:0:0:
438,146,110132,6,0,L|303:156,2,119.999996337891,8|0|8,0:1|0:1|0:1,0:1:0:0:
159,100,110632,1,0,0:1:0:0:
433,192,110799,1,8,0:1:0:0:
316,191,110965,1,0,0:1:0:0:
208,191,111132,1,8,0:1:0:0:
92,193,111299,1,0,0:1:0:0:
383,273,111465,6,0,L|251:283,2,100,10|0|8,0:1|0:1|0:1,0:1:0:0:
150,201,111965,1,0,0:1:0:0:
395,176,112132,2,0,L|396:288,1,100,8|0,0:1|0:1,0:1:0:0:
279,282,112465,1,8,0:1:0:0:
423,286,112632,1,0,0:1:0:0:
145,191,112799,6,0,L|6:182,1,100,8|0,0:1|0:1,0:1:0:0:
336,129,113132,2,0,L|463:124,1,100,8|0,0:1|0:1,0:1:0:0:
79,192,113465,1,8,0:1:0:0:
196,191,113631,1,0,0:1:0:0:
304,191,113798,1,8,0:1:0:0:
420,193,113965,1,0,0:1:0:0:
146,303,114132,5,14,0:1:0:0:
43,251,114299,1,0,0:1:0:0:
144,219,114465,1,8,0:1:0:0:
254,246,114632,1,0,0:1:0:0:
143,138,114799,1,8,0:1:0:0:
299,130,114965,1,0,0:1:0:0:
33,58,115132,1,8,0:1:0:0:
297,214,115299,2,8,L|313:179,2,25,8|8|8,0:1|0:1|0:1,0:1:0:0:
110,237,115465,5,2,0:1:0:0:
257,244,115632,1,0,0:1:0:0:
412,246,115799,1,8,0:1:0:0:
280,188,115965,1,0,0:1:0:0:
420,173,116132,1,8,0:1:0:0:
197,123,116299,1,0,0:1:0:0:
451,87,116465,1,8,0:1:0:0:
140,256,116632,1,0,0:1:0:0:
119,244,116653,1,0,0:1:0:0:
115,228,116674,1,0,0:1:0:0:
122,211,116695,1,0,0:1:0:0:
139,206,116715,1,0,0:1:0:0:
324,124,116799,6,0,L|338:195,1,50,10|0,0:1|0:1,0:1:0:0:
180,201,116965,2,0,L|142:245,1,50,0|0,0:1|0:1,0:1:0:0:
405,260,117132,2,0,L|463:283,1,50,0|0,0:1|0:1,0:1:0:0:
113,299,117299,2,0,L|60:308,1,50,0|0,0:1|0:1,0:1:0:0:
366,335,117465,5,8,0:1:0:0:
409,327,117507,1,0,0:0:0:0:
431,302,117549,1,0,0:0:0:0:
434,261,117591,1,0,0:0:0:0:
406,233,117632,1,0,0:0:0:0:
365,223,117674,1,0,0:0:0:0:
324,221,117716,1,0,0:0:0:0:
282,220,117757,1,0,0:0:0:0:
236,215,117799,1,0,0:0:0:0:
198,197,117840,1,0,0:0:0:0:
173,159,117882,1,0,0:0:0:0:
180,116,117924,1,0,0:0:0:0:
206,90,117965,1,0,0:0:0:0:
246,80,118007,1,0,0:0:0:0:
289,87,118049,1,0,0:0:0:0:
110,288,118132,6,0,B|43:241|68:158|107:105|180:109|236:130|236:193|234:239|234:239|238:282|294:335|379:328|437:266|432:131|303:139,1,700,2|0,0:1|0:0,0:0:0:0:
78,280,119465,6,0,P|16:259|76:164,1,200,2|0,0:0|0:0,0:0:0:0:
238,124,120132,2,0,L|33:131,1,200
219,68,120799,6,0,L|420:62,1,200
264,174,121465,2,0,L|50:178,1,200
312,138,122132,6,0,P|366:206|280:235,1,200
142,225,122799,2,0,P|110:293|227:337,1,200
375,258,123465,2,0,L|159:258,1,200
339,203,124132,1,0,0:0:0:0:
151,196,124465,1,0,0:0:0:0:
453,137,124799,5,2,0:1:0:0:
256,192,124965,12,0,128799,0:0:0:0:
