osu file format v14

[General]
AudioFilename: audio.mp3
AudioLeadIn: 0
PreviewTime: 44798
Countdown: 0
SampleSet: Soft
StackLeniency: 0.7
Mode: 3
LetterboxInBreaks: 0
SpecialStyle: 0
WidescreenStoryboard: 1

[Editor]
Bookmarks: 110798
DistanceSpacing: 2
BeatDivisor: 2
GridSize: 16
TimelineZoom: 0.6999998

[Metadata]
Title:Alice In Voodooland
TitleUnicode:Alice In Voodooland
Artist:RoughSketch ft.Aikapin
ArtistUnicode:RoughSketch ft.Aikapin
Creator:Umo-
Version:Beginner
Source:REFLEC BEAT plus
Tags:jubeat plus Notebook Records Kousuke SUGIMOTO atian540 Satania Daimaou
BeatmapID:1400678
BeatmapSetID:657783

[Difficulty]
HPDrainRate:7
CircleSize:7
OverallDifficulty:7
ApproachRate:5
SliderMultiplier:1.4
SliderTickRate:1

[Events]
//Background and Video events
0,0,"elices.jpg",0,0
//Break Periods
//Storyboard Layer 0 (Background)
//Storyboard Layer 1 (Fail)
//Storyboard Layer 2 (Pass)
//Storyboard Layer 3 (Foreground)
//Storyboard Sound Samples

[TimingPoints]
7466,333.333333333333,4,2,0,50,1,0
18132,-100,4,2,0,50,0,1
18215,-100,4,2,0,50,0,0
21465,-100,4,2,0,50,0,1
21632,-100,4,2,0,50,0,0
34132,-100,4,2,0,50,0,1
34215,-100,4,2,0,50,0,0
72799,-100,4,2,0,50,0,1
74132,-100,4,2,0,50,0,0
76799,-100,4,2,0,50,0,1
96799,-100,4,2,0,50,0,0
98132,-100,4,2,0,50,0,1
110799,-100,4,2,0,50,0,0
111465,-100,4,2,0,50,0,1
113465,-100,4,2,0,50,0,0
114132,-100,4,2,0,50,0,1
118132,-100,4,2,0,50,0,0

[HitObjects]
256,192,7465,5,0,0:0:0:20:D6-CH.wav
36,192,7465,1,0,0:0:0:10:D6.wav
402,192,8132,1,0,0:0:0:10:D6.wav
109,192,8799,1,0,0:0:0:40:G6.wav
402,192,9465,1,0,0:0:0:10:D6.wav
329,192,10132,1,0,0:0:0:20:D6-CH.wav
475,192,10132,1,0,0:0:0:10:D6.wav
36,192,10799,1,0,0:0:0:10:D6.wav
475,192,11465,1,0,0:0:0:40:G6.wav
109,192,12132,1,0,0:0:0:10:D6.wav
329,192,12799,1,0,0:0:0:20:D6-CH.wav
256,192,12799,1,0,0:0:0:20:D6.wav
402,192,13465,1,0,0:0:0:10:D6.wav
109,192,14132,1,0,0:0:0:40:G6.wav
402,192,14799,1,0,0:0:0:10:D6.wav
182,192,15465,1,0,0:0:0:20:C#6-CH.wav
36,192,15465,1,0,0:0:0:10:C#6.wav
329,192,16132,1,0,0:0:0:10:C#6.wav
36,192,16799,1,0,0:0:0:40:F#6.wav
402,192,17465,1,0,0:0:0:10:C#6.wav
109,192,17799,128,0,18132:0:0:0:20:Lazer.wav
256,192,18132,1,0,0:0:0:20:Lazer.wav
475,192,18132,1,0,0:0:0:13:Crash.wav
402,192,18799,1,0,0:0:0:20:Lazer.wav
109,192,19465,1,0,0:0:0:20:Lazer.wav
329,192,20132,1,0,0:0:0:20:Lazer.wav
36,192,20799,1,0,0:0:0:20:Lazer.wav
182,192,20799,1,0,0:0:0:0:
402,192,21465,128,0,21632:0:0:0:20:Lazer.wav
36,192,21965,1,0,0:0:0:70:G5SH-JG.wav
109,192,22132,1,0,0:0:0:70:G5LN-JG.wav
475,192,22465,1,0,0:0:0:70:D5-JG.wav
402,192,22799,1,0,0:0:0:70:A#5-JG.wav
329,192,23132,1,0,0:0:0:70:A5-JG.wav
109,192,23465,128,0,23799:0:0:0:70:G5LN-JG.wav
402,192,23465,1,0,0:0:0:40:Crash.wav
256,192,23799,1,0,0:0:0:30:Lazer.wav
402,192,24132,1,0,0:0:0:30:Lazer.wav
36,192,24465,1,0,0:0:0:30:Lazer.wav
329,192,24799,1,0,0:0:0:30:Lazer.wav
475,192,25132,1,0,0:0:0:30:Lazer.wav
109,192,25465,1,0,0:0:0:30:Lazer.wav
182,192,25799,1,0,0:0:0:30:Lazer.wav
329,192,26132,1,0,0:0:0:30:Lazer.wav
256,192,26465,1,0,0:0:0:30:Lazer.wav
475,192,26799,1,0,0:0:0:30:Lazer.wav
109,192,27132,1,0,0:0:0:30:Lazer.wav
402,192,27465,128,0,27799:0:0:0:30:Lazer.wav
109,192,27799,128,0,28132:0:0:0:70:A#4-HO.wav
329,192,28132,128,0,28799:0:0:0:30:Lazer.wav
182,192,28799,128,0,29132:0:0:0:30:Lazer.wav
109,192,29132,1,0,0:0:0:30:Lazer.wav
475,192,29465,1,0,0:0:0:30:Lazer.wav
182,192,29799,1,0,0:0:0:30:Lazer.wav
36,192,30132,1,0,0:0:0:30:Lazer.wav
329,192,30465,1,0,0:0:0:30:Lazer.wav
475,192,30799,1,0,0:0:0:30:Lazer.wav
256,192,30965,1,0,0:0:0:30:Lazer.wav
109,192,31132,1,0,0:0:0:30:Lazer.wav
402,192,31299,1,0,0:0:0:30:Lazer.wav
36,192,31465,1,0,0:0:0:30:Lazer.wav
182,192,31632,1,0,0:0:0:30:Lazer.wav
329,192,31799,1,0,0:0:0:30:Lazer.wav
182,192,32132,1,0,0:0:0:30:Lazer.wav
475,192,32465,1,0,0:0:0:30:Lazer.wav
402,192,32632,1,0,0:0:0:30:Lazer.wav
256,192,32799,128,0,33132:0:0:0:30:Lazer.wav
109,192,33132,128,0,33465:0:0:0:30:Lazer.wav
402,192,33465,128,0,33799:0:0:0:30:Lazer.wav
329,192,33799,128,0,34132:0:0:0:30:Lazer.wav
109,192,34132,1,0,0:0:0:20:FPC 2 Kick.wav
329,192,34465,1,0,0:0:0:20:FPC 2 Kick.wav
256,192,34799,1,0,0:0:0:20:FPC 2 Kick.wav
109,192,35132,1,0,0:0:0:20:FPC 2 Kick.wav
402,192,35465,1,0,0:0:0:20:FPC 2 Kick.wav
475,192,35799,1,0,0:0:0:20:FPC 2 Kick.wav
109,192,36132,1,0,0:0:0:20:FPC 2 Kick.wav
329,192,36465,1,0,0:0:0:20:FPC 2 Kick.wav
36,192,36799,1,0,0:0:0:20:FPC 2 Kick.wav
256,192,37132,1,0,0:0:0:20:FPC 2 Kick.wav
475,192,37465,1,0,0:0:0:20:FPC 2 Kick.wav
109,192,37799,1,0,0:0:0:20:FPC 2 Kick.wav
329,192,38132,1,0,0:0:0:20:FPC 2 Kick.wav
182,192,38465,1,0,0:0:0:20:FPC 2 Kick.wav
402,192,38799,1,0,0:0:0:20:FPC 2 Kick.wav
36,192,39132,1,0,0:0:0:20:FPC 2 Kick.wav
109,192,39299,1,0,0:0:0:40:FPC 2 Kick.wav
182,192,39465,1,0,0:0:0:20:FPC 2 Kick.wav
475,192,39799,1,0,0:0:0:20:FPC 2 Kick.wav
109,192,40132,1,0,0:0:0:20:FPC 2 Kick.wav
329,192,40465,1,0,0:0:0:20:FPC 2 Kick.wav
256,192,40799,1,0,0:0:0:20:FPC 2 Kick.wav
475,192,41132,1,0,0:0:0:20:FPC 2 Kick.wav
402,192,41465,1,0,0:0:0:20:FPC 2 Kick.wav
256,192,41799,1,0,0:0:0:20:FPC 2 Kick.wav
36,192,42132,1,0,0:0:0:20:FPC 2 Kick.wav
109,192,42465,1,0,0:0:0:20:FPC 2 Kick.wav
182,192,42799,1,0,0:0:0:20:FPC 2 Kick.wav
256,192,43132,1,0,0:0:0:20:FPC 2 Kick.wav
329,192,43465,128,0,44132:0:0:0:40:FPC 2 Kick.wav
475,192,44132,128,0,44799:0:0:0:40:FPC 2 Kick.wav
109,192,44799,128,0,47465:0:0:0:20:SFX Cym Airy.wav
256,192,47465,128,0,48799:0:0:0:20:D6-CH.wav
402,192,48799,128,0,50132:0:0:0:10:F#6.wav
36,192,50132,128,0,52799:0:0:0:20:D6-CH.wav
329,192,52799,128,0,54799:0:0:0:20:FPC 2 Kick.wav
109,192,55465,128,0,56132:0:0:0:70:G5-Drop.wav
256,192,55465,1,0,0:0:0:0:
402,192,56132,128,0,56465:0:0:0:70:F#5-Drop.wav
182,192,56465,128,0,56799:0:0:0:70:G5S-Drop.wav
256,192,56799,128,0,57465:0:0:0:70:A5-Drop.wav
36,192,57465,128,0,57799:0:0:0:70:G5S-Drop.wav
402,192,57799,128,0,58132:0:0:0:70:A5S-Drop.wav
475,192,58132,128,0,58799:0:0:0:70:A#5-Drop.wav
109,192,58799,128,0,59132:0:0:0:70:A5S-Drop.wav
329,192,59132,128,0,59465:0:0:0:70:A#5S-Drop.wav
256,192,59465,128,0,60132:0:0:0:70:C6-Drop.wav
402,192,60132,128,0,60465:0:0:0:70:A#5S-Drop.wav
109,192,60465,128,0,60799:0:0:0:70:C6S-Drop.wav
182,192,60799,128,0,61465:0:0:0:70:D6-Drop.wav
475,192,61465,128,0,61799:0:0:0:70:C6S-Drop.wav
329,192,61799,128,0,62132:0:0:0:70:A#5S-Drop.wav
182,192,62132,128,0,62799:0:0:0:70:C6-Drop.wav
36,192,62799,128,0,63132:0:0:0:70:G5S-Drop.wav
329,192,63132,128,0,63465:0:0:0:70:A5S-Drop.wav
475,192,63465,128,0,64132:0:0:0:70:A#5-Drop.wav
109,192,64132,128,0,64465:0:0:0:70:A5S-Drop.wav
256,192,64465,128,0,64799:0:0:0:70:G5S-Drop.wav
402,192,64799,128,0,65465:0:0:0:70:F#6-Drop.wav
109,192,65465,128,0,66132:0:0:0:70:Lazer.wav
256,192,66132,1,0,0:0:0:10:FPC 2 Kick.wav
475,192,66465,1,0,0:0:0:40:FPC 2 Kick.wav
36,192,66799,1,0,0:0:0:40:FPC 2 Kick.wav
256,192,67132,1,0,0:0:0:40:FPC 2 Kick.wav
109,192,67465,1,0,0:0:0:40:FPC 2 Kick.wav
475,192,67799,1,0,0:0:0:40:FPC 2 Kick.wav
329,192,68132,1,0,0:0:0:40:FPC 2 Kick.wav
36,192,68465,1,0,0:0:0:40:FPC 2 Kick.wav
182,192,68632,1,0,0:0:0:20:FPC 2 Kick.wav
402,192,68799,1,0,0:0:0:40:FPC 2 Kick.wav
182,192,69132,1,0,0:0:0:40:FPC 2 Kick.wav
256,192,69465,1,0,0:0:0:40:FPC 2 Kick.wav
36,192,69799,1,0,0:0:0:40:FPC 2 Kick.wav
402,192,70132,1,0,0:0:0:40:FPC 2 Kick.wav
182,192,70465,1,0,0:0:0:40:FPC 2 Kick.wav
475,192,70799,1,0,0:0:0:40:FPC 2 Kick.wav
329,192,70965,1,0,0:0:0:20:FPC 2 Kick.wav
36,192,71132,1,0,0:0:0:40:FPC 2 Kick.wav
182,192,71299,1,0,0:0:0:20:FPC 2 Kick.wav
475,192,71465,128,0,72132:0:0:0:40:FPC 2 Kick.wav
329,192,72132,128,0,72465:0:0:0:40:FPC 2 Kick.wav
109,192,72465,128,0,72799:0:0:0:40:FPC 2 Kick.wav
256,192,72799,128,0,74132:0:0:0:10:Lazer.wav
329,192,74132,1,0,0:0:0:20:FPC 2 Kick.wav
182,192,74465,1,0,0:0:0:10:TICk.wav
329,192,74799,1,0,0:0:0:10:Medium Tick.wav
182,192,75132,1,0,0:0:0:10:TICk.wav
475,192,75299,1,0,0:0:0:40:G5SH-JG.wav
402,192,75465,1,0,0:0:0:40:G5LN-JG.wav
36,192,75799,1,0,0:0:0:40:D5-JG.wav
182,192,76132,1,0,0:0:0:40:A#5-JG.wav
329,192,76465,1,0,0:0:0:40:A5-JG.wav
182,192,76799,128,0,77132:0:0:0:60:FPC 2 Kick.wav
36,192,76799,1,0,0:0:0:30:G7-Chor.wav
402,192,77132,1,0,0:0:0:60:FPC 2 Kick.wav
256,192,77465,1,0,0:0:0:60:FPC 2 Kick.wav
36,192,77799,1,0,0:0:0:60:FPC 2 Kick.wav
402,192,78132,1,0,0:0:0:60:FPC 2 Kick.wav
182,192,78465,1,0,0:0:0:60:FPC 2 Kick.wav
475,192,78799,1,0,0:0:0:60:FPC 2 Kick.wav
36,192,79132,1,0,0:0:0:60:FPC 2 Kick.wav
256,192,79465,1,0,0:0:0:60:FPC 2 Kick.wav
475,192,79799,1,0,0:0:0:60:FPC 2 Kick.wav
109,192,80132,1,0,0:0:0:60:FPC 2 Kick.wav
329,192,80465,1,0,0:0:0:60:FPC 2 Kick.wav
256,192,80799,1,0,0:0:0:60:FPC 2 Kick.wav
36,192,81132,1,0,0:0:0:60:FPC 2 Kick.wav
402,192,81465,1,0,0:0:0:60:FPC 2 Kick.wav
109,192,81799,1,0,0:0:0:60:FPC 2 Kick.wav
402,192,82132,1,0,0:0:0:60:FPC 2 Kick.wav
36,192,82465,1,0,0:0:0:60:FPC 2 Kick.wav
182,192,82799,1,0,0:0:0:60:FPC 2 Kick.wav
329,192,83132,1,0,0:0:0:60:FPC 2 Kick.wav
36,192,83465,1,0,0:0:0:60:FPC 2 Kick.wav
475,192,83799,1,0,0:0:0:60:FPC 2 Kick.wav
329,192,84132,1,0,0:0:0:60:FPC 2 Kick.wav
402,192,84465,1,0,0:0:0:60:FPC 2 Kick.wav
256,192,84632,1,0,0:0:0:60:FPC 2 Kick.wav
109,192,84799,1,0,0:0:0:60:FPC 2 Kick.wav
256,192,85132,1,0,0:0:0:60:FPC 2 Kick.wav
475,192,85465,1,0,0:0:0:60:FPC 2 Kick.wav
36,192,85799,1,0,0:0:0:60:FPC 2 Kick.wav
329,192,86132,1,0,0:0:0:30:FPC 2 Kick.wav
256,192,86299,1,0,0:0:0:60:FPC 2 Kick.wav
109,192,86465,1,0,0:0:0:60:FPC 2 Kick.wav
256,192,86799,1,0,0:0:0:60:FPC 2 Kick.wav
182,192,86965,1,0,0:0:0:60:FPC 2 Kick.wav
36,192,87132,128,0,87465:0:0:0:60:FPC 2 Kick.wav
329,192,87465,1,0,0:0:0:60:FPC 2 Kick.wav
402,192,87799,1,0,0:0:0:60:FPC 2 Kick.wav
36,192,88132,1,0,0:0:0:60:FPC 2 Kick.wav
329,192,88465,1,0,0:0:0:60:FPC 2 Kick.wav
475,192,88799,1,0,0:0:0:60:FPC 2 Kick.wav
109,192,89132,1,0,0:0:0:60:FPC 2 Kick.wav
402,192,89465,1,0,0:0:0:60:FPC 2 Kick.wav
256,192,89799,1,0,0:0:0:60:FPC 2 Kick.wav
109,192,90132,1,0,0:0:0:60:FPC 2 Kick.wav
329,192,90465,1,0,0:0:0:60:FPC 2 Kick.wav
256,192,90799,1,0,0:0:0:60:FPC 2 Kick.wav
475,192,91132,1,0,0:0:0:60:FPC 2 Kick.wav
36,192,91465,1,0,0:0:0:60:FPC 2 Kick.wav
109,192,91799,1,0,0:0:0:60:FPC 2 Kick.wav
402,192,92132,1,0,0:0:0:60:FPC 2 Kick.wav
256,192,92465,1,0,0:0:0:60:FPC 2 Kick.wav
475,192,92799,1,0,0:0:0:60:FPC 2 Kick.wav
109,192,93132,1,0,0:0:0:60:FPC 2 Kick.wav
402,192,93465,1,0,0:0:0:60:FPC 2 Kick.wav
182,192,93799,1,0,0:0:0:60:FPC 2 Kick.wav
36,192,94132,1,0,0:0:0:60:FPC 2 Kick.wav
329,192,94465,1,0,0:0:0:60:FPC 2 Kick.wav
109,192,94799,1,0,0:0:0:60:FPC 2 Kick.wav
256,192,95132,128,0,95465:0:0:0:40:FPC 2 Kick.wav
402,192,95465,1,0,0:0:0:40:FPC 2 Kick.wav
109,192,95799,1,0,0:0:0:60:FPC 2 Kick.wav
329,192,96132,1,0,0:0:0:60:FPC 2 Kick.wav
182,192,96299,1,0,0:0:0:60:FPC 2 Kick.wav
402,192,96465,1,0,0:0:0:60:FPC 2 Kick.wav
109,192,96632,1,0,0:0:0:60:FPC 2 Kick.wav
182,192,96799,1,0,0:0:0:0:
256,192,97132,1,0,0:0:0:10:TICk.wav
402,192,97465,1,0,0:0:0:10:Medium Tick.wav
256,192,97799,128,0,98132:0:0:0:10:TICk.wav
36,192,98132,1,0,0:0:0:20:FPC 2 Kick.wav
182,192,98132,1,0,0:0:0:25:G7-Chor.wav
402,192,98465,1,0,0:0:0:20:FPC 2 Kick.wav
256,192,98799,1,0,0:0:0:20:FPC 2 Kick.wav
109,192,99132,1,0,0:0:0:20:FPC 2 Kick.wav
475,192,99465,1,0,0:0:0:20:FPC 2 Kick.wav
182,192,99799,1,0,0:0:0:20:FPC 2 Kick.wav
329,192,100132,1,0,0:0:0:20:FPC 2 Kick.wav
109,192,100465,1,0,0:0:0:20:FPC 2 Kick.wav
256,192,100632,1,0,0:0:0:25:D7-Chor.wav
402,192,100799,1,0,0:0:0:20:FPC 2 Kick.wav
182,192,101132,1,0,0:0:0:20:FPC 2 Kick.wav
475,192,101465,1,0,0:0:0:20:FPC 2 Kick.wav
36,192,101799,1,0,0:0:0:20:FPC 2 Kick.wav
256,192,102132,1,0,0:0:0:20:FPC 2 Kick.wav
475,192,102465,1,0,0:0:0:20:FPC 2 Kick.wav
109,192,102799,1,0,0:0:0:20:FPC 2 Kick.wav
329,192,103132,1,0,0:0:0:20:FPC 2 Kick.wav
109,192,103465,1,0,0:0:0:20:FPC 2 Kick.wav
182,192,103799,1,0,0:0:0:20:FPC 2 Kick.wav
475,192,104132,1,0,0:0:0:20:FPC 2 Kick.wav
36,192,104465,1,0,0:0:0:20:FPC 2 Kick.wav
402,192,104799,1,0,0:0:0:20:FPC 2 Kick.wav
329,192,104965,1,0,0:0:0:20:FPC 2 Kick.wav
256,192,105132,1,0,0:0:0:20:FPC 2 Kick.wav
109,192,105465,1,0,0:0:0:20:FPC 2 Kick.wav
182,192,105799,1,0,0:0:0:20:FPC 2 Kick.wav
256,192,105965,1,0,0:0:0:20:FPC 2 Kick.wav
329,192,106132,1,0,0:0:0:20:FPC 2 Kick.wav
36,192,106465,1,0,0:0:0:20:FPC 2 Kick.wav
182,192,106799,1,0,0:0:0:20:FPC 2 Kick.wav
475,192,107132,1,0,0:0:0:20:FPC 2 Kick.wav
256,192,107465,1,0,0:0:0:20:FPC 2 Kick.wav
329,192,107632,1,0,0:0:0:20:FPC 2 Kick.wav
182,192,107799,1,0,0:0:0:20:FPC 2 Kick.wav
402,192,108132,1,0,0:0:0:20:FPC 2 Kick.wav
329,192,108299,1,0,0:0:0:0:
109,192,108465,1,0,0:0:0:20:Lazer.wav
182,192,108632,1,0,0:0:0:40:Lazer.wav
329,192,108799,1,0,0:0:0:20:FPC 2 Kick.wav
109,192,109132,1,0,0:0:0:20:FPC 2 Kick.wav
475,192,109465,1,0,0:0:0:20:FPC 2 Kick.wav
182,192,109799,1,0,0:0:0:20:FPC 2 Kick.wav
36,192,110132,1,0,0:0:0:20:FPC 2 Kick.wav
402,192,110465,1,0,0:0:0:20:FPC 2 Kick.wav
256,192,110799,128,0,111465:0:0:0:40:Lazer.wav
36,192,111465,1,0,0:0:0:20:FPC 2 Kick.wav
475,192,111799,1,0,0:0:0:20:FPC 2 Kick.wav
182,192,112132,1,0,0:0:0:20:FPC 2 Kick.wav
402,192,112465,1,0,0:0:0:20:FPC 2 Kick.wav
109,192,112799,1,0,0:0:0:20:FPC 2 Kick.wav
329,192,113132,1,0,0:0:0:20:FPC 2 Kick.wav
109,192,113465,1,0,0:0:0:15:C6-Drop.wav
182,192,113632,1,0,0:0:0:15:A5-Drop.wav
256,192,113799,1,0,0:0:0:15:F#6-Drop.wav
329,192,113965,1,0,0:0:0:15:A5-Drop.wav
182,192,114132,128,0,115299:0:0:0:20:FPC 2 Kick.wav
402,192,114132,1,0,0:0:0:20:Lazer.wav
475,192,115299,128,0,115465:0:0:0:15:Lazer.wav
402,192,115465,128,0,116632:0:0:0:20:FPC 2 Kick.wav
329,192,116632,128,0,116799:0:0:0:20:Lazer.wav
36,192,116799,128,0,117465:0:0:0:20:Lazer.wav
256,192,117465,128,0,118132:0:0:0:20:Lazer.wav
402,192,118132,128,0,119465:0:0:0:20:FPC 2 Kick.wav
109,192,119465,1,0,0:0:0:10:FPC 2 Kick.wav
329,192,119799,1,0,0:0:0:20:TICk.wav
256,192,120132,1,0,0:0:0:20:Medium Tick.wav
36,192,120465,1,0,0:0:0:20:TICk.wav
475,192,120799,1,0,0:0:0:20:High Tick.wav
182,192,121132,1,0,0:0:0:20:TICk.wav
329,192,121465,1,0,0:0:0:20:Medium Tick.wav
109,192,121799,1,0,0:0:0:20:TICk.wav
36,192,122132,1,0,0:0:0:13:High Tick.wav
182,192,122132,1,0,0:0:0:0:
256,192,122465,1,0,0:0:0:20:TICk.wav
475,192,122799,1,0,0:0:0:20:Medium Tick.wav
109,192,123132,1,0,0:0:0:20:TICk.wav
402,192,123465,1,0,0:0:0:20:High Tick.wav
475,192,123799,1,0,0:0:0:20:TICk.wav
36,192,124132,1,0,0:0:0:20:Medium Tick.wav
329,192,124465,1,0,0:0:0:20:TICk.wav
256,192,124799,128,0,128132:0:0:0:15:Last.wav
