osu file format v14

[General]
AudioFilename: audio.mp3
AudioLeadIn: 0
PreviewTime: 77548
Countdown: 0
SampleSet: None
StackLeniency: 0.7
Mode: 0
LetterboxInBreaks: 0
WidescreenStoryboard: 0

[Editor]
DistanceSpacing: 1
BeatDivisor: 4
GridSize: 4
TimelineZoom: 1

[Metadata]
Title:ALICE IN VOODOOLAND
TitleUnicode:ALICE IN VOODOOLAND
Artist:RoughSketch ft.Aikapin
ArtistUnicode:RoughSketch ft.Aikapin
Creator:Namo
Version:Nightmare
Source:
Tags:
BeatmapID:1156578
BeatmapSetID:545979

[Difficulty]
HPDrainRate:6
CircleSize:4.2
OverallDifficulty:8.5
ApproachRate:9.6
SliderMultiplier:1.6
SliderTickRate:1

[Events]
//Background and Video events
0,0,"image.jpg",0,0
Video,0,"RoughSketch ft.Aikapin - Alice In Voodooland VIDEO.mp4"
//Break Periods
2,45748,53039
//Storyboard Layer 0 (Background)
//Storyboard Layer 1 (Fail)
//Storyboard Layer 2 (Pass)
//Storyboard Layer 3 (Foreground)
//Storyboard Sound Samples

[TimingPoints]
8215,333.333333333333,4,1,0,45,1,0
8215,-133.333333333333,4,1,0,45,0,0
18548,-200,4,1,0,40,0,0
18881,-100,4,1,0,70,0,0
22881,-100,4,1,0,70,0,0
23131,-100,4,1,0,5,0,0
23214,-133.333333333333,4,1,0,70,0,0
23464,-133.333333333333,4,1,0,5,0,0
23548,-83.3333333333333,4,1,0,70,0,0
23798,-83.3333333333333,4,1,0,5,0,0
23881,-83.3333333333333,4,1,0,70,0,0
24131,-83.3333333333333,4,1,0,5,0,0
24214,-100,4,1,0,70,0,0
28214,-83.3333333333333,4,1,0,70,0,0
28464,-83.3333333333333,4,1,0,5,0,0
28548,-83.3333333333333,4,1,0,70,0,0
28798,-83.3333333333333,4,1,0,5,0,0
28881,-83.3333333333333,4,1,0,70,0,0
29548,-100,4,1,0,70,0,0
33548,-83.3333333333333,4,1,0,70,0,0
34131,-83.3333333333333,4,1,0,5,0,0
34214,-90.9090909090909,4,1,0,70,0,0
34881,-133.333333333333,4,1,0,50,0,0
42881,-133.333333333333,4,1,0,50,0,0
43131,-133.333333333333,4,1,0,5,0,0
43214,-133.333333333333,4,1,0,50,0,0
43464,-133.333333333333,4,1,0,5,0,0
43548,-133.333333333333,4,1,0,50,0,0
43881,-100,4,1,0,50,0,0
44881,-133.333333333333,4,1,0,45,0,0
45548,-200,4,1,0,25,0,0
53548,-100,4,1,0,5,0,0
53714,-100,4,1,0,10,0,0
53881,-100,4,1,0,15,0,0
54048,-100,4,1,0,20,0,0
54214,-100,4,1,0,25,0,0
54381,-100,4,1,0,30,0,0
54548,-100,4,1,0,35,0,0
54714,-100,4,1,0,40,0,0
54881,-100,4,1,0,45,0,0
55048,-100,4,1,0,50,0,0
55214,-100,4,1,0,55,0,0
55381,-100,4,1,0,60,0,0
55548,-100,4,1,0,5,0,0
56214,-200,4,1,0,70,0,0
66881,-133.333333333333,4,1,0,70,0,0
72214,-100,4,1,0,70,0,0
73548,-100,4,1,0,55,0,0
74214,-100,4,1,0,65,0,0
76214,-100,4,1,0,70,0,0
76464,-100,4,1,0,5,0,0
76548,-133.333333333333,4,1,0,70,0,0
76798,-133.333333333333,4,1,0,5,0,0
76881,-83.3333333333333,4,1,0,70,0,0
77131,-83.3333333333333,4,1,0,5,0,0
77214,-83.3333333333333,4,1,0,70,0,0
77464,-83.3333333333333,4,1,0,5,0,0
77548,-76.9230769230769,4,1,0,70,0,1
87881,-66.6666666666667,4,1,0,70,0,1
88214,-76.9230769230769,4,1,0,70,0,1
90214,-71.4285714285714,4,1,0,70,0,1
90881,-76.9230769230769,4,1,0,70,0,1
97381,-100,4,1,0,100,0,0
98548,-133.333333333333,4,1,0,45,0,0
98881,-76.9230769230769,4,1,0,70,0,1
111548,-133.333333333333,4,1,0,20,0,0
112214,-76.9230769230769,4,1,0,70,0,1
114214,-133.333333333333,4,1,0,20,0,0
114881,-76.9230769230769,4,1,0,70,0,1
119048,-100,4,1,0,5,0,1
120214,-133.333333333333,4,1,0,45,0,0
125548,-200,4,1,0,25,0,0

[Colours]
Combo1 : 189,9,117
Combo2 : 232,222,138
Combo3 : 234,182,96
Combo4 : 208,114,222
Combo5 : 217,64,64
Combo6 : 230,6,6
Combo7 : 237,78,10

[HitObjects]
140,164,8215,6,0,P|84:140|64:84,1,120.000004577637
212,132,8881,2,0,P|212:196|160:232,1,120.000004577637
144,88,9548,5,0,0:0:0:0:
360,132,9881,1,0,0:0:0:0:
184,168,10214,5,0,0:0:0:0:
280,80,10548,1,0,0:0:0:0:
328,252,10881,6,0,P|392:248|432:284,1,120.000004577637
280,316,11548,2,0,P|244:256|268:196,1,120.000004577637
360,320,12214,5,0,0:0:0:0:
144,256,12548,1,0,0:0:0:0:
308,248,12881,5,0,0:0:0:0:
200,332,13214,1,0,0:0:0:0:
440,204,13548,6,0,P|476:152|460:96,1,120.000004577637
364,212,14214,2,0,P|392:268|456:280,1,120.000004577637
396,140,14881,5,0,0:0:0:0:
264,308,15214,1,0,0:0:0:0:
308,156,15548,5,0,0:0:0:0:
352,284,15881,1,0,0:0:0:0:
152,184,16214,6,0,B|80:220|80:220|60:264,1,120.000004577637
218,226,16881,2,0,B|220:144|220:144|196:112,1,120.000004577637
148,264,17548,5,0,0:0:0:0:
296,212,17881,1,0,0:0:0:0:
248,72,18214,1,0,0:0:0:0:
96,124,18548,2,0,P|68:105|55:78,1,60
124,60,18881,6,0,P|204:67|246:5,1,160,12|0,0:0|0:0,0:0:0:0:
419,192,19548,6,0,P|331:172|310:102,1,160
152,272,20214,6,0,P|216:220|204:148,1,160
304,368,20881,6,0,P|284:284|336:236,1,160
128,256,21381,1,8,0:0:0:0:
364,312,21548,6,0,B|396:295|413:265|417:241|412:212|394:188|394:188|358:145|352:112|363:62|412:32,1,320,4|0,0:0|0:0,0:0:0:0:
148,104,22714,5,0,0:0:0:0:
104,264,22881,2,0,P|164:224|212:240,1,120
167,294,23214,6,0,L|144:201,1,90.0000034332277
296,104,23548,6,0,B|276:204|276:204|288:248,1,143.999995605469
376,320,23881,6,0,P|430:265|424:204,1,143.999995605469
321,72,24214,6,0,P|248:116|184:84,1,160,4|0,0:0|0:0,0:0:0:0:
186,86,24714,1,0,0:0:0:0:
72,280,24881,6,0,P|32:208|69:144,1,160
66,145,25381,1,0,0:0:0:0:
240,212,25548,6,0,B|292:232|292:232|400:200,2,160
308,68,26381,1,0,0:0:0:0:
299,313,26548,6,0,L|383:289,1,80
254,378,26881,6,0,P|218:305|259:243,1,160
256,244,27381,1,0,0:0:0:0:
432,168,27548,6,0,P|440:248|376:288,1,160
380,287,28048,1,0,0:0:0:0:
332,104,28214,6,0,L|188:136,1,143.999995605469,2|0,0:0|0:0,0:0:0:0:
120,152,28548,2,0,B|144:192|144:192|193:210|193:210|223:254,1,143.999995605469,2|0,0:0|0:0,0:0:0:0:
148,268,28881,5,2,0:0:0:0:
292,80,29048,1,0,0:0:0:0:
396,292,29214,1,2,0:0:0:0:
396,292,29548,6,0,P|344:360|272:344,1,160,4|0,0:0|0:0,0:0:0:0:
278,349,30048,1,0,0:0:0:0:
152,228,30214,6,0,P|180:144|136:96,1,160
137,96,30714,1,0,0:0:0:0:
68,322,30881,6,0,B|185:302|185:302|224:266,2,160
104,168,31714,1,0,0:0:0:0:
260,340,31881,5,0,0:0:0:0:
280,184,32048,2,0,L|304:196,2,26.6666666666667
240,160,32214,5,0,0:0:0:0:
424,208,32381,1,0,0:0:0:0:
267,83,32548,2,0,P|188:92|159:171,2,160
72,144,33381,5,0,0:0:0:0:
72,144,33464,1,0,0:0:0:0:
72,144,33548,6,0,L|104:236,1,95.9999970703126,2|0,0:0|0:0,0:0:0:0:
408,148,33881,6,0,P|363:97|285:111,1,143.999995605469,2|0,0:0|0:0,0:0:0:0:
335,167,34214,5,2,0:0:0:0:
132,100,34381,1,0,0:0:0:0:
168,304,34548,1,2,0:0:0:0:
168,304,34881,6,0,L|144:376,1,60.0000022888184
264,264,35214,2,0,L|240:336,1,60.0000022888184
92,280,35548,6,0,P|136:233|199:231,1,120.000004577637
416,160,36214,6,0,L|448:104,1,60.0000022888184
316,184,36548,2,0,L|348:128,1,60.0000022888184
484,196,36881,6,0,P|436:236|373:227,1,120.000004577637
216,80,37548,5,0,0:0:0:0:
136,105,37714,1,0,0:0:0:0:
80,167,37881,1,0,0:0:0:0:
71,250,38048,1,0,0:0:0:0:
132,345,38214,5,0,0:0:0:0:
201,365,38381,1,0,0:0:0:0:
272,352,38548,1,0,0:0:0:0:
322,300,38714,1,0,0:0:0:0:
397,155,38881,6,0,L|451:182,1,60.0000022888184
330,123,39214,2,0,B|314:82|314:82|282:60|282:60|267:19,1,120.000004577637
93,168,39881,5,0,0:0:0:0:
193,150,40048,1,0,0:0:0:0:
157,245,40214,6,0,P|218:268|236:316,1,120.000004577637
68,292,40714,5,0,0:0:0:0:
161,318,40881,1,0,0:0:0:0:
95,367,41048,1,0,0:0:0:0:
132,243,41214,1,0,0:0:0:0:
277,219,41381,6,0,L|210:206,2,60.0000022888184
195,120,41881,1,0,0:0:0:0:
356,33,42048,5,0,0:0:0:0:
311,139,42214,1,0,0:0:0:0:
264,58,42381,1,0,0:0:0:0:
404,112,42548,1,0,0:0:0:0:
404,112,42881,6,0,P|437:140|448:189,1,90.0000034332277
378,179,43214,2,0,P|331:183|299:217,1,90.0000034332277
362,248,43548,1,0,0:0:0:0:
362,248,43881,5,0,0:0:0:0:
141,302,44214,6,0,P|116:264|109:222,1,80
209,99,44548,2,0,L|209:186,1,80
371,302,44881,6,0,P|388:276|396:242,1,60.0000022888184
302,108,45214,2,0,L|302:176,1,60.0000022888184
256,317,45548,5,4,0:0:0:0:
256,192,53548,12,0,55548,0:0:0:0:
256,76,56214,6,0,B|254:106|258:123|276:150|310:159|310:159|307:191|326:219,1,160,4|0,0:0|0:0,0:0:0:0:
328,88,57214,1,0,0:0:0:0:
328,88,57548,6,0,P|289:12|213:19,1,160
200,152,58548,1,0,0:0:0:0:
200,152,58881,6,0,L|240:312,1,160
100,208,59881,1,0,0:0:0:0:
100,208,60214,6,0,P|136:140|80:68,1,160
272,196,61214,1,0,0:0:0:0:
272,196,61548,6,0,B|308:230|349:216|349:216|390:203|428:236,1,160
328,144,62548,1,0,0:0:0:0:
328,144,62881,6,0,P|244:124|200:173,1,160
372,292,63881,1,0,0:0:0:0:
372,292,64214,6,0,L|224:364,1,160
484,320,65214,1,0,0:0:0:0:
484,320,65548,6,0,P|496:240|436:192,1,160
304,48,66881,6,0,L|320:116,1,60.0000022888184,4|0,0:0|0:0,0:0:0:0:
208,68,67214,2,0,L|192:0,1,60.0000022888184
280,168,67548,6,0,P|312:180|340:176,1,60.0000022888184
252,272,67881,2,0,P|224:292|208:319,1,60.0000022888184
339,356,68214,6,0,L|267:336,1,60.0000022888184
384,280,68548,2,0,L|441:296,1,60.0000022888184
384,196,68881,2,0,L|312:176,1,60.0000022888184
216,300,69214,5,0,0:0:0:0:
149,354,69381,1,0,0:0:0:0:
68,333,69548,6,0,B|44:313|44:313|32:281,1,60.0000022888184,4|0,0:0|0:0,0:0:0:0:
192,188,69881,6,0,L|208:128,1,60.0000022888184
312,72,70214,2,0,L|296:132,1,60.0000022888184
125,221,70548,6,0,P|145:249|173:261,1,60.0000022888184
207,130,70881,2,0,P|227:109|235:77,1,60.0000022888184
102,75,71214,5,0,0:0:0:0:
48,136,71381,2,0,L|24:136,2,20.0000007629395
48,184,71548,5,0,0:0:0:0:
125,151,71715,1,0,0:0:0:0:
203,184,71880,1,0,0:0:0:0:
235,261,72048,1,0,0:0:0:0:
203,339,72214,6,0,L|136:384,1,80,4|0,0:0|0:0,0:0:0:0:
235,261,72548,2,0,L|302:216,1,80
203,184,72881,6,0,L|136:229,1,80
235,106,73215,2,0,L|302:61,1,80
439,124,73547,5,4,0:0:0:0:
456,160,73630,1,0,0:0:0:0:
461,200,73714,1,0,0:0:0:0:
456,240,73798,1,0,0:0:0:0:
439,276,73881,5,0,0:0:0:0:
405,309,73964,1,0,0:0:0:0:
361,329,74048,1,0,0:0:0:0:
314,338,74131,1,0,0:0:0:0:
266,331,74214,6,0,L|228:320,3,40
296,260,74548,6,0,L|334:271,3,40
216,240,76048,5,0,0:0:0:0:
368,200,76214,2,0,P|333:144|353:91,1,120
404,140,76548,6,0,L|304:160,1,90.0000034332277
248,276,76881,6,0,B|192:195|192:195|144:172,1,143.999995605469
212,68,77214,6,0,P|258:20|340:38,1,143.999995605469
284,88,77548,6,0,P|324:120|330:175,1,103.999995239258,12|0,0:0|0:0,0:0:0:0:
112,284,77881,2,0,P|72:252|66:197,1,103.999995239258
260,156,78214,6,0,L|232:256,1,103.999995239258
404,116,78548,5,0,0:0:0:0:
304,16,78714,1,0,0:0:0:0:
340,160,78881,6,0,P|388:192|440:184,1,103.999995239258
252,76,79214,2,0,P|204:44|152:52,1,103.999995239258
130,197,79548,6,0,B|153:148|153:148|190:113,1,103.999995239258
368,300,79881,2,0,B|345:349|345:349|308:384,1,103.999995239258
256,152,80214,6,0,P|310:129|329:89,1,103.999995239258
196,312,80548,2,0,P|152:280|102:284,1,103.999995239258
352,264,80881,6,0,L|456:292,1,103.999995239258
232,164,81214,5,0,0:0:0:0:
196,312,81381,1,0,0:0:0:0:
304,200,81548,6,0,P|311:144|284:100,1,103.999995239258
40,68,81881,2,0,P|33:124|60:168,1,103.999995239258
232,164,82214,6,0,L|400:132,1,155.999992858887
452,164,82548,1,0,0:0:0:0:
384,268,82714,2,0,L|384:304,2,34.6666650797527
340,268,82881,6,0,P|291:260|240:292,1,103.999995239258,4|0,0:0|0:0,0:0:0:0:
124,84,83214,2,0,P|173:92|224:60,1,103.999995239258
380,188,83548,6,0,P|380:132|416:96,1,103.999995239258
332,336,83881,5,0,0:0:0:0:
220,224,84048,1,0,0:0:0:0:
376,268,84214,6,0,P|408:304|412:364,1,103.999995239258
180,296,84548,2,0,P|148:260|144:200,1,103.999995239258
290,150,84881,6,0,B|262:193|262:193|210:230,1,103.999995239258
172,48,85214,5,0,0:0:0:0:
324,8,85381,1,0,0:0:0:0:
216,116,85548,6,0,P|160:128|108:96,1,103.999995239258
308,164,85881,2,0,P|364:152|416:184,1,103.999995239258
372,324,86214,6,0,B|348:276|348:276|352:224,1,103.999995239258
104,264,86548,2,0,L|212:312,1,103.999995239258
148,84,86881,5,0,0:0:0:0:
248,200,87048,1,0,0:0:0:0:
48,160,87214,1,0,0:0:0:0:
48,160,87548,5,0,0:0:0:0:
184,288,87714,1,0,0:0:0:0:
240,112,87881,2,0,B|296:152|296:152|312:200|312:200|372:233,1,180.000006866455
416,176,88214,6,0,P|440:224|416:284,1,103.999995239258,4|0,0:0|0:0,0:0:0:0:
189,166,88548,2,0,P|165:118|189:58,1,103.999995239258
279,287,88881,6,0,L|367:227,1,103.999995239258
132,300,89214,5,0,0:0:0:0:
189,166,89381,1,0,0:0:0:0:
208,316,89548,6,0,P|177:365|123:377,1,103.999995239258
296,256,89881,2,0,P|327:207|381:195,1,103.999995239258
312,60,90214,6,0,B|257:48|257:48|193:58,1,111.999996582031,2|0,0:0|0:0,0:0:0:0:
200,328,90548,2,0,B|255:340|255:340|319:330,1,111.999996582031,2|0,0:0|0:0,0:0:0:0:
380,300,90798,1,0,0:0:0:0:
380,300,90881,6,0,P|425:273|480:280,1,103.999995239258,4|0,0:0|0:0,0:0:0:0:
300,120,91214,2,0,P|255:147|200:140,1,103.999995239258
160,8,91548,6,0,L|244:80,1,103.999995239258
40,112,91881,5,0,0:0:0:0:
196,168,92048,1,0,0:0:0:0:
84,40,92214,5,0,0:0:0:0:
84,208,92381,2,0,L|60:232,2,34.6666650797527
120,240,92548,6,0,P|148:284|140:332,1,103.999995239258
388,204,92881,2,0,P|360:160|368:112,1,103.999995239258
256,40,93214,1,0,0:0:0:0:
256,216,93381,6,0,L|255:246,2,25.9999988098145
208,216,93548,6,0,P|168:184|112:192,1,103.999995239258,4|0,0:0|0:0,0:0:0:0:
324,168,93881,2,0,P|364:200|420:192,1,103.999995239258
180,356,94214,6,0,L|144:256,1,103.999995239258
280,244,94548,5,0,0:0:0:0:
332,380,94714,1,0,0:0:0:0:
220,290,94881,6,0,P|203:233|226:189,1,103.999995239258
460,104,95214,2,0,P|477:161|454:205,1,103.999995239258
304,108,95548,5,0,0:0:0:0:
204,264,95714,1,0,0:0:0:0:
116,96,95881,6,0,B|142:100|142:100|167:98|167:98|192:106|192:106|224:104,1,103.999995239258
44,72,96214,6,0,P|47:130|88:168,1,103.999995239258,4|0,0:0|0:0,0:0:0:0:
200,32,96548,5,0,0:0:0:0:
256,200,96714,2,0,L|288:224,2,34.6666650797527
284,160,96881,5,2,0:0:0:0:
116,96,97048,1,2,0:0:0:0:
240,32,97214,1,2,0:0:0:0:
136,264,97381,1,2,0:0:0:0:
136,264,98548,6,0,L|136:328,1,60.0000022888184
284,224,98881,5,4,0:0:0:0:
341,334,99048,1,0,0:0:0:0:
451,276,99214,1,0,0:0:0:0:
398,165,99381,1,0,0:0:0:0:
228,160,99548,5,4,0:0:0:0:
171,50,99715,1,0,0:0:0:0:
61,108,99881,1,0,0:0:0:0:
114,219,100048,1,0,0:0:0:0:
256,72,100214,5,4,0:0:0:0:
379,192,100381,1,0,0:0:0:0:
256,312,100548,1,0,0:0:0:0:
133,192,100714,1,0,0:0:0:0:
256,72,100881,5,4,0:0:0:0:
153,56,101048,1,0,0:0:0:0:
72,121,101214,1,0,0:0:0:0:
79,224,101381,1,0,0:0:0:0:
256,344,101548,5,4,0:0:0:0:
194,200,101714,1,0,0:0:0:0:
149,304,101881,1,0,0:0:0:0:
302,232,102048,1,0,0:0:0:0:
256,40,102214,5,4,0:0:0:0:
318,184,102380,1,0,0:0:0:0:
363,80,102547,1,0,0:0:0:0:
210,152,102714,1,0,0:0:0:0:
384,192,102881,5,4,0:0:0:0:
128,192,103048,1,0,0:0:0:0:
256,320,103214,1,0,0:0:0:0:
256,64,103381,1,0,0:0:0:0:
384,192,103548,6,0,P|319:238|327:307,1,155.999992858887,4|0,0:0|0:0,0:0:0:0:
387,265,103881,1,0,0:0:0:0:
231,202,104048,2,0,L|193:185,2,34.6666650797527
254,159,104214,5,4,0:0:0:0:
354,17,104381,1,0,0:0:0:0:
191,10,104548,1,0,0:0:0:0:
304,89,104714,1,0,0:0:0:0:
258,225,104881,6,0,P|233:306|157:314,1,155.999992858887,4|0,0:0|0:0,0:0:0:0:
189,248,105214,1,0,0:0:0:0:
301,361,105381,1,0,0:0:0:0:
189,248,105548,5,4,0:0:0:0:
382,299,105714,1,0,0:0:0:0:
323,136,105881,1,0,0:0:0:0:
282,283,106048,1,0,0:0:0:0:
256,56,106214,5,4,0:0:0:0:
373,259,106381,1,0,0:0:0:0:
139,259,106548,1,0,0:0:0:0:
313,157,106714,1,0,0:0:0:0:
139,259,106881,5,4,0:0:0:0:
77,175,107048,1,0,0:0:0:0:
103,74,107214,1,0,0:0:0:0:
192,20,107381,1,0,0:0:0:0:
291,131,107548,5,4,0:0:0:0:
355,183,107714,1,0,0:0:0:0:
374,264,107881,1,0,0:0:0:0:
326,332,108048,1,0,0:0:0:0:
225,250,108214,5,4,0:0:0:0:
453,205,108381,1,0,0:0:0:0:
364,318,108548,1,0,0:0:0:0:
325,139,108714,2,0,L|315:98,2,34.6666650797527
369,127,108881,5,4,0:0:0:0:
135,70,109048,1,0,0:0:0:0:
273,15,109214,1,0,0:0:0:0:
222,206,109381,1,0,0:0:0:0:
325,59,109548,5,4,0:0:0:0:
355,147,109714,1,0,0:0:0:0:
385,235,109881,1,0,0:0:0:0:
416,323,110048,1,0,0:0:0:0:
187,325,110214,5,4,0:0:0:0:
157,237,110380,1,0,0:0:0:0:
127,149,110547,1,0,0:0:0:0:
96,61,110714,1,0,0:0:0:0:
336,192,110881,5,4,0:0:0:0:
256,272,111048,1,0,0:0:0:0:
175,192,111214,1,0,0:0:0:0:
256,111,111381,1,0,0:0:0:0:
256,272,111548,6,0,L|256:346,3,60.0000022888184
401,151,112214,5,4,0:0:0:0:
365,48,112381,1,0,0:0:0:0:
298,187,112548,1,0,0:0:0:0:
262,83,112714,1,0,0:0:0:0:
250,301,112881,5,4,0:0:0:0:
214,197,113047,1,0,0:0:0:0:
147,336,113214,1,0,0:0:0:0:
111,233,113381,1,0,0:0:0:0:
334,270,113548,5,4,0:0:0:0:
334,114,113715,1,0,0:0:0:0:
178,270,113882,1,0,0:0:0:0:
178,114,114048,1,0,0:0:0:0:
334,270,114214,6,0,L|397:270,3,60.0000022888184
256,56,114881,5,12,0:0:0:0:
139,259,115048,1,8,0:0:0:0:
373,259,115214,1,8,0:0:0:0:
152,296,115381,5,8,0:0:0:0:
152,88,115548,1,8,0:0:0:0:
360,88,115714,1,8,0:0:0:0:
359,296,115881,1,8,0:0:0:0:
152,296,116048,2,0,L|116:296,2,34.6666650797527
196,296,116214,5,12,0:0:0:0:
115,144,116381,1,8,0:0:0:0:
347,215,116548,1,8,0:0:0:0:
266,63,116714,1,8,0:0:0:0:
102,250,116881,5,8,0:0:0:0:
360,112,117048,1,8,0:0:0:0:
301,310,117214,1,8,0:0:0:0:
164,52,117381,2,0,L|140:8,2,34.6666650797527
208,32,117548,5,0,0:0:0:0:
254,27,117631,1,0,0:0:0:0:
299,35,117714,1,0,0:0:0:0:
339,59,117798,1,0,0:0:0:0:
366,96,117881,1,0,0:0:0:0:
381,145,117964,1,0,0:0:0:0:
373,196,118048,1,0,0:0:0:0:
341,237,118131,1,0,0:0:0:0:
296,263,118214,6,0,L|260:275,11,34.6666650797527
282,216,118881,5,4,0:0:0:0:
256,192,119048,12,0,119881,0:0:0:0:
393,160,120214,6,0,P|401:99|360:53,1,120.000004577637
331,203,120881,2,0,P|386:237|445:212,1,120.000004577637
328,123,121548,5,0,0:0:0:0:
194,288,121881,1,0,0:0:0:0:
338,214,122214,5,0,0:0:0:0:
206,198,122548,1,0,0:0:0:0:
329,317,122881,6,0,P|281:363|220:358,1,120.000004577637
316,240,123548,2,0,P|377:253|408:307,1,120.000004577637
256,290,124214,5,0,0:0:0:0:
138,119,124548,1,0,0:0:0:0:
272,207,124881,5,0,0:0:0:0:
126,203,125214,1,0,0:0:0:0:
202,91,125548,5,4,0:0:0:0:
