osu file format v14

[General]
AudioFilename: audio.mp3
AudioLeadIn: 0
PreviewTime: 90567
Countdown: 1
SampleSet: Soft
StackLeniency: 0.2
Mode: 2
LetterboxInBreaks: 0
WidescreenStoryboard: 0

[Editor]
Bookmarks: 109767,218967
DistanceSpacing: 1.3
BeatDivisor: 4
GridSize: 8
TimelineZoom: 5.499997

[Metadata]
Title:Grimm (Kobaryo's FTN-Remix)
TitleUnicode:Grimm (Kobaryo's FTИ-Remix)
Artist:RoughSketch feat.Aikapin
ArtistUnicode:RoughSketch feat.あいかぴん
Creator:Chaosfan
Version:???
Source:
Tags:
BeatmapID:1532684
BeatmapSetID:725950

[Difficulty]
HPDrainRate:5
CircleSize:5
OverallDifficulty:9
ApproachRate:9.5
SliderMultiplier:1.4
SliderTickRate:1

[Events]
//Background and Video events
0,0,"DDQClAWVoAA44fp.png",0,0
//Break Periods
//Storyboard Layer 0 (Background)
//Storyboard Layer 1 (Fail)
//Storyboard Layer 2 (Pass)
//Storyboard Layer 3 (Foreground)
//Storyboard Sound Samples

[TimingPoints]
567,300,4,2,0,100,1,0
567,-200,4,2,0,100,0,0
26967,-100,4,2,0,100,0,0
28167,-100,4,2,0,100,0,1
36567,-100,4,2,0,100,0,1
37767,-100,4,2,0,100,0,1
46167,-100,4,2,0,100,0,0
47367,-100,4,2,0,100,0,0
56967,-100,4,2,0,100,0,0
65367,-100,4,2,0,100,0,0
66567,-100,4,2,0,100,0,0
76167,-100,4,2,0,100,0,0
80967,-100,4,2,0,20,0,0
90567,-133.333333333333,4,2,0,30,0,0
109767,-100,4,2,0,60,0,0
128967,-100,4,2,0,100,0,0
146967,-100,4,2,0,100,0,0
148167,-100,4,2,0,100,0,1
156567,-100,4,2,0,100,0,1
157767,-100,4,2,0,100,0,1
167367,-100,4,2,0,60,0,0
175767,-100,4,2,0,100,0,0
176967,-100,4,2,0,100,0,1
185367,-100,4,2,0,100,0,1
186567,-100,4,2,0,100,0,1
194967,-100,4,2,0,100,0,0
196167,-100,4,2,0,100,0,0
204567,-100,4,2,0,100,0,0
205767,-100,4,2,0,100,0,0
210567,-100,4,2,0,100,0,0
214167,-100,4,2,0,100,0,0
215367,-100,4,2,0,100,0,0

[HitObjects]
144,192,567,5,0,0:0:0:0:
248,192,717,1,0,0:0:0:0:
352,192,867,6,0,L|128:192,1,210
40,192,1917,1,0,0:0:0:0:
142,192,2067,6,0,L|358:192,1,210
456,192,3117,1,0,0:0:0:0:
352,192,3267,6,0,L|128:192,1,210
40,192,4317,1,0,0:0:0:0:
248,192,4467,6,0,L|168:192,1,70
72,192,4917,1,0,0:0:0:0:
280,192,5067,6,0,L|200:192,1,70
104,192,5517,1,0,0:0:0:0:
210,192,5667,6,0,L|426:192,1,210
312,192,6717,1,0,0:0:0:0:
104,192,6867,6,0,L|320:192,1,210
208,192,7917,1,0,0:0:0:0:
416,192,8067,6,0,L|192:192,1,210
104,192,9117,1,0,0:0:0:0:
312,192,9267,6,0,L|232:192,1,70
136,192,9717,1,0,0:0:0:0:
344,192,9867,6,0,L|264:192,1,70
168,192,10317,1,0,0:0:0:0:
64,192,10467,6,0,L|280:192,1,210
168,192,11517,1,0,0:0:0:0:
274,192,11667,6,0,L|488:192,1,210
376,192,12717,1,0,0:0:0:0:
272,192,12867,6,0,L|56:192,1,210
168,192,13917,1,0,0:0:0:0:
376,192,14067,6,0,L|296:192,1,70
200,192,14517,1,0,0:0:0:0:
96,192,14667,2,0,L|144:192,1,35
304,192,14967,6,0,L|80:192,1,210
200,192,16017,1,0,0:0:0:0:
304,192,16167,6,0,L|528:192,1,210
408,192,17217,1,0,0:0:0:0:
200,192,17367,6,0,L|480:192,1,280
376,192,18717,1,0,0:0:0:0:
168,192,18867,6,0,L|248:192,1,70
344,192,19317,1,0,0:0:0:0:
136,192,19467,6,0,L|208:192,1,70
312,192,19917,1,0,0:0:0:0:
256,192,20067,12,0,23367,0:0:0:0:
304,192,26967,5,0,0:0:0:0:
336,192,27042,1,0,0:0:0:0:
176,192,27117,1,0,0:0:0:0:
144,192,27192,1,0,0:0:0:0:
360,192,27267,6,0,L|392:192,2,17.5
224,192,27417,6,0,L|200:192,2,17.5
392,192,27567,5,0,0:0:0:0:
424,192,27642,1,0,0:0:0:0:
248,192,27717,1,0,0:0:0:0:
224,192,27792,1,0,0:0:0:0:
377,192,27867,1,0,0:0:0:0:
168,192,28167,5,0,0:0:0:0:
136,192,28242,1,0,0:0:0:0:
312,192,28317,1,0,0:0:0:0:
344,192,28392,1,0,0:0:0:0:
206,192,28467,1,0,0:0:0:0:
176,192,28542,1,0,0:0:0:0:
206,192,28617,1,0,0:0:0:0:
240,192,28692,1,0,0:0:0:0:
416,192,28767,5,0,0:0:0:0:
448,192,28842,1,0,0:0:0:0:
296,192,28917,1,0,0:0:0:0:
248,192,28992,1,0,0:0:0:0:
96,192,29067,1,0,0:0:0:0:
72,192,29142,1,0,0:0:0:0:
56,192,29217,1,0,0:0:0:0:
88,192,29292,1,0,0:0:0:0:
240,192,29367,5,0,0:0:0:0:
288,192,29442,1,0,0:0:0:0:
440,192,29517,1,0,0:0:0:0:
472,192,29592,1,0,0:0:0:0:
248,192,29667,1,0,0:0:0:0:
232,192,29742,1,0,0:0:0:0:
248,192,29817,1,0,0:0:0:0:
232,192,29892,1,0,0:0:0:0:
80,192,29967,5,0,0:0:0:0:
48,192,30042,1,0,0:0:0:0:
208,192,30117,6,0,L|232:192,4,17.5
344,192,30567,5,0,0:0:0:0:
376,192,30642,1,0,0:0:0:0:
216,192,30717,1,0,0:0:0:0:
184,192,30792,1,0,0:0:0:0:
392,192,30867,1,0,0:0:0:0:
416,192,30942,1,0,0:0:0:0:
432,192,31017,1,0,0:0:0:0:
416,192,31092,1,0,0:0:0:0:
264,192,31167,5,0,0:0:0:0:
216,192,31242,1,0,0:0:0:0:
64,192,31317,1,0,0:0:0:0:
32,192,31392,1,0,0:0:0:0:
200,192,31467,1,0,0:0:0:0:
216,192,31542,1,0,0:0:0:0:
200,192,31617,1,0,0:0:0:0:
216,192,31692,1,0,0:0:0:0:
416,192,31767,5,0,0:0:0:0:
448,192,31842,1,0,0:0:0:0:
272,192,31917,1,0,0:0:0:0:
240,192,31992,1,0,0:0:0:0:
400,192,32067,1,0,0:0:0:0:
424,192,32142,1,0,0:0:0:0:
440,192,32217,1,0,0:0:0:0:
408,192,32292,1,0,0:0:0:0:
224,192,32367,5,0,0:0:0:0:
176,192,32442,1,0,0:0:0:0:
40,192,32517,6,0,L|16:192,2,17.5
184,192,32667,6,0,L|208:192,2,17.5
328,192,32967,5,0,0:0:0:0:
360,192,33042,1,0,0:0:0:0:
184,192,33117,1,0,0:0:0:0:
152,192,33192,1,0,0:0:0:0:
312,192,33267,1,0,0:0:0:0:
336,192,33342,1,0,0:0:0:0:
304,192,33417,1,0,0:0:0:0:
272,192,33492,1,0,0:0:0:0:
96,192,33567,5,0,0:0:0:0:
64,192,33642,1,0,0:0:0:0:
232,192,33717,1,0,0:0:0:0:
280,192,33792,1,0,0:0:0:0:
432,192,33867,1,0,0:0:0:0:
456,192,33942,1,0,0:0:0:0:
472,192,34017,1,0,0:0:0:0:
440,192,34092,1,0,0:0:0:0:
288,192,34167,5,0,0:0:0:0:
240,192,34242,1,0,0:0:0:0:
88,192,34317,1,0,0:0:0:0:
56,192,34392,1,0,0:0:0:0:
224,192,34467,1,0,0:0:0:0:
240,192,34542,1,0,0:0:0:0:
224,192,34617,1,0,0:0:0:0:
240,192,34692,1,0,0:0:0:0:
408,192,34767,5,0,0:0:0:0:
440,192,34842,1,0,0:0:0:0:
280,192,34917,6,0,L|256:192,4,17.5
144,192,35367,5,0,0:0:0:0:
112,192,35442,1,0,0:0:0:0:
272,192,35517,1,0,0:0:0:0:
312,192,35592,1,0,0:0:0:0:
80,192,35667,1,0,0:0:0:0:
56,192,35742,1,0,0:0:0:0:
88,192,35817,1,0,0:0:0:0:
120,192,35892,1,0,0:0:0:0:
264,192,35967,5,0,0:0:0:0:
312,192,36042,1,0,0:0:0:0:
472,192,36117,1,0,0:0:0:0:
504,192,36192,1,0,0:0:0:0:
344,192,36267,1,0,0:0:0:0:
312,192,36342,1,0,0:0:0:0:
344,192,36417,1,0,0:0:0:0:
312,192,36492,1,0,0:0:0:0:
120,192,36567,5,0,0:0:0:0:
88,192,36642,1,0,0:0:0:0:
264,192,36717,1,0,0:0:0:0:
296,192,36792,1,0,0:0:0:0:
72,192,36867,1,0,0:0:0:0:
40,192,36942,1,0,0:0:0:0:
208,192,37017,1,0,0:0:0:0:
256,192,37092,1,0,0:0:0:0:
424,192,37167,6,0,L|456:192,2,17.5
264,192,37317,6,0,L|232:192,2,17.5
104,192,37467,1,0,0:0:0:0:
320,192,37767,5,0,0:0:0:0:
352,192,37842,1,0,0:0:0:0:
192,192,37917,1,0,0:0:0:0:
160,192,37992,1,0,0:0:0:0:
384,192,38067,1,0,0:0:0:0:
408,192,38142,1,0,0:0:0:0:
425,192,38217,1,0,0:0:0:0:
392,192,38292,1,0,0:0:0:0:
254,192,38367,5,0,0:0:0:0:
208,192,38442,1,0,0:0:0:0:
48,192,38517,1,0,0:0:0:0:
16,192,38592,1,0,0:0:0:0:
176,192,38667,1,0,0:0:0:0:
208,192,38742,1,0,0:0:0:0:
176,192,38817,1,0,0:0:0:0:
208,192,38892,1,0,0:0:0:0:
384,192,38967,5,0,0:0:0:0:
416,192,39042,1,0,0:0:0:0:
256,192,39117,1,0,0:0:0:0:
224,192,39192,1,0,0:0:0:0:
448,192,39267,1,0,0:0:0:0:
472,192,39342,1,0,0:0:0:0:
440,192,39417,1,0,0:0:0:0:
408,192,39492,1,0,0:0:0:0:
216,192,39567,5,0,0:0:0:0:
184,192,39642,1,0,0:0:0:0:
312,192,39717,6,0,L|336:192,4,17.5
96,192,40167,5,0,0:0:0:0:
64,192,40242,1,0,0:0:0:0:
208,192,40317,1,0,0:0:0:0:
256,192,40392,1,0,0:0:0:0:
400,192,40467,1,0,0:0:0:0:
432,192,40542,1,0,0:0:0:0:
400,192,40617,1,0,0:0:0:0:
432,192,40692,1,0,0:0:0:0:
296,192,40767,5,0,0:0:0:0:
248,192,40842,1,0,0:0:0:0:
120,192,40917,5,0,0:0:0:0:
88,192,40992,1,0,0:0:0:0:
216,192,41067,1,0,0:0:0:0:
240,192,41142,1,0,0:0:0:0:
216,192,41217,1,0,0:0:0:0:
240,192,41292,1,0,0:0:0:0:
384,192,41367,5,0,0:0:0:0:
416,192,41442,1,0,0:0:0:0:
104,192,41517,1,0,0:0:0:0:
72,192,41592,1,0,0:0:0:0:
200,192,41667,1,0,0:0:0:0:
232,192,41742,1,0,0:0:0:0:
264,192,41817,1,0,0:0:0:0:
296,192,41892,1,0,0:0:0:0:
456,192,41967,5,0,0:0:0:0:
488,192,42042,1,0,0:0:0:0:
278,192,42117,6,0,L|302:192,2,17.5
432,192,42267,6,0,L|456:192,2,17.5
224,192,42567,5,0,0:0:0:0:
192,192,42642,1,0,0:0:0:0:
352,192,42717,1,0,0:0:0:0:
384,192,42792,1,0,0:0:0:0:
208,192,42867,1,0,0:0:0:0:
176,192,42942,1,0,0:0:0:0:
152,192,43017,1,0,0:0:0:0:
184,192,43092,1,0,0:0:0:0:
344,192,43167,5,0,0:0:0:0:
376,192,43242,1,0,0:0:0:0:
216,192,43317,1,0,0:0:0:0:
184,192,43392,1,0,0:0:0:0:
360,192,43467,1,0,0:0:0:0:
392,192,43542,1,0,0:0:0:0:
416,192,43617,1,0,0:0:0:0:
392,192,43692,1,0,0:0:0:0:
264,192,43767,5,0,0:0:0:0:
216,192,43842,1,0,0:0:0:0:
88,192,43917,1,0,0:0:0:0:
56,192,43992,1,0,0:0:0:0:
296,192,44067,1,0,0:0:0:0:
328,192,44142,1,0,0:0:0:0:
360,192,44217,1,0,0:0:0:0:
392,192,44292,1,0,0:0:0:0:
232,192,44367,5,0,0:0:0:0:
200,192,44442,1,0,0:0:0:0:
392,192,44517,6,0,L|424:192,4,17.5
88,192,44967,5,0,0:0:0:0:
56,192,45042,1,0,0:0:0:0:
192,192,45117,1,0,0:0:0:0:
240,192,45192,1,0,0:0:0:0:
368,192,45267,1,0,0:0:0:0:
400,192,45342,1,0,0:0:0:0:
424,192,45417,1,0,0:0:0:0:
392,192,45492,1,0,0:0:0:0:
200,192,45567,5,0,0:0:0:0:
168,192,45642,1,0,0:0:0:0:
328,192,45717,1,0,0:0:0:0:
360,192,45792,1,0,0:0:0:0:
184,192,45867,1,0,0:0:0:0:
152,192,45942,1,0,0:0:0:0:
120,192,46017,1,0,0:0:0:0:
88,192,46092,1,0,0:0:0:0:
248,192,46167,5,0,0:0:0:0:
296,192,46242,1,0,0:0:0:0:
440,192,46317,6,0,L|464:192,3,17.5
351,192,46467,1,0,0:0:0:0:
304,192,46542,1,0,0:0:0:0:
176,192,46617,6,0,L|144:192,3,17.5
248,192,46767,2,0,L|272:192,2,17.5
88,192,46917,6,0,L|56:192,2,17.5
376,192,47067,1,0,0:0:0:0:
96,192,47367,5,0,0:0:0:0:
232,192,47667,2,0,L|136:192,1,70
304,192,47967,2,0,L|392:192,3,70
440,192,48567,6,0,L|368:192,1,70
234,192,49017,6,0,L|314:192,4,70
24,192,50067,6,0,L|96:192,1,70
232,192,50367,2,0,L|136:192,3,70
304,192,50967,6,0,L|216:192,1,70
376,192,51417,1,0,0:0:0:0:
240,192,51567,6,0,L|320:192,1,70
168,192,51867,2,0,L|320:192,1,140
448,192,52317,6,0,L|360:192,2,70
308,192,52767,2,0,L|388:192,3,70
240,192,53367,6,0,L|320:192,1,70
168,192,53817,1,0,0:0:0:0:
304,192,53967,6,0,L|224:192,1,70
376,192,54267,2,0,L|232:192,1,140
96,192,54867,6,0,L|168:192,1,70
304,192,55167,2,0,L|224:192,3,70
376,192,55767,6,0,L|472:192,1,70
240,192,56067,5,0,0:0:0:0:
312,192,56217,1,0,0:0:0:0:
104,192,56367,1,0,0:0:0:0:
32,192,56517,1,0,0:0:0:0:
240,192,56667,6,0,L|96:192,1,140
32,192,57117,1,0,0:0:0:0:
312,192,57267,5,0,0:0:0:0:
240,192,57417,1,0,0:0:0:0:
312,192,57567,5,0,0:0:0:0:
344,192,57642,1,0,0:0:0:0:
168,192,57717,1,0,0:0:0:0:
96,192,57867,1,0,0:0:0:0:
304,192,58017,6,0,L|384:192,1,70
408,192,58242,1,0,0:0:0:0:
232,192,58317,1,0,0:0:0:0:
160,192,58467,5,0,0:0:0:0:
128,192,58542,1,0,0:0:0:0:
304,192,58617,1,0,0:0:0:0:
374,192,58767,1,0,0:0:0:0:
440,192,58917,1,0,0:0:0:0:
160,192,59067,5,0,0:0:0:0:
368,192,59217,1,0,0:0:0:0:
120,192,59367,5,0,0:0:0:0:
48,192,59517,1,0,0:0:0:0:
296,192,59667,1,0,0:0:0:0:
368,192,59817,1,0,0:0:0:0:
296,192,59967,5,0,0:0:0:0:
264,192,60042,1,0,0:0:0:0:
104,192,60117,1,0,0:0:0:0:
32,192,60267,6,0,L|104:192,1,70
168,192,60567,5,0,0:0:0:0:
200,192,60642,1,0,0:0:0:0:
376,192,60717,1,0,0:0:0:0:
448,192,60867,5,0,0:0:0:0:
480,192,60942,1,0,0:0:0:0:
320,192,61017,1,0,0:0:0:0:
248,192,61167,5,0,0:0:0:0:
216,192,61242,1,0,0:0:0:0:
344,192,61317,1,0,0:0:0:0:
376,192,61392,1,0,0:0:0:0:
184,192,61467,6,0,L|160:192,3,17.5
272,192,61617,2,0,L|296:192,3,17.5
88,192,61767,5,0,0:0:0:0:
16,192,61917,1,0,0:0:0:0:
296,192,62067,5,0,0:0:0:0:
224,192,62217,1,0,0:0:0:0:
296,192,62367,5,0,0:0:0:0:
328,192,62442,1,0,0:0:0:0:
168,192,62517,1,0,0:0:0:0:
96,192,62667,1,0,0:0:0:0:
344,192,62817,6,0,L|416:192,1,70
448,192,63042,1,0,0:0:0:0:
256,192,63117,1,0,0:0:0:0:
184,192,63267,5,0,0:0:0:0:
152,192,63342,1,0,0:0:0:0:
328,192,63417,1,0,0:0:0:0:
400,192,63567,1,0,0:0:0:0:
328,192,63717,1,0,0:0:0:0:
80,192,63867,5,0,0:0:0:0:
360,192,64017,1,0,0:0:0:0:
152,192,64167,5,0,0:0:0:0:
80,192,64317,1,0,0:0:0:0:
360,192,64467,1,0,0:0:0:0:
288,192,64617,1,0,0:0:0:0:
360,192,64767,5,0,0:0:0:0:
392,192,64842,1,0,0:0:0:0:
216,192,64917,1,0,0:0:0:0:
80,192,65067,6,0,L|168:192,2,70
48,192,65442,1,0,0:0:0:0:
240,192,65517,1,0,0:0:0:0:
288,192,65592,1,0,0:0:0:0:
448,192,65667,5,0,0:0:0:0:
472,192,65742,1,0,0:0:0:0:
440,192,65817,1,0,0:0:0:0:
408,192,65892,1,0,0:0:0:0:
232,192,65967,6,0,L|200:192,3,17.5
360,192,66117,2,0,L|392:192,3,17.5
232,192,66267,5,0,0:0:0:0:
416,192,66567,5,0,0:0:0:0:
280,192,66717,2,0,L|200:192,2,70
208,192,67167,5,0,0:0:0:0:
176,192,67242,1,0,0:0:0:0:
336,192,67317,2,0,L|408:192,1,70
160,192,67617,5,0,0:0:0:0:
128,192,67692,1,0,0:0:0:0:
288,192,67767,2,0,L|368:192,1,70
112,192,68067,5,0,0:0:0:0:
80,192,68142,1,0,0:0:0:0:
240,192,68217,2,0,L|312:192,1,70
64,192,68517,5,0,0:0:0:0:
32,192,68592,1,0,0:0:0:0:
192,192,68667,2,0,L|352:192,1,140
288,192,69042,1,0,0:0:0:0:
104,192,69117,2,0,L|24:192,2,70
352,192,69567,5,0,0:0:0:0:
384,192,69642,1,0,0:0:0:0:
224,192,69717,2,0,L|152:192,1,70
400,192,70017,5,0,0:0:0:0:
432,192,70092,1,0,0:0:0:0:
272,192,70167,2,0,L|200:192,1,70
456,192,70467,5,0,0:0:0:0:
488,192,70542,1,0,0:0:0:0:
352,192,70617,2,0,L|264:192,1,70
56,192,70917,5,0,0:0:0:0:
24,192,70992,1,0,0:0:0:0:
152,192,71067,2,0,L|319:192,1,140
335,192,71442,1,0,0:0:0:0:
464,192,71517,5,0,0:0:0:0:
496,192,71592,1,0,0:0:0:0:
224,192,71667,2,0,L|128:192,2,70
272,192,72042,1,0,0:0:0:0:
400,192,72117,2,0,L|496:192,1,70
312,192,72417,5,0,0:0:0:0:
264,192,72492,1,0,0:0:0:0:
128,192,72567,2,0,L|56:192,1,70
192,192,72867,5,0,0:0:0:0:
240,192,72942,1,0,0:0:0:0:
384,192,73017,2,0,L|456:192,1,70
320,192,73317,5,0,0:0:0:0:
272,192,73392,1,0,0:0:0:0:
128,192,73467,2,0,L|56:192,1,70
192,192,73767,5,0,0:0:0:0:
240,192,73842,1,0,0:0:0:0:
376,192,73917,2,0,L|464:192,2,70
184,192,74367,5,0,0:0:0:0:
152,192,74442,1,0,0:0:0:0:
312,192,74517,2,0,L|384:192,1,70
136,192,74817,5,0,0:0:0:0:
104,192,74892,1,0,0:0:0:0:
264,192,74967,2,0,L|360:192,1,70
104,192,75367,5,0,0:0:0:0:
384,192,75567,5,0,0:0:0:0:
56,192,75767,5,0,0:0:0:0:
334,192,75967,5,0,0:0:0:0:
8,192,76167,6,0,L|232:192,1,210
256,192,76767,12,0,80967,0:0:0:0:
168,192,81417,5,0,0:0:0:0:
376,192,81867,1,0,0:0:0:0:
96,192,82167,5,0,0:0:0:0:
304,192,82617,1,0,0:0:0:0:
96,192,83067,1,0,0:0:0:0:
376,192,83367,5,0,0:0:0:0:
240,192,83667,1,0,0:0:0:0:
440,192,83817,1,0,0:0:0:0:
232,192,84267,5,0,0:0:0:0:
368,192,84567,5,0,0:0:0:0:
160,192,85017,5,0,0:0:0:0:
272,192,85467,1,0,0:0:0:0:
408,192,85767,5,0,0:0:0:0:
200,192,86217,1,0,0:0:0:0:
408,192,86667,1,0,0:0:0:0:
272,192,86967,5,0,0:0:0:0:
64,192,87417,1,0,0:0:0:0:
272,192,87867,1,0,0:0:0:0:
64,192,88167,5,0,0:0:0:0:
376,192,88617,1,0,0:0:0:0:
64,192,89067,1,0,0:0:0:0:
136,192,89217,1,0,0:0:0:0:
344,192,89367,5,0,0:0:0:0:
104,192,89817,1,0,0:0:0:0:
312,192,90267,1,0,0:0:0:0:
208,192,90567,5,0,0:0:0:0:
184,192,90642,2,0,L|304:192,1,105.000004005432
312,192,91017,5,0,0:0:0:0:
456,192,91092,2,0,L|344:192,1,105.000004005432
328,192,91467,1,0,0:0:0:0:
120,192,91617,1,0,0:0:0:0:
328,192,91767,6,0,L|496:192,2,157.500006008148
384,192,92817,1,0,0:0:0:0:
176,192,92967,6,0,L|8:192,2,157.500006008148
120,192,94017,1,0,0:0:0:0:
328,192,94167,6,0,L|496:192,2,157.500006008148
176,192,95367,2,0,L|16:192,2,157.500006008148
360,192,96417,1,0,0:0:0:0:
120,192,96567,6,0,L|296:192,2,157.500006008148
256,192,97617,1,0,0:0:0:0:
480,192,97767,6,0,L|312:192,2,157.500006008148
408,192,98817,1,0,0:0:0:0:
296,192,98967,6,0,L|176:192,1,105.000004005432
88,192,99417,2,0,L|208:192,1,105.000004005432
296,192,99867,1,0,0:0:0:0:
456,192,100167,6,0,L|280:192,2,157.500006008148
400,192,101217,1,0,0:0:0:0:
288,192,101367,6,0,L|128:192,2,157.500006008148
368,192,102417,1,0,0:0:0:0:
472,192,102567,6,0,L|304:192,2,157.500006008148
392,192,103617,1,0,0:0:0:0:
288,192,103767,6,0,L|168:192,1,105.000004005432
88,192,104217,1,0,0:0:0:0:
288,192,104367,5,0,0:0:0:0:
232,192,104517,1,0,0:0:0:0:
432,192,104667,1,0,0:0:0:0:
488,192,104817,1,0,0:0:0:0:
256,192,104967,6,0,L|88:192,2,157.500006008148
448,192,106017,1,0,0:0:0:0:
208,192,106167,6,0,L|376:192,2,157.500006008148
112,192,107217,1,0,0:0:0:0:
312,192,107367,6,0,L|488:192,2,157.500006008148
384,192,108417,1,0,0:0:0:0:
184,192,108567,6,0,L|72:192,1,105.000004005432
128,192,109017,1,0,0:0:0:0:
312,192,109167,5,0,0:0:0:0:
368,192,109317,1,0,0:0:0:0:
424,192,109467,1,0,0:0:0:0:
368,192,109617,1,0,0:0:0:0:
88,192,109767,6,0,L|304:192,1,210
88,192,110367,1,0,0:0:0:0:
192,192,110592,1,0,0:0:0:0:
328,192,110667,1,0,0:0:0:0:
400,192,110817,1,0,0:0:0:0:
192,192,110967,6,0,L|408:192,1,210
192,192,111567,1,0,0:0:0:0:
88,192,111792,1,0,0:0:0:0:
224,192,111867,1,0,0:0:0:0:
296,192,112017,1,0,0:0:0:0:
504,192,112167,6,0,L|288:192,1,210
504,192,112767,1,0,0:0:0:0:
400,192,112992,1,0,0:0:0:0:
264,192,113067,1,0,0:0:0:0:
190,192,113217,1,0,0:0:0:0:
400,192,113367,6,0,L|188:192,1,210
400,192,113967,1,0,0:0:0:0:
296,192,114192,1,0,0:0:0:0:
160,192,114267,1,0,0:0:0:0:
88,192,114417,1,0,0:0:0:0:
296,192,114567,6,0,L|512:192,1,210
296,192,115167,1,0,0:0:0:0:
192,192,115392,1,0,0:0:0:0:
56,192,115467,1,0,0:0:0:0:
128,192,115617,1,0,0:0:0:0:
338,192,115767,6,0,L|122:192,1,210
336,192,116367,1,0,0:0:0:0:
440,192,116592,1,0,0:0:0:0:
304,192,116667,1,0,0:0:0:0:
232,192,116817,1,0,0:0:0:0:
24,192,116967,6,0,L|240:192,1,210
24,192,117567,1,0,0:0:0:0:
128,192,117792,1,0,0:0:0:0:
264,192,117867,1,0,0:0:0:0:
336,192,118017,1,0,0:0:0:0:
128,192,118167,6,0,L|344:192,1,210
128,192,118767,1,0,0:0:0:0:
24,192,118992,1,0,0:0:0:0:
160,192,119067,1,0,0:0:0:0:
232,192,119217,1,0,0:0:0:0:
440,192,119367,6,0,L|216:192,1,210
440,192,119967,1,0,0:0:0:0:
336,192,120192,1,0,0:0:0:0:
200,192,120267,1,0,0:0:0:0:
128,192,120417,1,0,0:0:0:0:
336,192,120567,6,0,L|120:192,1,210
336,192,121167,1,0,0:0:0:0:
440,192,121392,1,0,0:0:0:0:
304,192,121467,1,0,0:0:0:0:
232,192,121617,1,0,0:0:0:0:
24,192,121767,6,0,L|240:192,1,210
24,192,122367,1,0,0:0:0:0:
128,192,122592,1,0,0:0:0:0:
264,192,122667,1,0,0:0:0:0:
336,192,122817,1,0,0:0:0:0:
128,192,122967,6,0,L|344:192,1,210
128,192,123567,1,0,0:0:0:0:
24,192,123792,1,0,0:0:0:0:
160,192,123867,1,0,0:0:0:0:
232,192,124017,1,0,0:0:0:0:
440,192,124167,6,0,L|216:192,1,210
440,192,124767,1,0,0:0:0:0:
336,192,124992,1,0,0:0:0:0:
200,192,125067,1,0,0:0:0:0:
128,192,125217,1,0,0:0:0:0:
336,192,125367,6,0,L|112:192,1,210
336,192,125967,1,0,0:0:0:0:
440,192,126192,1,0,0:0:0:0:
280,192,126267,1,0,0:0:0:0:
352,192,126417,1,0,0:0:0:0:
144,192,126567,6,0,L|368:192,1,210
144,192,127167,1,0,0:0:0:0:
72,192,127317,1,0,0:0:0:0:
40,192,127392,1,0,0:0:0:0:
200,192,127467,1,0,0:0:0:0:
272,192,127617,1,0,0:0:0:0:
480,192,127767,5,0,0:0:0:0:
136,192,128667,5,0,0:0:0:0:
64,192,128817,1,0,0:0:0:0:
344,192,128967,5,0,0:0:0:0:
424,192,129117,1,0,0:0:0:0:
296,192,129192,6,0,L|368:192,1,70
240,192,129417,6,0,L|320:192,1,70
184,192,129642,6,0,L|272:192,1,70
120,192,129867,2,0,L|40:192,2,70
192,192,130317,1,0,0:0:0:0:
320,192,130392,6,0,L|248:192,1,70
376,192,130617,6,0,L|296:192,1,70
432,192,130842,6,0,L|360:192,1,70
488,192,131067,6,0,L|408:192,1,70
128,192,131367,5,0,0:0:0:0:
192,192,131517,1,0,0:0:0:0:
328,192,131592,6,0,L|248:192,1,70
128,192,131817,6,0,L|216:192,1,70
384,192,132042,6,0,L|296:192,1,70
168,192,132267,2,0,L|88:192,2,70
240,192,132717,1,0,0:0:0:0:
368,192,132792,6,0,L|288:192,1,70
120,192,133017,6,0,L|216:192,1,70
320,192,133242,6,0,L|224:192,1,70
72,192,133467,6,0,L|168:192,1,70
424,192,133767,5,0,0:0:0:0:
504,192,133917,1,0,0:0:0:0:
376,192,133992,6,0,L|464:192,1,70
320,192,134217,6,0,L|392:192,1,70
264,192,134442,6,0,L|352:192,1,70
208,192,134667,6,0,L|128:192,2,70
128,192,135117,1,0,0:0:0:0:
256,192,135192,6,0,L|176:192,1,70
312,192,135417,6,0,L|232:192,1,70
368,192,135642,6,0,L|280:192,1,70
424,192,135867,6,0,L|344:192,1,70
104,192,136167,5,0,0:0:0:0:
32,192,136317,1,0,0:0:0:0:
160,192,136392,6,0,L|72:192,1,70
216,192,136617,6,0,L|136:192,1,70
272,192,136842,6,0,L|368:192,1,70
216,192,137067,6,0,L|304:192,2,70
146,192,137517,1,0,0:0:0:0:
16,192,137592,6,0,L|96:192,1,70
128,192,137817,1,0,0:0:0:0:
376,192,137967,6,0,L|208:192,1,140
304,192,138417,1,0,0:0:0:0:
336,192,138492,1,0,0:0:0:0:
160,192,138567,5,0,0:0:0:0:
64,192,138717,1,0,0:0:0:0:
192,192,138792,6,0,L|96:192,1,70
282,192,139017,6,0,L|210:192,1,70
72,192,139242,6,0,L|168:192,1,70
16,192,139467,6,0,L|104:192,1,70
368,192,139767,5,0,0:0:0:0:
456,192,139917,1,0,0:0:0:0:
328,192,139992,6,0,L|408:192,1,70
264,192,140217,6,0,L|344:192,1,70
208,192,140442,6,0,L|296:192,1,70
152,192,140667,6,0,L|240:192,2,70
72,192,141117,1,0,0:0:0:0:
200,192,141192,6,0,L|112:192,1,70
256,192,141417,6,0,L|168:192,1,70
312,192,141642,6,0,L|224:192,1,70
368,192,141867,6,0,L|280:192,1,70
48,192,142167,5,0,0:0:0:0:
120,192,142317,1,0,0:0:0:0:
152,192,142392,1,0,0:0:0:0:
280,192,142467,6,0,L|360:192,1,70
384,192,142692,1,0,0:0:0:0:
248,192,142767,6,0,L|152:192,1,70
144,192,142992,1,0,0:0:0:0:
304,192,143067,6,0,L|392:192,1,70
128,192,143367,5,0,0:0:0:0:
56,192,143517,1,0,0:0:0:0:
24,192,143592,1,0,0:0:0:0:
224,192,143667,6,0,L|312:192,1,70
328,192,143892,1,0,0:0:0:0:
192,192,143967,6,0,L|120:192,1,70
88,192,144192,1,0,0:0:0:0:
272,192,144267,6,0,L|360:192,2,70
376,192,144717,1,0,0:0:0:0:
408,192,144792,1,0,0:0:0:0:
200,192,144867,6,0,L|120:192,1,70
96,192,145092,1,0,0:0:0:0:
288,192,145167,6,0,L|368:192,1,70
392,192,145392,1,0,0:0:0:0:
152,192,145467,6,0,L|64:192,2,70
208,192,145842,1,0,0:0:0:0:
224,192,145917,1,0,0:0:0:0:
184,192,145992,1,0,0:0:0:0:
320,192,146067,5,0,0:0:0:0:
352,192,146142,1,0,0:0:0:0:
176,192,146217,1,0,0:0:0:0:
144,192,146292,1,0,0:0:0:0:
408,192,146367,5,0,0:0:0:0:
425,186,146404,1,0,0:0:0:0:
439,175,146442,1,0,0:0:0:0:
449,161,146479,1,0,0:0:0:0:
454,144,146517,1,0,0:0:0:0:
453,127,146554,1,0,0:0:0:0:
448,110,146592,1,0,0:0:0:0:
437,96,146629,1,0,0:0:0:0:
423,86,146667,1,0,0:0:0:0:
406,81,146704,1,0,0:0:0:0:
389,81,146742,1,0,0:0:0:0:
373,87,146779,1,0,0:0:0:0:
359,97,146817,1,0,0:0:0:0:
348,111,146854,1,0,0:0:0:0:
352,128,146892,1,0,0:0:0:0:
360,144,146929,1,0,0:0:0:0:
176,144,146967,5,0,0:0:0:0:
88,192,148167,5,0,0:0:0:0:
368,192,148317,1,0,0:0:0:0:
416,192,148392,1,0,0:0:0:0:
224,192,148467,1,0,0:0:0:0:
152,192,148617,1,0,0:0:0:0:
432,192,148767,5,0,0:0:0:0:
456,192,148842,1,0,0:0:0:0:
472,192,148917,1,0,0:0:0:0:
440,192,148992,1,0,0:0:0:0:
280,192,149067,6,0,L|200:192,2,70
352,192,149517,1,0,0:0:0:0:
400,192,149592,1,0,0:0:0:0:
248,192,149667,5,0,0:0:0:0:
176,192,149817,1,0,0:0:0:0:
456,192,149967,1,0,0:0:0:0:
472,192,150042,1,0,0:0:0:0:
440,192,150117,1,0,0:0:0:0:
408,192,150192,1,0,0:0:0:0:
216,192,150267,6,0,L|128:192,2,70
288,192,150717,1,0,0:0:0:0:
336,192,150792,1,0,0:0:0:0:
128,192,150867,5,0,0:0:0:0:
56,192,151017,1,0,0:0:0:0:
368,192,151167,1,0,0:0:0:0:
384,192,151242,1,0,0:0:0:0:
352,192,151317,1,0,0:0:0:0:
320,192,151392,1,0,0:0:0:0:
184,192,151467,6,0,L|96:192,2,70
248,192,151917,1,0,0:0:0:0:
296,192,151992,1,0,0:0:0:0:
432,192,152067,5,0,0:0:0:0:
504,192,152217,1,0,0:0:0:0:
184,192,152367,1,0,0:0:0:0:
152,192,152442,1,0,0:0:0:0:
120,192,152517,1,0,0:0:0:0:
88,192,152592,1,0,0:0:0:0:
248,192,152667,5,0,0:0:0:0:
320,192,152817,1,0,0:0:0:0:
368,192,152892,1,0,0:0:0:0:
216,192,152967,5,0,0:0:0:0:
144,192,153117,1,0,0:0:0:0:
96,192,153192,1,0,0:0:0:0:
272,192,153267,5,0,0:0:0:0:
64,192,153417,1,0,0:0:0:0:
312,192,153567,1,0,0:0:0:0:
344,192,153642,1,0,0:0:0:0:
376,192,153717,1,0,0:0:0:0:
408,192,153792,1,0,0:0:0:0:
248,192,153867,6,0,L|160:192,2,70
320,192,154317,1,0,0:0:0:0:
368,192,154392,1,0,0:0:0:0:
160,192,154467,5,0,0:0:0:0:
440,192,154617,1,0,0:0:0:0:
232,192,154767,1,0,0:0:0:0:
200,192,154842,1,0,0:0:0:0:
168,192,154917,1,0,0:0:0:0:
136,192,154992,1,0,0:0:0:0:
296,192,155067,6,0,L|384:192,2,70
224,192,155517,1,0,0:0:0:0:
176,192,155592,1,0,0:0:0:0:
384,192,155667,5,0,0:0:0:0:
104,192,155817,1,0,0:0:0:0:
312,192,155967,1,0,0:0:0:0:
344,192,156042,1,0,0:0:0:0:
376,192,156117,1,0,0:0:0:0:
408,192,156192,1,0,0:0:0:0:
272,192,156267,5,0,0:0:0:0:
64,192,156417,1,0,0:0:0:0:
376,192,156567,5,0,0:0:0:0:
96,192,157167,1,0,0:0:0:0:
48,192,157242,1,0,0:0:0:0:
256,192,157317,1,0,0:0:0:0:
304,192,157392,1,0,0:0:0:0:
128,192,157467,6,0,L|58:192,2,70
336,192,157917,1,0,0:0:0:0:
368,192,157992,1,0,0:0:0:0:
400,192,158067,5,0,0:0:0:0:
432,192,158142,1,0,0:0:0:0:
296,192,158217,1,0,0:0:0:0:
240,192,158367,1,0,0:0:0:0:
192,192,158442,1,0,0:0:0:0:
40,192,158517,1,0,0:0:0:0:
112,192,158667,6,0,L|192:192,2,70
232,192,159117,1,0,0:0:0:0:
280,192,159192,1,0,0:0:0:0:
448,192,159267,5,0,0:0:0:0:
376,192,159417,1,0,0:0:0:0:
144,192,159567,1,0,0:0:0:0:
112,192,159642,1,0,0:0:0:0:
80,192,159717,1,0,0:0:0:0:
48,192,159792,1,0,0:0:0:0:
176,192,159867,6,0,L|256:192,2,70
96,192,160317,1,0,0:0:0:0:
48,192,160392,1,0,0:0:0:0:
200,192,160467,5,0,0:0:0:0:
272,192,160617,1,0,0:0:0:0:
480,192,160767,1,0,0:0:0:0:
448,192,160842,1,0,0:0:0:0:
416,192,160917,1,0,0:0:0:0:
384,192,160992,1,0,0:0:0:0:
208,192,161067,6,0,L|112:192,2,70
416,192,161517,1,0,0:0:0:0:
384,192,161592,1,0,0:0:0:0:
352,192,161667,5,0,0:0:0:0:
320,192,161742,1,0,0:0:0:0:
160,192,161817,1,0,0:0:0:0:
88,192,161967,1,0,0:0:0:0:
40,192,162042,1,0,0:0:0:0:
216,192,162117,6,0,L|240:192,3,17.5
136,192,162267,2,0,L|112:192,2,17.5
296,192,162417,6,0,L|328:192,4,17.5
96,192,162717,1,0,0:0:0:0:
48,192,162792,1,0,0:0:0:0:
313,192,162867,5,0,0:0:0:0:
112,192,163017,1,0,0:0:0:0:
344,192,163167,1,0,0:0:0:0:
376,192,163242,1,0,0:0:0:0:
408,192,163317,1,0,0:0:0:0:
440,192,163392,1,0,0:0:0:0:
280,192,163467,6,0,L|184:192,2,70
352,192,163917,1,0,0:0:0:0:
400,192,163992,1,0,0:0:0:0:
210,192,164067,5,0,0:0:0:0:
416,192,164217,1,0,0:0:0:0:
136,192,164367,1,0,0:0:0:0:
104,192,164442,1,0,0:0:0:0:
72,192,164517,1,0,0:0:0:0:
40,192,164592,1,0,0:0:0:0:
200,192,164667,6,0,L|280:192,2,70
128,192,165117,1,0,0:0:0:0:
80,192,165192,1,0,0:0:0:0:
270,192,165267,5,0,0:0:0:0:
336,192,165417,1,0,0:0:0:0:
384,192,165492,1,0,0:0:0:0:
192,192,165567,1,0,0:0:0:0:
160,192,165642,1,0,0:0:0:0:
128,192,165717,1,0,0:0:0:0:
96,192,165792,1,0,0:0:0:0:
256,192,165867,5,0,0:0:0:0:
328,192,166017,1,0,0:0:0:0:
384,192,166092,1,0,0:0:0:0:
200,192,166167,5,0,0:0:0:0:
128,192,166317,1,0,0:0:0:0:
80,192,166392,1,0,0:0:0:0:
272,192,166467,5,0,0:0:0:0:
64,192,166617,1,0,0:0:0:0:
296,192,166767,1,0,0:0:0:0:
344,192,166842,1,0,0:0:0:0:
160,192,166917,1,0,0:0:0:0:
112,192,166992,1,0,0:0:0:0:
320,192,167067,5,0,0:0:0:0:
184,192,167367,6,0,L|40:192,2,140
320,192,168267,6,0,L|408:192,2,70
184,192,168867,2,0,L|104:192,2,70
256,192,169317,1,0,0:0:0:0:
48,192,169467,6,0,L|120:192,2,70
184,192,170067,1,0,0:0:0:0:
464,192,170367,5,0,0:0:0:0:
392,192,170517,1,0,0:0:0:0:
464,192,170667,1,0,0:0:0:0:
496,192,170742,1,0,0:0:0:0:
320,192,170817,1,0,0:0:0:0:
184,192,170967,2,0,L|32:192,1,140
112,192,171417,1,0,0:0:0:0:
324,192,171567,6,0,L|172:192,1,140
112,192,172017,1,0,0:0:0:0:
248,192,172167,6,0,L|408:192,2,140
384,192,173067,1,0,0:0:0:0:
456,192,173217,1,0,0:0:0:0:
248,192,173367,6,0,L|416:192,1,140
320,192,173817,1,0,0:0:0:0:
112,192,173967,6,0,L|256:192,1,140
184,192,174417,1,0,0:0:0:0:
392,192,174567,6,0,L|248:192,2,140
464,192,175317,1,0,0:0:0:0:
184,192,175467,1,0,0:0:0:0:
112,192,175617,1,0,0:0:0:0:
360,192,175767,5,0,0:0:0:0:
80,192,176367,5,0,0:0:0:0:
256,192,176629,1,0,0:0:0:0:
280,192,176667,1,0,0:0:0:0:
488,192,176967,5,0,0:0:0:0:
144,192,177117,1,0,0:0:0:0:
96,192,177192,1,0,0:0:0:0:
288,192,177267,5,0,0:0:0:0:
360,192,177417,1,0,0:0:0:0:
80,192,177567,1,0,0:0:0:0:
56,192,177642,1,0,0:0:0:0:
40,192,177717,1,0,0:0:0:0:
72,192,177792,1,0,0:0:0:0:
232,192,177867,6,0,L|312:192,2,70
160,192,178317,1,0,0:0:0:0:
112,192,178392,1,0,0:0:0:0:
264,192,178467,5,0,0:0:0:0:
336,192,178617,1,0,0:0:0:0:
56,192,178767,1,0,0:0:0:0:
40,192,178842,1,0,0:0:0:0:
72,192,178917,1,0,0:0:0:0:
104,192,178992,1,0,0:0:0:0:
296,192,179067,6,0,L|384:192,2,70
224,192,179517,1,0,0:0:0:0:
176,192,179592,1,0,0:0:0:0:
384,192,179667,5,0,0:0:0:0:
456,192,179817,1,0,0:0:0:0:
144,192,179967,1,0,0:0:0:0:
128,192,180042,1,0,0:0:0:0:
160,192,180117,1,0,0:0:0:0:
192,192,180192,1,0,0:0:0:0:
328,192,180267,6,0,L|416:192,2,70
256,192,180717,1,0,0:0:0:0:
208,192,180792,1,0,0:0:0:0:
80,192,180867,5,0,0:0:0:0:
8,192,181017,1,0,0:0:0:0:
328,192,181167,1,0,0:0:0:0:
360,192,181242,1,0,0:0:0:0:
392,192,181317,1,0,0:0:0:0:
424,192,181392,1,0,0:0:0:0:
264,192,181467,5,0,0:0:0:0:
192,192,181617,1,0,0:0:0:0:
144,192,181692,1,0,0:0:0:0:
296,192,181767,5,0,0:0:0:0:
368,192,181917,1,0,0:0:0:0:
416,192,181992,1,0,0:0:0:0:
240,192,182067,5,0,0:0:0:0:
448,192,182217,1,0,0:0:0:0:
200,192,182367,1,0,0:0:0:0:
168,192,182442,1,0,0:0:0:0:
136,192,182517,1,0,0:0:0:0:
104,192,182592,1,0,0:0:0:0:
264,192,182667,6,0,L|352:192,2,70
192,192,183117,1,0,0:0:0:0:
144,192,183192,1,0,0:0:0:0:
352,192,183267,5,0,0:0:0:0:
72,192,183417,1,0,0:0:0:0:
280,192,183567,1,0,0:0:0:0:
312,192,183642,1,0,0:0:0:0:
344,192,183717,1,0,0:0:0:0:
376,192,183792,1,0,0:0:0:0:
216,192,183867,6,0,L|128:192,2,70
288,192,184317,1,0,0:0:0:0:
336,192,184392,1,0,0:0:0:0:
128,192,184467,5,0,0:0:0:0:
408,192,184617,1,0,0:0:0:0:
200,192,184767,1,0,0:0:0:0:
168,192,184842,1,0,0:0:0:0:
136,192,184917,1,0,0:0:0:0:
104,192,184992,1,0,0:0:0:0:
240,192,185067,5,0,0:0:0:0:
448,192,185217,1,0,0:0:0:0:
136,192,185367,5,0,0:0:0:0:
416,192,185967,5,0,0:0:0:0:
464,192,186042,1,0,0:0:0:0:
256,192,186117,1,0,0:0:0:0:
208,192,186192,1,0,0:0:0:0:
400,192,186267,6,0,L|470:192,2,70
176,192,186717,1,0,0:0:0:0:
144,192,186792,1,0,0:0:0:0:
112,192,186867,5,0,0:0:0:0:
80,192,186942,1,0,0:0:0:0:
216,192,187017,1,0,0:0:0:0:
272,192,187167,1,0,0:0:0:0:
320,192,187242,1,0,0:0:0:0:
448,192,187317,1,0,0:0:0:0:
376,192,187467,6,0,L|296:192,2,70
304,192,187917,1,0,0:0:0:0:
256,192,187992,1,0,0:0:0:0:
72,192,188067,5,0,0:0:0:0:
144,192,188217,1,0,0:0:0:0:
368,192,188367,1,0,0:0:0:0:
400,192,188442,1,0,0:0:0:0:
432,192,188517,1,0,0:0:0:0:
464,192,188592,1,0,0:0:0:0:
336,192,188667,6,0,L|256:192,2,70
416,192,189117,1,0,0:0:0:0:
464,192,189192,1,0,0:0:0:0:
312,192,189267,5,0,0:0:0:0:
240,192,189417,1,0,0:0:0:0:
32,192,189567,1,0,0:0:0:0:
64,192,189642,1,0,0:0:0:0:
96,192,189717,1,0,0:0:0:0:
128,192,189792,1,0,0:0:0:0:
304,192,189867,6,0,L|400:192,2,70
96,192,190317,1,0,0:0:0:0:
128,192,190392,1,0,0:0:0:0:
160,192,190467,5,0,0:0:0:0:
192,192,190542,1,0,0:0:0:0:
352,192,190617,1,0,0:0:0:0:
424,192,190767,1,0,0:0:0:0:
472,192,190842,1,0,0:0:0:0:
296,192,190917,6,0,L|272:192,3,17.5
376,192,191067,2,0,L|400:192,2,17.5
216,192,191217,6,0,L|184:192,4,17.5
424,192,191517,5,0,0:0:0:0:
472,192,191592,1,0,0:0:0:0:
296,192,191667,5,0,0:0:0:0:
248,192,191742,1,0,0:0:0:0:
440,192,191817,1,0,0:0:0:0:
168,192,191967,5,0,0:0:0:0:
120,192,192042,1,0,0:0:0:0:
312,192,192117,1,0,0:0:0:0:
64,192,192267,1,0,0:0:0:0:
344,192,192417,1,0,0:0:0:0:
136,192,192567,5,0,0:0:0:0:
208,192,192717,1,0,0:0:0:0:
256,192,192792,1,0,0:0:0:0:
432,192,192867,1,0,0:0:0:0:
480,192,192942,1,0,0:0:0:0:
288,192,193017,1,0,0:0:0:0:
80,192,193167,1,0,0:0:0:0:
32,192,193242,1,0,0:0:0:0:
208,192,193317,1,0,0:0:0:0:
256,192,193392,1,0,0:0:0:0:
430,192,193467,6,0,L|454:192,4,17.5
273,192,193692,6,0,L|241:192,2,17.5
321,192,193842,1,0,0:0:0:0:
456,192,193917,1,0,0:0:0:0:
505,192,193992,1,0,0:0:0:0:
184,192,194067,5,0,0:0:0:0:
96,192,194217,1,0,0:0:0:0:
320,192,194367,5,0,0:0:0:0:
352,192,194442,1,0,0:0:0:0:
384,192,194517,1,0,0:0:0:0:
416,192,194592,1,0,0:0:0:0:
256,192,194667,1,0,0:0:0:0:
464,192,194817,1,0,0:0:0:0:
184,192,194967,5,0,0:0:0:0:
112,192,195117,1,0,0:0:0:0:
64,192,195192,1,0,0:0:0:0:
240,192,195267,5,0,0:0:0:0:
32,192,195417,1,0,0:0:0:0:
312,192,195567,1,0,0:0:0:0:
344,192,195642,1,0,0:0:0:0:
376,192,195717,1,0,0:0:0:0:
408,192,195792,1,0,0:0:0:0:
248,192,195867,5,0,0:0:0:0:
344,192,196167,5,0,0:0:0:0:
376,192,196242,1,0,0:0:0:0:
200,192,196317,1,0,0:0:0:0:
168,192,196392,1,0,0:0:0:0:
306,192,196467,1,0,0:0:0:0:
336,192,196542,1,0,0:0:0:0:
306,192,196617,1,0,0:0:0:0:
272,192,196692,1,0,0:0:0:0:
96,192,196767,5,0,0:0:0:0:
64,192,196842,1,0,0:0:0:0:
216,192,196917,1,0,0:0:0:0:
264,192,196992,1,0,0:0:0:0:
416,192,197067,1,0,0:0:0:0:
440,192,197142,1,0,0:0:0:0:
456,192,197217,1,0,0:0:0:0:
424,192,197292,1,0,0:0:0:0:
272,192,197367,5,0,0:0:0:0:
224,192,197442,1,0,0:0:0:0:
72,192,197517,1,0,0:0:0:0:
40,192,197592,1,0,0:0:0:0:
264,192,197667,1,0,0:0:0:0:
280,192,197742,1,0,0:0:0:0:
264,192,197817,1,0,0:0:0:0:
280,192,197892,1,0,0:0:0:0:
432,192,197967,5,0,0:0:0:0:
464,192,198042,1,0,0:0:0:0:
304,192,198117,6,0,L|280:192,4,17.5
168,192,198567,5,0,0:0:0:0:
136,192,198642,1,0,0:0:0:0:
296,192,198717,1,0,0:0:0:0:
328,192,198792,1,0,0:0:0:0:
120,192,198867,1,0,0:0:0:0:
96,192,198942,1,0,0:0:0:0:
80,192,199017,1,0,0:0:0:0:
96,192,199092,1,0,0:0:0:0:
248,192,199167,5,0,0:0:0:0:
296,192,199242,1,0,0:0:0:0:
448,192,199317,1,0,0:0:0:0:
480,192,199392,1,0,0:0:0:0:
312,192,199467,1,0,0:0:0:0:
296,192,199542,1,0,0:0:0:0:
312,192,199617,1,0,0:0:0:0:
296,192,199692,1,0,0:0:0:0:
96,192,199767,5,0,0:0:0:0:
64,192,199842,1,0,0:0:0:0:
240,192,199917,1,0,0:0:0:0:
272,192,199992,1,0,0:0:0:0:
112,192,200067,1,0,0:0:0:0:
88,192,200142,1,0,0:0:0:0:
72,192,200217,1,0,0:0:0:0:
104,192,200292,1,0,0:0:0:0:
288,192,200367,5,0,0:0:0:0:
336,192,200442,1,0,0:0:0:0:
472,192,200517,6,0,L|496:192,2,17.5
328,192,200667,6,0,L|304:192,2,17.5
184,192,200967,5,0,0:0:0:0:
152,192,201042,1,0,0:0:0:0:
328,192,201117,1,0,0:0:0:0:
360,192,201192,1,0,0:0:0:0:
200,192,201267,1,0,0:0:0:0:
176,192,201342,1,0,0:0:0:0:
208,192,201417,1,0,0:0:0:0:
240,192,201492,1,0,0:0:0:0:
416,192,201567,5,0,0:0:0:0:
448,192,201642,1,0,0:0:0:0:
280,192,201717,1,0,0:0:0:0:
232,192,201792,1,0,0:0:0:0:
80,192,201867,1,0,0:0:0:0:
56,192,201942,1,0,0:0:0:0:
40,192,202017,1,0,0:0:0:0:
72,192,202092,1,0,0:0:0:0:
224,192,202167,5,0,0:0:0:0:
272,192,202242,1,0,0:0:0:0:
424,192,202317,1,0,0:0:0:0:
456,192,202392,1,0,0:0:0:0:
288,192,202467,1,0,0:0:0:0:
272,192,202542,1,0,0:0:0:0:
288,192,202617,1,0,0:0:0:0:
272,192,202692,1,0,0:0:0:0:
104,192,202767,5,0,0:0:0:0:
72,192,202842,1,0,0:0:0:0:
232,192,202917,6,0,L|256:192,4,17.5
368,192,203367,5,0,0:0:0:0:
400,192,203442,1,0,0:0:0:0:
240,192,203517,1,0,0:0:0:0:
200,192,203592,1,0,0:0:0:0:
432,192,203667,1,0,0:0:0:0:
456,192,203742,1,0,0:0:0:0:
424,192,203817,1,0,0:0:0:0:
392,192,203892,1,0,0:0:0:0:
248,192,203967,5,0,0:0:0:0:
200,192,204042,1,0,0:0:0:0:
40,192,204117,1,0,0:0:0:0:
8,192,204192,1,0,0:0:0:0:
168,192,204267,1,0,0:0:0:0:
200,192,204342,1,0,0:0:0:0:
168,192,204417,1,0,0:0:0:0:
200,192,204492,1,0,0:0:0:0:
392,192,204567,5,0,0:0:0:0:
424,192,204642,1,0,0:0:0:0:
248,192,204717,1,0,0:0:0:0:
216,192,204792,1,0,0:0:0:0:
440,192,204867,1,0,0:0:0:0:
472,192,204942,1,0,0:0:0:0:
304,192,205017,1,0,0:0:0:0:
256,192,205092,1,0,0:0:0:0:
88,192,205167,6,0,L|56:192,2,17.5
248,192,205317,6,0,L|280:192,2,17.5
408,192,205467,1,0,0:0:0:0:
128,192,205767,5,0,0:0:0:0:
96,192,205842,1,0,0:0:0:0:
256,192,205917,1,0,0:0:0:0:
288,192,205992,1,0,0:0:0:0:
112,192,206067,1,0,0:0:0:0:
88,192,206142,1,0,0:0:0:0:
71,192,206217,1,0,0:0:0:0:
104,192,206292,1,0,0:0:0:0:
266,192,206367,5,0,0:0:0:0:
312,192,206442,1,0,0:0:0:0:
464,192,206517,1,0,0:0:0:0:
496,192,206592,1,0,0:0:0:0:
336,192,206667,1,0,0:0:0:0:
304,192,206742,1,0,0:0:0:0:
336,192,206817,1,0,0:0:0:0:
304,192,206892,1,0,0:0:0:0:
120,192,206967,5,0,0:0:0:0:
96,192,207042,1,0,0:0:0:0:
234,192,207117,1,0,0:0:0:0:
266,192,207192,1,0,0:0:0:0:
64,192,207267,1,0,0:0:0:0:
24,192,207342,1,0,0:0:0:0:
56,192,207417,1,0,0:0:0:0:
104,192,207492,1,0,0:0:0:0:
280,192,207567,5,0,0:0:0:0:
328,192,207642,1,0,0:0:0:0:
456,192,207717,1,0,0:0:0:0:
488,192,207792,1,0,0:0:0:0:
264,192,207867,1,0,0:0:0:0:
248,192,207942,1,0,0:0:0:0:
264,192,208017,1,0,0:0:0:0:
248,192,208092,1,0,0:0:0:0:
56,192,208167,5,0,0:0:0:0:
24,192,208242,1,0,0:0:0:0:
160,192,208317,1,0,0:0:0:0:
208,192,208392,1,0,0:0:0:0:
336,192,208467,1,0,0:0:0:0:
368,192,208542,1,0,0:0:0:0:
336,192,208617,1,0,0:0:0:0:
368,192,208692,1,0,0:0:0:0:
208,192,208767,5,0,0:0:0:0:
176,192,208842,1,0,0:0:0:0:
304,192,208917,1,0,0:0:0:0:
352,192,208992,1,0,0:0:0:0:
480,192,209067,1,0,0:0:0:0:
504,192,209142,1,0,0:0:0:0:
472,192,209217,1,0,0:0:0:0:
440,192,209292,1,0,0:0:0:0:
264,192,209367,5,0,0:0:0:0:
216,192,209442,1,0,0:0:0:0:
72,192,209517,1,0,0:0:0:0:
40,192,209592,1,0,0:0:0:0:
200,192,209667,1,0,0:0:0:0:
232,192,209742,1,0,0:0:0:0:
264,192,209817,1,0,0:0:0:0:
296,192,209892,1,0,0:0:0:0:
456,192,209967,5,0,0:0:0:0:
488,192,210042,1,0,0:0:0:0:
328,192,210117,1,0,0:0:0:0:
280,192,210192,1,0,0:0:0:0:
120,192,210267,1,0,0:0:0:0:
103,197,210304,1,0,0:0:0:0:
86,192,210342,1,0,0:0:0:0:
75,180,210379,1,0,0:0:0:0:
71,163,210417,1,0,0:0:0:0:
78,147,210454,1,0,0:0:0:0:
91,136,210492,1,0,0:0:0:0:
108,135,210529,1,0,0:0:0:0:
392,136,210567,5,0,0:0:0:0:
256,192,210867,12,0,213867,0:0:0:0:
248,192,214167,5,0,0:0:0:0:
216,192,214242,1,0,0:0:0:0:
376,192,214317,1,0,0:0:0:0:
408,192,214392,1,0,0:0:0:0:
272,192,214467,5,0,0:0:0:0:
224,192,214542,1,0,0:0:0:0:
64,192,214617,1,0,0:0:0:0:
32,192,214692,1,0,0:0:0:0:
160,192,214767,5,0,0:0:0:0:
208,192,214842,1,0,0:0:0:0:
336,192,214917,1,0,0:0:0:0:
368,192,214992,1,0,0:0:0:0:
160,192,215067,6,0,L|32:192,1,105
392,192,215367,1,0,0:0:0:0:
