osu file format v14

[General]
AudioFilename: Grimm (Kobaryo's FTN-Remix).mp3
AudioLeadIn: 0
PreviewTime: 148167
Countdown: 0
SampleSet: Normal
StackLeniency: 0.7
Mode: 3
LetterboxInBreaks: 0
SpecialStyle: 0
WidescreenStoryboard: 0

[Editor]
DistanceSpacing: 1.4
BeatDivisor: 4
GridSize: 4
TimelineZoom: 1.8

[Metadata]
Title:Grimm (Kobaryo's FTN-Remix)
TitleUnicode:Grimm (Kobaryo's FTИ-Remix)
Artist:RoughSketch feat.Aikapin
ArtistUnicode:RoughSketch feat.あいかぴん
Creator:CHARGE
Version:Normal
Source:
Tags:hanamushi distorted children speedcore hardcore electro burst hardstyle 花蟲 laughingcomet
BeatmapID:1271991
BeatmapSetID:597690

[Difficulty]
HPDrainRate:7.5
CircleSize:4
OverallDifficulty:7
ApproachRate:5
SliderMultiplier:1.4
SliderTickRate:1

[Events]
//Background and Video events
0,0,"grimm_logo.png",0,0
//Break Periods
//Storyboard Layer 0 (Background)
//Storyboard Layer 1 (Fail)
//Storyboard Layer 2 (Pass)
//Storyboard Layer 3 (Foreground)
//Storyboard Sound Samples

[TimingPoints]
567,300,4,1,1,50,1,0
28167,-100,4,1,1,50,0,1
47367,-100,4,1,1,50,0,0
148167,-100,4,1,1,50,0,1
167367,-100,4,1,1,50,0,0
176967,-100,4,1,1,50,0,1
195867,-100,4,1,1,50,0,0
196167,-100,4,1,1,50,0,1
205767,-100,4,1,1,50,0,0

[HitObjects]
192,192,567,5,0,0:0:0:0:
320,192,717,1,0,0:0:0:0:
64,192,867,5,0,0:0:0:0:
320,192,1767,1,0,0:0:0:0:
192,192,1917,1,0,0:0:0:0:
448,192,2067,1,0,0:0:0:0:
320,192,2967,1,0,0:0:0:0:
192,192,3117,1,0,0:0:0:0:
448,192,3267,1,0,0:0:0:0:
64,192,4167,1,0,0:0:0:0:
192,192,4317,1,0,0:0:0:0:
320,192,4467,1,0,0:0:0:0:
448,192,4767,1,0,0:0:0:0:
320,192,4917,1,0,0:0:0:0:
192,192,5067,1,0,0:0:0:0:
64,192,5367,1,0,0:0:0:0:
192,192,5517,1,0,0:0:0:0:
320,192,5667,1,0,0:0:0:0:
448,192,6567,1,0,0:0:0:0:
320,192,6717,1,0,0:0:0:0:
64,192,6867,1,0,0:0:0:0:
64,192,7767,1,0,0:0:0:0:
192,192,7917,1,0,0:0:0:0:
448,192,8067,1,0,0:0:0:0:
448,192,8967,1,0,0:0:0:0:
320,192,9117,1,0,0:0:0:0:
192,192,9267,1,0,0:0:0:0:
64,192,9567,1,0,0:0:0:0:
192,192,9717,1,0,0:0:0:0:
320,192,9867,1,0,0:0:0:0:
448,192,10167,128,0,11367:0:0:0:0:
192,192,11367,128,0,12567:0:0:0:0:
320,192,12567,128,0,13767:0:0:0:0:
64,192,13767,128,0,14367:0:0:0:0:
192,192,14367,128,0,14967:0:0:0:0:
448,192,14967,128,0,16167:0:0:0:0:
320,192,16167,128,0,17367:0:0:0:0:
64,192,17367,128,0,18567:0:0:0:0:
192,192,18567,128,0,19167:0:0:0:0:
320,192,19167,128,0,19767:0:0:0:0:
448,192,19767,128,0,20967:0:0:0:0:
64,192,20967,128,0,26967:0:0:0:0:
192,192,23367,128,0,26967:0:0:0:0:
448,192,26967,1,8,0:0:0:0:
320,192,27117,1,8,0:0:0:0:
64,192,27267,1,8,0:0:0:0:
192,192,27417,1,8,0:0:0:0:
320,192,27567,1,8,0:0:0:0:
448,192,27717,1,8,0:0:0:0:
192,192,27867,1,4,0:0:0:0:
320,192,27867,1,8,0:0:0:0:
448,192,28167,1,8,0:0:0:0:
64,192,28167,1,0,0:0:0:0:
192,192,28317,1,8,0:0:0:0:
64,192,28467,1,8,0:0:0:0:
320,192,28617,1,8,0:0:0:0:
448,192,28767,1,8,0:0:0:0:
64,192,28917,1,8,0:0:0:0:
320,192,29067,1,8,0:0:0:0:
192,192,29217,1,8,0:0:0:0:
448,192,29367,1,8,0:0:0:0:
320,192,29517,1,8,0:0:0:0:
64,192,29667,1,8,0:0:0:0:
192,192,29817,1,8,0:0:0:0:
448,192,29967,1,8,0:0:0:0:
64,192,30117,1,8,0:0:0:0:
192,192,30192,1,8,0:0:0:0:
320,192,30267,1,8,0:0:0:0:
448,192,30417,1,8,0:0:0:0:
192,192,30492,1,8,0:0:0:0:
64,192,30567,1,12,0:0:0:0:
320,192,30717,1,8,0:0:0:0:
192,192,30867,1,8,0:0:0:0:
448,192,31017,1,8,0:0:0:0:
320,192,31167,1,8,0:0:0:0:
64,192,31317,1,8,0:0:0:0:
192,192,31467,1,8,0:0:0:0:
448,192,31617,1,8,0:0:0:0:
64,192,31767,1,8,0:0:0:0:
320,192,31917,1,8,0:0:0:0:
192,192,32067,1,8,0:0:0:0:
448,192,32217,1,8,0:0:0:0:
64,192,32367,1,8,0:0:0:0:
320,192,32442,1,8,0:0:0:0:
448,192,32517,1,8,0:0:0:0:
64,192,32667,1,8,0:0:0:0:
192,192,32817,1,8,0:0:0:0:
320,192,32892,1,8,0:0:0:0:
448,192,32967,1,12,0:0:0:0:
320,192,33117,1,8,0:0:0:0:
192,192,33267,1,8,0:0:0:0:
64,192,33417,1,8,0:0:0:0:
320,192,33567,1,8,0:0:0:0:
192,192,33717,1,8,0:0:0:0:
448,192,33867,1,8,0:0:0:0:
320,192,34017,1,8,0:0:0:0:
64,192,34167,1,8,0:0:0:0:
448,192,34317,1,8,0:0:0:0:
320,192,34467,1,8,0:0:0:0:
64,192,34617,1,8,0:0:0:0:
192,192,34767,1,8,0:0:0:0:
448,192,34917,1,8,0:0:0:0:
320,192,34992,1,8,0:0:0:0:
192,192,35067,1,8,0:0:0:0:
64,192,35217,1,8,0:0:0:0:
192,192,35292,1,8,0:0:0:0:
320,192,35367,1,12,0:0:0:0:
448,192,35517,1,8,0:0:0:0:
64,192,35667,1,8,0:0:0:0:
192,192,35817,1,8,0:0:0:0:
448,192,35967,1,8,0:0:0:0:
320,192,36117,1,8,0:0:0:0:
192,192,36267,1,8,0:0:0:0:
64,192,36417,1,8,0:0:0:0:
448,192,36567,1,8,0:0:0:0:
64,192,36717,1,8,0:0:0:0:
448,192,36867,1,8,0:0:0:0:
64,192,37017,1,8,0:0:0:0:
448,192,37167,128,8,37317:0:0:0:0:
64,192,37317,128,8,37467:0:0:0:0:
448,192,37467,1,2,0:0:0:0:
192,192,37767,1,12,0:0:0:0:
64,192,37767,1,0,0:0:0:0:
448,192,37917,1,8,0:0:0:0:
320,192,38067,1,8,0:0:0:0:
64,192,38217,1,8,0:0:0:0:
448,192,38367,1,8,0:0:0:0:
192,192,38517,1,8,0:0:0:0:
320,192,38667,1,8,0:0:0:0:
448,192,38817,1,8,0:0:0:0:
64,192,38967,1,8,0:0:0:0:
320,192,39117,1,8,0:0:0:0:
64,192,39267,1,8,0:0:0:0:
448,192,39417,1,8,0:0:0:0:
320,192,39567,1,8,0:0:0:0:
64,192,39717,128,8,39867:0:0:0:0:
192,192,39717,128,0,39867:0:0:0:0:
320,192,39867,1,8,0:0:0:0:
448,192,40017,1,8,0:0:0:0:
320,192,40092,1,8,0:0:0:0:
192,192,40167,1,12,0:0:0:0:
64,192,40317,1,8,0:0:0:0:
448,192,40467,1,8,0:0:0:0:
320,192,40617,1,8,0:0:0:0:
192,192,40767,1,8,0:0:0:0:
64,192,40917,1,8,0:0:0:0:
320,192,41067,1,8,0:0:0:0:
448,192,41217,1,8,0:0:0:0:
64,192,41367,1,8,0:0:0:0:
320,192,41517,1,8,0:0:0:0:
192,192,41667,1,8,0:0:0:0:
448,192,41817,1,8,0:0:0:0:
64,192,41967,1,8,0:0:0:0:
320,192,42117,128,8,42267:0:0:0:0:
448,192,42267,128,8,42417:0:0:0:0:
64,192,42417,1,8,0:0:0:0:
192,192,42492,1,8,0:0:0:0:
320,192,42567,1,12,0:0:0:0:
64,192,42717,1,8,0:0:0:0:
448,192,42867,1,8,0:0:0:0:
320,192,43017,1,8,0:0:0:0:
192,192,43167,1,8,0:0:0:0:
64,192,43317,1,8,0:0:0:0:
448,192,43467,1,8,0:0:0:0:
192,192,43617,1,8,0:0:0:0:
320,192,43767,1,8,0:0:0:0:
448,192,43917,1,8,0:0:0:0:
192,192,44067,1,8,0:0:0:0:
448,192,44217,1,8,0:0:0:0:
64,192,44367,1,8,0:0:0:0:
320,192,44517,128,8,44667:0:0:0:0:
192,192,44517,128,0,44667:0:0:0:0:
64,192,44667,1,8,0:0:0:0:
448,192,44817,1,8,0:0:0:0:
320,192,44892,1,8,0:0:0:0:
192,192,44967,1,12,0:0:0:0:
448,192,45117,1,8,0:0:0:0:
320,192,45267,1,8,0:0:0:0:
64,192,45417,1,8,0:0:0:0:
192,192,45567,1,8,0:0:0:0:
448,192,45717,1,8,0:0:0:0:
64,192,45867,1,8,0:0:0:0:
320,192,46017,1,8,0:0:0:0:
64,192,46167,1,8,0:0:0:0:
448,192,46317,128,8,46467:0:0:0:0:
64,192,46467,1,8,0:0:0:0:
192,192,46617,128,8,46767:0:0:0:0:
448,192,46767,128,8,46917:0:0:0:0:
64,192,46917,128,8,47067:0:0:0:0:
192,192,47067,1,4,0:0:0:0:
320,192,47067,1,2,0:0:0:0:
64,192,47367,1,8,0:0:0:0:
192,192,47367,1,0,0:0:0:0:
448,192,47667,1,2,0:0:0:0:
64,192,47817,1,8,0:0:0:0:
320,192,47967,1,0,0:0:0:0:
192,192,48117,1,2,0:0:0:0:
448,192,48267,1,0,0:0:0:0:
448,192,48417,1,0,0:0:0:0:
448,192,48567,1,0,0:0:0:0:
64,192,48717,1,8,0:0:0:0:
320,192,48867,1,2,0:0:0:0:
64,192,49017,1,0,0:0:0:0:
448,192,49167,1,8,0:0:0:0:
320,192,49317,1,0,0:0:0:0:
192,192,49467,1,2,0:0:0:0:
448,192,49767,1,8,0:0:0:0:
64,192,49767,1,0,0:0:0:0:
192,192,49917,1,8,0:0:0:0:
320,192,50067,1,2,0:0:0:0:
192,192,50217,1,8,0:0:0:0:
64,192,50367,1,0,0:0:0:0:
448,192,50517,1,2,0:0:0:0:
192,192,50667,1,0,0:0:0:0:
192,192,50817,1,0,0:0:0:0:
192,192,50967,1,0,0:0:0:0:
448,192,51117,1,8,0:0:0:0:
64,192,51267,1,2,0:0:0:0:
192,192,51417,1,0,0:0:0:0:
448,192,51567,1,8,0:0:0:0:
320,192,51717,1,0,0:0:0:0:
192,192,51867,1,2,0:0:0:0:
448,192,52167,1,8,0:0:0:0:
320,192,52167,1,0,0:0:0:0:
64,192,52467,1,2,0:0:0:0:
192,192,52617,1,8,0:0:0:0:
448,192,52767,1,0,0:0:0:0:
320,192,52917,1,2,0:0:0:0:
64,192,53067,1,0,0:0:0:0:
64,192,53217,1,0,0:0:0:0:
64,192,53367,1,0,0:0:0:0:
192,192,53517,1,8,0:0:0:0:
320,192,53667,1,2,0:0:0:0:
64,192,53817,1,0,0:0:0:0:
448,192,53967,1,8,0:0:0:0:
320,192,54117,1,0,0:0:0:0:
192,192,54267,1,2,0:0:0:0:
64,192,54567,1,8,0:0:0:0:
448,192,54567,1,0,0:0:0:0:
320,192,54717,1,8,0:0:0:0:
192,192,54867,1,2,0:0:0:0:
64,192,55017,1,8,0:0:0:0:
448,192,55167,1,0,0:0:0:0:
320,192,55317,1,2,0:0:0:0:
64,192,55467,1,0,0:0:0:0:
192,192,55617,1,0,0:0:0:0:
448,192,55767,1,0,0:0:0:0:
320,192,55917,1,0,0:0:0:0:
64,192,56067,1,0,0:0:0:0:
192,192,56217,1,0,0:0:0:0:
320,192,56367,1,0,0:0:0:0:
448,192,56517,1,0,0:0:0:0:
192,192,56667,1,12,0:0:0:0:
64,192,56667,1,0,0:0:0:0:
192,192,56967,1,8,0:0:0:0:
448,192,57117,1,8,0:0:0:0:
64,192,57267,1,8,0:0:0:0:
320,192,57417,1,8,0:0:0:0:
64,192,57567,1,8,0:0:0:0:
192,192,57642,1,0,0:0:0:0:
448,192,57867,1,8,0:0:0:0:
320,192,58017,1,8,0:0:0:0:
64,192,58167,1,8,0:0:0:0:
192,192,58242,1,0,0:0:0:0:
448,192,58467,1,8,0:0:0:0:
320,192,58542,1,0,0:0:0:0:
64,192,58767,1,8,0:0:0:0:
192,192,58917,1,8,0:0:0:0:
320,192,59067,1,8,0:0:0:0:
320,192,59217,1,8,0:0:0:0:
448,192,59367,1,8,0:0:0:0:
64,192,59517,1,8,0:0:0:0:
320,192,59667,1,8,0:0:0:0:
192,192,59817,1,8,0:0:0:0:
448,192,59967,1,8,0:0:0:0:
64,192,60042,1,0,0:0:0:0:
320,192,60267,1,8,0:0:0:0:
192,192,60417,1,8,0:0:0:0:
64,192,60567,1,8,0:0:0:0:
320,192,60642,1,0,0:0:0:0:
64,192,60867,1,8,0:0:0:0:
320,192,60942,1,0,0:0:0:0:
448,192,61167,1,8,0:0:0:0:
192,192,61317,1,8,0:0:0:0:
448,192,61467,128,8,61617:0:0:0:0:
192,192,61617,128,8,61767:0:0:0:0:
320,192,61767,1,12,0:0:0:0:
64,192,61917,1,8,0:0:0:0:
448,192,62067,1,8,0:0:0:0:
192,192,62217,1,8,0:0:0:0:
320,192,62367,1,8,0:0:0:0:
448,192,62442,1,0,0:0:0:0:
64,192,62667,1,8,0:0:0:0:
192,192,62817,1,8,0:0:0:0:
448,192,62967,1,8,0:0:0:0:
320,192,63042,1,0,0:0:0:0:
64,192,63267,1,8,0:0:0:0:
192,192,63342,1,0,0:0:0:0:
448,192,63567,1,8,0:0:0:0:
320,192,63717,1,8,0:0:0:0:
64,192,63867,1,8,0:0:0:0:
64,192,64017,1,8,0:0:0:0:
192,192,64167,1,8,0:0:0:0:
448,192,64317,1,8,0:0:0:0:
320,192,64467,1,8,0:0:0:0:
64,192,64617,1,8,0:0:0:0:
192,192,64767,1,8,0:0:0:0:
320,192,64842,1,0,0:0:0:0:
64,192,65067,1,8,0:0:0:0:
448,192,65217,1,8,0:0:0:0:
192,192,65367,128,8,65667:0:0:0:0:
64,192,65367,1,0,0:0:0:0:
320,192,65667,128,8,65967:0:0:0:0:
64,192,65967,128,8,66117:0:0:0:0:
448,192,66117,128,8,66267:0:0:0:0:
192,192,66267,1,4,0:0:0:0:
64,192,66567,1,8,0:0:0:0:
320,192,66567,1,0,0:0:0:0:
448,192,66717,1,8,0:0:0:0:
192,192,66867,1,2,0:0:0:0:
64,192,67167,1,8,0:0:0:0:
320,192,67317,1,2,0:0:0:0:
64,192,67617,1,8,0:0:0:0:
320,192,67767,1,2,0:0:0:0:
64,192,68067,1,8,0:0:0:0:
320,192,68217,1,2,0:0:0:0:
192,192,68517,1,8,0:0:0:0:
448,192,68667,128,2,68967:0:0:0:0:
64,192,68967,1,8,0:0:0:0:
192,192,69117,1,8,0:0:0:0:
320,192,69267,1,10,0:0:0:0:
448,192,69567,1,8,0:0:0:0:
64,192,69717,1,2,0:0:0:0:
448,192,70017,1,8,0:0:0:0:
64,192,70167,1,2,0:0:0:0:
448,192,70467,1,8,0:0:0:0:
64,192,70617,1,2,0:0:0:0:
448,192,70917,1,8,0:0:0:0:
192,192,70992,1,8,0:0:0:0:
64,192,71067,128,2,71367:0:0:0:0:
448,192,71367,128,0,71517:0:0:0:0:
320,192,71517,1,12,0:0:0:0:
192,192,71667,1,10,0:0:0:0:
64,192,71967,1,8,0:0:0:0:
448,192,72117,1,2,0:0:0:0:
64,192,72417,1,8,0:0:0:0:
448,192,72567,1,2,0:0:0:0:
64,192,72867,1,8,0:0:0:0:
448,192,73017,1,2,0:0:0:0:
64,192,73317,1,8,0:0:0:0:
320,192,73467,128,2,73767:0:0:0:0:
448,192,73767,1,8,0:0:0:0:
192,192,73917,1,8,0:0:0:0:
64,192,74067,1,2,0:0:0:0:
448,192,74367,1,8,0:0:0:0:
192,192,74517,1,2,0:0:0:0:
448,192,74817,1,8,0:0:0:0:
192,192,74967,1,10,0:0:0:0:
64,192,75167,1,8,0:0:0:0:
320,192,75367,1,8,0:0:0:0:
64,192,75567,1,10,0:0:0:0:
448,192,75767,1,8,0:0:0:0:
192,192,75967,1,10,0:0:0:0:
448,192,76167,1,8,0:0:0:0:
320,192,76167,128,4,80967:0:0:0:0:
64,192,80967,1,0,0:0:0:50:thunder_strike.wav
192,192,81417,1,0,0:0:0:0:
448,192,81867,1,0,0:0:0:0:
320,192,82167,1,0,0:0:0:0:
320,192,82617,1,0,0:0:0:0:
64,192,82917,1,0,0:0:0:0:
448,192,83067,1,0,0:0:0:0:
192,192,83367,1,0,0:0:0:0:
64,192,83817,1,0,0:0:0:0:
320,192,84267,1,0,0:0:0:0:
192,192,84567,1,0,0:0:0:0:
64,192,85017,1,0,0:0:0:0:
448,192,85467,1,0,0:0:0:0:
192,192,85767,1,0,0:0:0:0:
64,192,86217,1,0,0:0:0:0:
448,192,86517,1,0,0:0:0:0:
64,192,86667,1,0,0:0:0:0:
320,192,86967,1,0,0:0:0:0:
448,192,87417,1,0,0:0:0:0:
192,192,87717,1,0,0:0:0:0:
448,192,87867,1,0,0:0:0:0:
320,192,88167,1,0,0:0:0:0:
192,192,88617,1,0,0:0:0:0:
64,192,88917,1,0,0:0:0:0:
192,192,89067,1,0,0:0:0:0:
448,192,89217,1,0,0:0:0:0:
448,192,89367,1,0,0:0:0:0:
192,192,89817,1,0,0:0:0:0:
64,192,89817,1,0,0:0:0:0:
448,192,90267,1,0,0:0:0:0:
64,192,90567,1,4,0:0:0:0:
448,192,91017,1,0,0:0:0:0:
320,192,91317,1,0,0:0:0:0:
192,192,91467,1,0,0:0:0:0:
192,192,91767,1,0,0:0:0:0:
448,192,92067,1,0,0:0:0:0:
448,192,92367,1,0,0:0:0:0:
320,192,92517,1,0,0:0:0:0:
192,192,92667,1,0,0:0:0:0:
64,192,92817,1,0,0:0:0:0:
448,192,92967,1,0,0:0:0:0:
320,192,93417,1,0,0:0:0:0:
64,192,93717,1,0,0:0:0:0:
192,192,93867,1,0,0:0:0:0:
448,192,94017,1,0,0:0:0:0:
320,192,94167,1,0,0:0:0:0:
192,192,94467,1,0,0:0:0:0:
448,192,94617,1,0,0:0:0:0:
192,192,94767,1,0,0:0:0:0:
320,192,95067,1,0,0:0:0:0:
64,192,95217,1,0,0:0:0:0:
448,192,95367,1,0,0:0:0:0:
320,192,95817,1,0,0:0:0:0:
64,192,96117,1,0,0:0:0:0:
192,192,96267,1,0,0:0:0:0:
320,192,96417,1,0,0:0:0:0:
448,192,96567,1,0,0:0:0:0:
64,192,96567,1,0,0:0:0:0:
320,192,96867,1,0,0:0:0:0:
192,192,97017,1,0,0:0:0:0:
320,192,97167,1,0,0:0:0:0:
448,192,97317,1,0,0:0:0:0:
64,192,97467,1,0,0:0:0:0:
192,192,97617,1,0,0:0:0:0:
320,192,97767,1,0,0:0:0:0:
448,192,98067,1,0,0:0:0:0:
192,192,98217,1,0,0:0:0:0:
64,192,98517,1,0,0:0:0:0:
320,192,98667,1,0,0:0:0:0:
192,192,98817,1,0,0:0:0:0:
64,192,98967,1,0,0:0:0:0:
448,192,98967,1,0,0:0:0:0:
192,192,99267,1,0,0:0:0:0:
320,192,99417,1,0,0:0:0:0:
64,192,99567,1,0,0:0:0:0:
448,192,99867,1,0,0:0:0:0:
320,192,100017,1,0,0:0:0:0:
192,192,100167,128,0,101367:0:0:0:0:
320,192,100617,1,0,0:0:0:0:
320,192,101067,1,0,0:0:0:0:
64,192,101367,1,0,0:0:0:0:
448,192,101667,1,0,0:0:0:0:
64,192,101967,1,0,0:0:0:0:
192,192,102267,1,0,0:0:0:0:
320,192,102417,1,0,0:0:0:0:
64,192,102567,128,0,103767:0:0:0:0:
448,192,102567,1,0,0:0:0:0:
192,192,103017,1,0,0:0:0:0:
192,192,103467,1,0,0:0:0:0:
448,192,103617,1,0,0:0:0:0:
192,192,103767,1,0,0:0:0:0:
320,192,104067,1,0,0:0:0:0:
448,192,104217,1,0,0:0:0:0:
64,192,104367,1,0,0:0:0:0:
192,192,104517,1,0,0:0:0:0:
320,192,104667,1,0,0:0:0:0:
192,192,104817,1,0,0:0:0:0:
448,192,104817,1,0,0:0:0:0:
64,192,104967,1,0,0:0:0:0:
320,192,104967,128,0,106167:0:0:0:0:
448,192,105417,1,0,0:0:0:0:
448,192,105867,1,0,0:0:0:0:
64,192,106017,1,0,0:0:0:0:
448,192,106167,1,0,0:0:0:0:
192,192,106467,1,0,0:0:0:0:
192,192,106767,1,0,0:0:0:0:
448,192,107067,1,0,0:0:0:0:
320,192,107217,1,0,0:0:0:0:
64,192,107367,128,0,108567:0:0:0:0:
192,192,107817,1,0,0:0:0:0:
192,192,108267,1,0,0:0:0:0:
320,192,108417,1,0,0:0:0:0:
192,192,108567,1,0,0:0:0:0:
448,192,108867,1,0,0:0:0:0:
320,192,109017,1,0,0:0:0:0:
64,192,109167,1,0,0:0:0:0:
192,192,109317,1,0,0:0:0:0:
448,192,109467,128,0,109767:0:0:0:0:
64,192,109767,1,0,3:0:0:0:
320,192,109767,1,4,0:0:0:0:
448,192,110067,1,0,3:0:0:0:
64,192,110217,1,0,3:0:0:0:
192,192,110367,1,2,0:0:0:0:
448,192,110367,1,0,0:0:0:0:
64,192,110667,1,0,3:0:0:0:
192,192,110817,1,0,3:0:0:0:
448,192,110967,1,0,3:0:0:0:
192,192,111117,1,0,3:0:0:0:
192,192,111267,1,0,3:0:0:0:
320,192,111417,1,0,0:0:0:0:
448,192,111567,1,2,0:0:0:0:
64,192,111567,1,0,0:0:0:0:
320,192,111867,1,0,3:0:0:0:
64,192,112017,1,0,3:0:0:0:
64,192,112167,1,0,3:0:0:0:
448,192,112467,1,0,0:0:0:0:
192,192,112617,1,0,3:0:0:0:
320,192,112767,1,2,0:0:0:0:
448,192,112767,1,0,0:0:0:0:
192,192,113067,1,0,3:0:0:0:
320,192,113217,1,0,3:0:0:0:
448,192,113367,1,0,0:0:0:0:
192,192,113517,1,0,3:0:0:0:
192,192,113667,1,0,3:0:0:0:
448,192,113817,1,0,0:0:0:0:
64,192,113967,1,2,0:0:0:0:
320,192,113967,1,0,0:0:0:0:
448,192,114267,1,0,3:0:0:0:
448,192,114417,1,0,3:0:0:0:
64,192,114567,1,0,3:0:0:0:
192,192,114867,1,0,0:0:0:0:
320,192,115017,1,0,3:0:0:0:
448,192,115167,1,2,0:0:0:0:
64,192,115167,1,0,0:0:0:0:
448,192,115467,1,0,3:0:0:0:
320,192,115617,1,0,3:0:0:0:
192,192,115767,1,0,0:0:0:0:
64,192,115917,1,0,3:0:0:0:
64,192,116067,1,0,3:0:0:0:
448,192,116217,1,0,0:0:0:0:
192,192,116367,1,2,0:0:0:0:
320,192,116367,1,0,0:0:0:0:
448,192,116667,1,0,3:0:0:0:
64,192,116817,1,0,3:0:0:0:
192,192,116967,1,0,3:0:0:0:
448,192,117267,1,0,0:0:0:0:
64,192,117417,1,0,3:0:0:0:
320,192,117567,1,2,0:0:0:0:
192,192,117567,1,0,0:0:0:0:
448,192,117867,1,0,3:0:0:0:
192,192,118017,1,0,3:0:0:0:
64,192,118167,1,0,0:0:0:0:
448,192,118317,1,0,3:0:0:0:
448,192,118467,1,0,3:0:0:0:
192,192,118617,1,0,0:0:0:0:
320,192,118767,1,2,0:0:0:0:
64,192,118767,1,0,0:0:0:0:
192,192,119067,1,0,3:0:0:0:
320,192,119217,1,0,3:0:0:0:
64,192,119367,128,0,120567:3:0:0:0:
192,192,119367,1,0,0:0:0:0:
320,192,119817,1,0,0:0:0:0:
448,192,119967,1,2,0:0:0:0:
448,192,120267,1,0,3:0:0:0:
192,192,120417,1,0,0:0:0:0:
320,192,120567,1,0,3:0:0:0:
448,192,120717,1,0,3:0:0:0:
448,192,120867,1,0,3:0:0:0:
64,192,121167,1,2,0:0:0:0:
320,192,121167,1,0,0:0:0:0:
448,192,121392,1,0,3:0:0:0:
192,192,121467,1,0,3:0:0:0:
192,192,121617,1,0,3:0:0:0:
320,192,121767,128,0,122967:3:0:0:0:
64,192,121767,1,0,0:0:0:0:
64,192,122217,1,0,3:0:0:0:
192,192,122367,1,2,0:0:0:0:
448,192,122667,1,0,3:0:0:0:
64,192,122817,1,0,3:0:0:0:
192,192,122967,1,0,0:0:0:0:
448,192,123117,1,0,3:0:0:0:
448,192,123267,1,0,3:0:0:0:
64,192,123417,1,0,0:0:0:0:
320,192,123567,1,2,0:0:0:0:
192,192,123567,1,0,0:0:0:0:
64,192,123792,1,0,3:0:0:0:
320,192,123867,1,0,3:0:0:0:
448,192,124017,1,0,3:0:0:0:
192,192,124167,128,0,125367:3:0:0:0:
64,192,124167,1,0,0:0:0:0:
64,192,124617,1,0,3:0:0:0:
320,192,124767,1,2,0:0:0:0:
448,192,125067,1,0,3:0:0:0:
64,192,125217,1,0,3:0:0:0:
320,192,125367,1,0,3:0:0:0:
448,192,125517,1,0,3:0:0:0:
448,192,125667,1,0,3:0:0:0:
192,192,125817,1,0,0:0:0:0:
320,192,125967,1,2,0:0:0:0:
64,192,125967,1,0,0:0:0:0:
320,192,126267,1,0,3:0:0:0:
64,192,126417,1,0,3:0:0:0:
448,192,126567,128,0,127767:3:0:0:0:
192,192,126567,1,0,0:0:0:0:
192,192,127017,1,0,3:0:0:0:
320,192,127167,1,2,0:0:0:0:
64,192,127467,1,0,3:0:0:0:
192,192,127617,1,0,3:0:0:0:
320,192,127767,1,4,0:0:0:0:
448,192,128667,1,0,0:0:0:0:
320,192,128817,1,0,0:0:0:0:
64,192,128967,1,8,0:0:0:0:
192,192,128967,1,0,0:0:0:0:
448,192,129117,1,0,0:0:0:0:
320,192,129192,1,0,0:0:0:0:
448,192,129342,1,0,0:0:0:0:
320,192,129417,1,0,0:0:0:0:
64,192,129567,1,0,0:0:0:0:
192,192,129642,1,0,0:0:0:0:
448,192,129867,1,0,0:0:0:0:
64,192,130017,1,0,0:0:0:0:
320,192,130167,1,0,0:0:0:0:
192,192,130317,1,0,0:0:0:0:
64,192,130392,1,0,0:0:0:0:
320,192,130542,1,0,0:0:0:0:
448,192,130617,1,0,0:0:0:0:
192,192,130767,1,0,0:0:0:0:
64,192,130842,1,0,0:0:0:0:
448,192,131067,1,0,0:0:0:0:
192,192,131217,1,0,0:0:0:0:
320,192,131367,1,0,0:0:0:0:
64,192,131517,1,0,0:0:0:0:
192,192,131592,1,0,0:0:0:0:
64,192,131742,1,0,0:0:0:0:
192,192,131817,1,0,0:0:0:0:
448,192,131967,1,0,0:0:0:0:
64,192,132042,1,0,0:0:0:0:
320,192,132267,1,0,0:0:0:0:
448,192,132417,1,0,0:0:0:0:
64,192,132567,1,0,0:0:0:0:
320,192,132717,1,0,0:0:0:0:
192,192,132792,1,0,0:0:0:0:
448,192,132942,1,0,0:0:0:0:
320,192,133017,1,0,0:0:0:0:
64,192,133167,1,0,0:0:0:0:
192,192,133242,1,0,0:0:0:0:
448,192,133467,1,0,0:0:0:0:
64,192,133617,1,0,0:0:0:0:
320,192,133767,1,0,0:0:0:0:
448,192,133917,1,0,0:0:0:0:
64,192,133992,1,0,0:0:0:0:
448,192,134142,1,0,0:0:0:0:
64,192,134217,1,0,0:0:0:0:
192,192,134367,1,0,0:0:0:0:
320,192,134442,1,0,0:0:0:0:
64,192,134667,1,0,0:0:0:0:
448,192,134817,1,0,0:0:0:0:
192,192,134967,1,0,0:0:0:0:
64,192,135117,1,0,0:0:0:0:
320,192,135192,1,0,0:0:0:0:
64,192,135342,1,0,0:0:0:0:
448,192,135417,1,0,0:0:0:0:
64,192,135567,1,0,0:0:0:0:
320,192,135642,1,0,0:0:0:0:
448,192,135867,1,0,0:0:0:0:
320,192,136017,1,0,0:0:0:0:
192,192,136167,1,0,0:0:0:0:
448,192,136317,1,0,0:0:0:0:
320,192,136392,1,0,0:0:0:0:
448,192,136542,1,0,0:0:0:0:
320,192,136617,1,0,0:0:0:0:
64,192,136767,1,0,0:0:0:0:
192,192,136842,1,0,0:0:0:0:
320,192,137067,1,0,0:0:0:0:
192,192,137217,1,0,0:0:0:0:
448,192,137367,1,0,0:0:0:0:
320,192,137517,1,0,0:0:0:0:
192,192,137592,1,0,0:0:0:0:
64,192,137742,1,0,0:0:0:0:
448,192,137817,1,0,0:0:0:0:
192,192,137967,128,0,138567:0:0:0:0:
448,192,138567,1,8,0:0:0:0:
320,192,138567,1,4,0:0:0:0:
64,192,138717,1,0,0:0:0:0:
192,192,138792,1,0,0:0:0:0:
64,192,138942,1,0,0:0:0:0:
192,192,139017,1,0,0:0:0:0:
448,192,139167,1,0,0:0:0:0:
320,192,139242,1,0,0:0:0:0:
64,192,139467,1,2,0:0:0:0:
448,192,139617,1,0,0:0:0:0:
192,192,139767,1,8,0:0:0:0:
64,192,139767,1,0,0:0:0:0:
320,192,139917,1,0,0:0:0:0:
448,192,139992,1,0,0:0:0:0:
64,192,140142,1,0,0:0:0:0:
192,192,140217,1,0,0:0:0:0:
448,192,140367,1,0,0:0:0:0:
320,192,140442,1,0,0:0:0:0:
64,192,140667,1,2,0:0:0:0:
192,192,140817,1,0,0:0:0:0:
448,192,140967,1,8,0:0:0:0:
320,192,140967,1,0,0:0:0:0:
64,192,141117,1,0,0:0:0:0:
192,192,141192,1,0,0:0:0:0:
64,192,141342,1,0,0:0:0:0:
192,192,141417,1,0,0:0:0:0:
448,192,141567,1,8,0:0:0:0:
320,192,141567,1,0,0:0:0:0:
64,192,141642,1,0,0:0:0:0:
192,192,141867,1,2,0:0:0:0:
320,192,142017,1,0,0:0:0:0:
448,192,142167,1,8,0:0:0:0:
64,192,142167,1,0,0:0:0:0:
320,192,142392,1,0,0:0:0:0:
192,192,142467,1,8,0:0:0:0:
320,192,142617,1,0,0:0:0:0:
64,192,142767,1,8,0:0:0:0:
192,192,142917,1,0,0:0:0:0:
448,192,143067,1,2,0:0:0:0:
320,192,143217,1,0,0:0:0:0:
64,192,143367,1,8,0:0:0:0:
192,192,143367,1,0,0:0:0:0:
448,192,143592,1,0,0:0:0:0:
64,192,143667,1,8,0:0:0:0:
448,192,143817,1,0,0:0:0:0:
192,192,143967,1,8,0:0:0:0:
320,192,144042,1,0,0:0:0:0:
64,192,144267,1,8,0:0:0:0:
320,192,144417,1,0,0:0:0:0:
448,192,144567,1,8,0:0:0:0:
192,192,144717,1,8,0:0:0:0:
320,192,144867,1,8,0:0:0:0:
64,192,145017,1,8,0:0:0:0:
448,192,145167,1,8,0:0:0:0:
192,192,145317,1,8,0:0:0:0:
320,192,145467,1,8,0:0:0:0:
192,192,145767,128,8,146367:0:0:0:0:
64,192,145767,1,0,0:0:0:0:
448,192,146367,128,8,146967:0:0:0:0:
64,192,146667,128,8,146967:0:0:0:0:
192,192,146967,1,8,0:0:0:0:
192,192,147117,1,8,0:0:0:0:
320,192,147267,1,2,0:0:0:0:
64,192,147417,1,0,0:0:0:0:
448,192,147567,1,0,0:0:0:0:
192,192,147717,1,8,0:0:0:0:
64,192,147792,1,8,0:0:0:0:
320,192,147867,1,8,0:0:0:0:
448,192,147867,1,4,0:0:0:0:
64,192,148167,1,8,0:0:0:0:
192,192,148167,1,0,0:0:0:0:
320,192,148392,1,0,0:0:0:0:
448,192,148467,1,8,0:0:0:0:
320,192,148617,1,8,0:0:0:0:
192,192,148767,1,8,0:0:0:0:
64,192,148842,1,0,0:0:0:0:
448,192,149067,1,8,0:0:0:0:
320,192,149217,1,8,0:0:0:0:
192,192,149367,1,8,0:0:0:0:
64,192,149592,1,0,0:0:0:0:
192,192,149667,1,8,0:0:0:0:
320,192,149817,1,8,0:0:0:0:
64,192,149967,1,8,0:0:0:0:
448,192,150042,1,0,0:0:0:0:
192,192,150267,1,8,0:0:0:0:
320,192,150417,1,8,0:0:0:0:
448,192,150567,1,8,0:0:0:0:
64,192,150792,1,0,0:0:0:0:
192,192,150867,1,8,0:0:0:0:
64,192,151017,1,8,0:0:0:0:
448,192,151167,1,8,0:0:0:0:
320,192,151242,1,0,0:0:0:0:
192,192,151467,1,8,0:0:0:0:
448,192,151617,1,8,0:0:0:0:
320,192,151767,1,8,0:0:0:0:
64,192,151917,1,8,0:0:0:0:
192,192,151992,1,0,0:0:0:0:
448,192,152217,1,8,0:0:0:0:
64,192,152367,1,8,0:0:0:0:
64,192,152517,1,8,0:0:0:0:
320,192,152667,1,8,0:0:0:0:
448,192,152817,1,8,0:0:0:0:
192,192,152967,1,12,0:0:0:0:
320,192,153192,1,0,0:0:0:0:
64,192,153267,1,8,0:0:0:0:
320,192,153417,1,8,0:0:0:0:
192,192,153567,1,8,0:0:0:0:
64,192,153642,1,0,0:0:0:0:
448,192,153867,1,8,0:0:0:0:
192,192,154017,1,8,0:0:0:0:
320,192,154167,1,8,0:0:0:0:
64,192,154392,1,0,0:0:0:0:
448,192,154467,1,8,0:0:0:0:
192,192,154617,1,8,0:0:0:0:
64,192,154767,1,8,0:0:0:0:
448,192,154842,1,0,0:0:0:0:
320,192,155067,1,8,0:0:0:0:
192,192,155217,1,8,0:0:0:0:
64,192,155367,1,8,0:0:0:0:
448,192,155592,1,0,0:0:0:0:
320,192,155667,1,8,0:0:0:0:
448,192,155817,1,8,0:0:0:0:
192,192,155967,1,8,0:0:0:0:
320,192,156042,1,0,0:0:0:0:
64,192,156267,1,8,0:0:0:0:
192,192,156417,1,8,0:0:0:0:
448,192,156567,1,0,0:0:0:0:
448,192,156717,1,0,0:0:0:0:
64,192,156867,1,0,0:0:0:0:
64,192,157017,1,0,0:0:0:0:
320,192,157167,1,8,0:0:0:0:
320,192,157317,1,8,0:0:0:0:
448,192,157467,1,8,0:0:0:0:
192,192,157467,1,4,0:0:0:0:
64,192,157767,1,8,0:0:0:0:
320,192,157992,1,0,0:0:0:0:
448,192,158067,1,8,0:0:0:0:
320,192,158217,1,8,0:0:0:0:
64,192,158367,1,8,0:0:0:0:
192,192,158442,1,0,0:0:0:0:
448,192,158667,1,8,0:0:0:0:
320,192,158817,1,8,0:0:0:0:
64,192,158967,1,8,0:0:0:0:
192,192,159192,1,0,0:0:0:0:
320,192,159267,1,8,0:0:0:0:
448,192,159417,1,8,0:0:0:0:
64,192,159567,1,8,0:0:0:0:
320,192,159642,1,0,0:0:0:0:
64,192,159867,1,8,0:0:0:0:
448,192,160017,1,8,0:0:0:0:
192,192,160167,1,8,0:0:0:0:
320,192,160392,1,0,0:0:0:0:
64,192,160467,1,8,0:0:0:0:
320,192,160617,1,8,0:0:0:0:
448,192,160767,1,8,0:0:0:0:
64,192,160842,1,0,0:0:0:0:
448,192,161067,1,8,0:0:0:0:
320,192,161217,1,8,0:0:0:0:
192,192,161367,1,8,0:0:0:0:
64,192,161517,1,8,0:0:0:0:
192,192,161592,1,8,0:0:0:0:
448,192,161667,1,8,0:0:0:0:
320,192,161742,1,8,0:0:0:0:
64,192,161817,1,8,0:0:0:0:
320,192,161967,128,8,162117:0:0:0:0:
192,192,162117,128,8,162567:0:0:0:0:
448,192,162417,128,8,162567:0:0:0:0:
320,192,162567,1,12,0:0:0:0:
64,192,162792,1,0,0:0:0:0:
320,192,162867,1,8,0:0:0:0:
64,192,163017,1,8,0:0:0:0:
448,192,163167,1,8,0:0:0:0:
320,192,163242,1,0,0:0:0:0:
448,192,163467,1,8,0:0:0:0:
192,192,163617,1,8,0:0:0:0:
64,192,163767,1,8,0:0:0:0:
320,192,163992,1,0,0:0:0:0:
448,192,164067,1,8,0:0:0:0:
192,192,164217,1,8,0:0:0:0:
64,192,164367,1,8,0:0:0:0:
448,192,164442,1,0,0:0:0:0:
192,192,164667,1,8,0:0:0:0:
64,192,164817,1,8,0:0:0:0:
320,192,164967,1,8,0:0:0:0:
448,192,165117,1,8,0:0:0:0:
448,192,165267,1,8,0:0:0:0:
64,192,165417,1,8,0:0:0:0:
64,192,165567,1,8,0:0:0:0:
320,192,165717,1,8,0:0:0:0:
320,192,165867,1,8,0:0:0:0:
64,192,166017,1,8,0:0:0:0:
64,192,166167,1,8,0:0:0:0:
192,192,166317,1,8,0:0:0:0:
448,192,166392,5,8,0:0:0:0:
192,192,166617,1,8,0:0:0:0:
64,192,166617,1,8,0:0:0:0:
320,192,166767,1,8,0:0:0:0:
448,192,166917,1,8,0:0:0:0:
64,192,167067,1,4,0:0:0:0:
192,192,167067,1,2,0:0:0:0:
320,192,167367,5,8,0:0:0:0:
448,192,167367,1,0,0:0:0:0:
192,192,167667,1,2,0:0:0:0:
320,192,167667,1,0,0:0:0:0:
192,192,167967,1,0,0:0:0:0:
448,192,168267,1,2,0:0:0:0:
64,192,168267,1,0,0:0:0:0:
320,192,168417,1,0,0:0:0:0:
192,192,168567,1,0,0:0:0:0:
448,192,168867,1,2,0:0:0:0:
320,192,168867,1,0,0:0:0:0:
64,192,169017,1,0,0:0:0:0:
448,192,169167,1,0,0:0:0:0:
64,192,169467,1,2,0:0:0:0:
192,192,169467,1,0,0:0:0:0:
320,192,169617,1,0,0:0:0:0:
192,192,169767,1,0,0:0:0:0:
448,192,170067,1,2,0:0:0:0:
64,192,170067,1,0,0:0:0:0:
448,192,170367,1,0,0:0:0:0:
192,192,170667,1,2,0:0:0:0:
320,192,170667,1,0,0:0:0:0:
64,192,170817,1,0,0:0:0:0:
448,192,170967,1,0,0:0:0:0:
448,192,171267,1,2,0:0:0:0:
320,192,171267,1,0,0:0:0:0:
192,192,171417,1,0,0:0:0:0:
64,192,171567,1,0,0:0:0:0:
192,192,171867,1,2,0:0:0:0:
64,192,171867,1,0,0:0:0:0:
448,192,172017,1,0,0:0:0:0:
320,192,172167,1,0,0:0:0:0:
448,192,172467,1,2,0:0:0:0:
64,192,172467,1,0,0:0:0:0:
64,192,172767,1,0,0:0:0:0:
320,192,173067,1,2,0:0:0:0:
448,192,173067,1,0,0:0:0:0:
192,192,173217,1,0,0:0:0:0:
448,192,173367,1,0,0:0:0:0:
192,192,173667,1,2,0:0:0:0:
64,192,173667,1,0,0:0:0:0:
320,192,173817,1,0,0:0:0:0:
448,192,173967,1,0,0:0:0:0:
64,192,174267,1,2,0:0:0:0:
192,192,174267,1,0,0:0:0:0:
320,192,174417,1,0,0:0:0:0:
448,192,174567,128,0,175017:0:0:0:0:
192,192,175017,128,0,175467:0:0:0:0:
64,192,175467,128,2,175767:0:0:0:0:
448,192,175767,128,8,176367:0:0:0:0:
320,192,175767,128,0,176367:0:0:0:0:
192,192,176367,1,0,0:0:0:0:
64,192,176367,128,8,176667:0:0:0:0:
448,192,176667,1,12,0:0:0:0:
320,192,176967,1,8,0:0:0:0:
192,192,177192,1,0,0:0:0:0:
448,192,177267,1,8,0:0:0:0:
192,192,177417,1,8,0:0:0:0:
64,192,177567,1,8,0:0:0:0:
448,192,177642,1,0,0:0:0:0:
320,192,177867,1,8,0:0:0:0:
64,192,178017,1,8,0:0:0:0:
192,192,178167,1,8,0:0:0:0:
448,192,178392,1,0,0:0:0:0:
64,192,178467,1,8,0:0:0:0:
320,192,178617,1,8,0:0:0:0:
192,192,178767,1,8,0:0:0:0:
64,192,178842,1,0,0:0:0:0:
448,192,179067,1,8,0:0:0:0:
192,192,179217,1,8,0:0:0:0:
320,192,179367,1,8,0:0:0:0:
64,192,179592,1,0,0:0:0:0:
448,192,179667,1,8,0:0:0:0:
64,192,179817,1,8,0:0:0:0:
192,192,179967,1,8,0:0:0:0:
448,192,180042,1,0,0:0:0:0:
192,192,180267,1,8,0:0:0:0:
320,192,180417,1,8,0:0:0:0:
64,192,180567,1,8,0:0:0:0:
192,192,180792,1,0,0:0:0:0:
320,192,180867,1,8,0:0:0:0:
64,192,181017,1,8,0:0:0:0:
448,192,181167,1,8,0:0:0:0:
448,192,181317,1,8,0:0:0:0:
192,192,181467,1,8,0:0:0:0:
320,192,181617,1,8,0:0:0:0:
64,192,181692,1,8,0:0:0:0:
448,192,181767,1,12,0:0:0:0:
192,192,181992,1,0,0:0:0:0:
320,192,182067,1,8,0:0:0:0:
192,192,182217,1,8,0:0:0:0:
64,192,182367,1,8,0:0:0:0:
448,192,182442,1,0,0:0:0:0:
320,192,182667,1,8,0:0:0:0:
64,192,182817,1,8,0:0:0:0:
192,192,182967,1,8,0:0:0:0:
448,192,183192,1,0,0:0:0:0:
64,192,183267,1,8,0:0:0:0:
320,192,183417,1,8,0:0:0:0:
192,192,183567,1,8,0:0:0:0:
64,192,183642,1,0,0:0:0:0:
192,192,183867,1,8,0:0:0:0:
320,192,184017,1,8,0:0:0:0:
448,192,184167,1,8,0:0:0:0:
64,192,184392,1,0,0:0:0:0:
320,192,184467,1,8,0:0:0:0:
64,192,184617,1,8,0:0:0:0:
192,192,184767,1,8,0:0:0:0:
448,192,184842,1,0,0:0:0:0:
192,192,185067,1,8,0:0:0:0:
448,192,185217,1,8,0:0:0:0:
64,192,185367,1,8,0:0:0:0:
192,192,185367,1,0,0:0:0:0:
320,192,185517,128,0,185667:0:0:0:0:
448,192,185667,1,8,0:0:0:0:
64,192,185667,1,0,0:0:0:0:
192,192,185817,128,0,185967:0:0:0:0:
448,192,185967,1,8,0:0:0:0:
448,192,186117,1,8,0:0:0:0:
64,192,186267,1,8,0:0:0:0:
320,192,186267,1,4,0:0:0:0:
192,192,186567,1,8,0:0:0:0:
320,192,186792,1,0,0:0:0:0:
448,192,186867,1,8,0:0:0:0:
320,192,187017,1,8,0:0:0:0:
64,192,187167,1,8,0:0:0:0:
192,192,187242,1,0,0:0:0:0:
448,192,187467,1,8,0:0:0:0:
192,192,187617,1,8,0:0:0:0:
320,192,187767,1,8,0:0:0:0:
64,192,187992,1,0,0:0:0:0:
192,192,188067,1,8,0:0:0:0:
448,192,188217,1,8,0:0:0:0:
320,192,188367,1,8,0:0:0:0:
192,192,188442,1,0,0:0:0:0:
448,192,188667,1,8,0:0:0:0:
320,192,188817,1,8,0:0:0:0:
64,192,188967,1,8,0:0:0:0:
192,192,189192,5,0,0:0:0:0:
448,192,189267,1,8,0:0:0:0:
192,192,189417,1,8,0:0:0:0:
64,192,189567,1,8,0:0:0:0:
448,192,189642,1,0,0:0:0:0:
320,192,189867,1,8,0:0:0:0:
64,192,190017,1,8,0:0:0:0:
192,192,190167,1,8,0:0:0:0:
448,192,190317,5,8,0:0:0:0:
192,192,190467,1,8,0:0:0:0:
320,192,190617,1,8,0:0:0:0:
64,192,190767,1,8,0:0:0:0:
192,192,190842,1,8,0:0:0:0:
320,192,190917,128,8,191067:0:0:0:0:
448,192,190917,128,0,191067:0:0:0:0:
64,192,191217,128,8,191367:0:0:0:0:
192,192,191367,1,12,0:0:0:0:
448,192,191517,1,8,0:0:0:0:
64,192,191592,1,8,0:0:0:0:
448,192,191742,1,8,0:0:0:0:
64,192,191817,1,8,0:0:0:0:
192,192,191967,1,8,0:0:0:0:
448,192,192042,1,8,0:0:0:0:
320,192,192192,1,8,0:0:0:0:
64,192,192267,1,8,0:0:0:0:
192,192,192417,1,8,0:0:0:0:
448,192,192567,1,8,0:0:0:0:
64,192,192717,1,8,0:0:0:0:
320,192,192792,1,8,0:0:0:0:
64,192,192942,1,8,0:0:0:0:
448,192,193017,1,8,0:0:0:0:
192,192,193167,1,8,0:0:0:0:
320,192,193242,1,8,0:0:0:0:
448,192,193392,1,8,0:0:0:0:
192,192,193467,128,8,193767:0:0:0:0:
448,192,193617,128,8,193767:0:0:0:0:
320,192,193767,1,12,0:0:0:0:
64,192,193917,1,8,0:0:0:0:
192,192,193992,1,8,0:0:0:0:
64,192,194142,1,8,0:0:0:0:
192,192,194217,1,8,0:0:0:0:
448,192,194367,1,8,0:0:0:0:
64,192,194442,1,8,0:0:0:0:
192,192,194592,1,8,0:0:0:0:
448,192,194667,1,8,0:0:0:0:
320,192,194817,1,8,0:0:0:0:
64,192,194967,1,8,0:0:0:0:
448,192,195117,5,8,0:0:0:0:
192,192,195192,1,8,0:0:0:0:
192,192,195417,1,8,0:0:0:0:
448,192,195567,1,8,0:0:0:0:
448,192,195717,1,8,0:0:0:0:
192,192,195867,1,12,0:0:0:0:
64,192,196167,5,8,0:0:0:0:
448,192,196317,1,8,0:0:0:0:
192,192,196467,1,8,0:0:0:0:
320,192,196617,1,8,0:0:0:0:
64,192,196767,1,8,0:0:0:0:
448,192,196917,1,8,0:0:0:0:
320,192,197067,1,8,0:0:0:0:
64,192,197217,1,8,0:0:0:0:
448,192,197367,1,8,0:0:0:0:
192,192,197517,1,8,0:0:0:0:
320,192,197667,1,8,0:0:0:0:
64,192,197817,1,8,0:0:0:0:
192,192,197967,1,8,0:0:0:0:
448,192,198117,1,8,0:0:0:0:
320,192,198192,1,8,0:0:0:0:
192,192,198267,1,8,0:0:0:0:
64,192,198417,1,8,0:0:0:0:
192,192,198492,1,8,0:0:0:0:
320,192,198567,1,12,0:0:0:0:
64,192,198717,1,8,0:0:0:0:
192,192,198867,1,8,0:0:0:0:
448,192,199017,1,8,0:0:0:0:
320,192,199167,1,8,0:0:0:0:
64,192,199317,1,8,0:0:0:0:
448,192,199467,1,8,0:0:0:0:
192,192,199617,1,8,0:0:0:0:
64,192,199767,1,8,0:0:0:0:
320,192,199917,1,8,0:0:0:0:
192,192,200067,1,8,0:0:0:0:
448,192,200217,1,8,0:0:0:0:
192,192,200367,1,8,0:0:0:0:
320,192,200442,1,8,0:0:0:0:
64,192,200517,1,8,0:0:0:0:
64,192,200667,1,8,0:0:0:0:
448,192,200817,1,8,0:0:0:0:
320,192,200892,1,8,0:0:0:0:
192,192,200967,1,12,0:0:0:0:
448,192,201117,1,8,0:0:0:0:
64,192,201267,1,8,0:0:0:0:
320,192,201417,1,8,0:0:0:0:
448,192,201567,1,8,0:0:0:0:
192,192,201717,1,8,0:0:0:0:
320,192,201867,1,8,0:0:0:0:
64,192,202017,1,8,0:0:0:0:
448,192,202167,1,8,0:0:0:0:
192,192,202317,1,8,0:0:0:0:
64,192,202467,1,8,0:0:0:0:
448,192,202617,1,8,0:0:0:0:
320,192,202767,1,8,0:0:0:0:
64,192,202917,1,8,0:0:0:0:
448,192,202992,1,8,0:0:0:0:
192,192,203067,1,8,0:0:0:0:
448,192,203217,1,8,0:0:0:0:
320,192,203292,1,8,0:0:0:0:
192,192,203367,1,12,0:0:0:0:
64,192,203517,1,8,0:0:0:0:
448,192,203667,1,8,0:0:0:0:
320,192,203817,1,8,0:0:0:0:
64,192,203967,1,8,0:0:0:0:
448,192,204117,1,8,0:0:0:0:
192,192,204267,1,8,0:0:0:0:
448,192,204417,1,8,0:0:0:0:
64,192,204567,1,8,0:0:0:0:
64,192,204717,1,8,0:0:0:0:
448,192,204867,1,8,0:0:0:0:
448,192,205017,1,8,0:0:0:0:
64,192,205167,128,8,205317:0:0:0:0:
320,192,205317,128,8,205467:0:0:0:0:
448,192,205467,1,8,0:0:0:0:
192,192,205467,1,4,0:0:0:0:
64,192,205767,1,8,0:0:0:0:
64,192,206067,1,8,0:0:0:0:
64,192,206367,1,8,0:0:0:0:
64,192,206667,1,8,0:0:0:0:
64,192,206967,1,8,0:0:0:0:
64,192,207267,1,8,0:0:0:0:
64,192,207567,1,8,0:0:0:0:
320,192,207717,1,8,0:0:0:0:
64,192,207867,1,8,0:0:0:0:
448,192,207942,1,8,0:0:0:0:
64,192,208092,1,8,0:0:0:0:
448,192,208167,1,8,0:0:0:0:
448,192,208467,1,8,0:0:0:0:
448,192,208767,1,8,0:0:0:0:
448,192,209067,1,8,0:0:0:0:
448,192,209367,1,8,0:0:0:0:
448,192,209667,1,8,0:0:0:0:
192,192,209817,1,0,0:0:0:0:
448,192,209967,1,8,0:0:0:0:
64,192,210042,1,8,0:0:0:0:
320,192,210117,1,8,0:0:0:0:
192,192,210192,1,8,0:0:0:0:
448,192,210267,128,8,210567:0:0:0:0:
64,192,210567,1,8,0:0:0:0:
320,192,210567,128,4,214167:0:0:0:0:
448,192,210867,1,2,0:0:0:0:
192,192,211317,1,0,3:0:0:0:
448,192,211467,1,2,0:0:0:0:
64,192,211767,1,0,3:0:0:0:
64,192,211917,1,0,3:0:0:0:
448,192,212067,1,2,0:0:0:0:
192,192,212517,1,0,3:0:0:0:
448,192,212667,1,2,0:0:0:0:
192,192,212967,1,0,3:0:0:0:
448,192,213267,1,2,0:0:0:0:
192,192,213717,1,0,3:0:0:0:
448,192,213867,1,2,0:0:0:0:
64,192,214167,1,0,0:0:0:0:
192,192,214317,1,0,0:0:0:0:
448,192,214467,1,0,0:0:0:0:
320,192,214617,1,0,0:0:0:0:
64,192,214767,1,0,0:0:0:0:
448,192,214917,1,0,0:0:0:0:
64,192,215067,1,8,0:0:0:0:
192,192,215067,1,0,0:0:0:0:
448,192,215367,128,4,217242:0:0:0:0:
320,192,215367,1,8,0:0:0:0:
64,192,217242,128,4,218967:0:0:0:0:
