osu file format v14

[General]
AudioFilename: Grimm (Kobaryo's FTN-Remix).mp3
AudioLeadIn: 0
PreviewTime: 148167
Countdown: 0
SampleSet: Normal
StackLeniency: 0.7
Mode: 3
LetterboxInBreaks: 0
SpecialStyle: 0
WidescreenStoryboard: 0

[Editor]
Bookmarks: 188550
DistanceSpacing: 1.4
BeatDivisor: 4
GridSize: 4
TimelineZoom: 1.8

[Metadata]
Title:Grimm (Kobaryo's FTN-Remix)
TitleUnicode:Grimm (Kobaryo's FTИ-Remix)
Artist:RoughSketch feat.Aikapin
ArtistUnicode:RoughSketch feat.あいかぴん
Creator:CHARGE
Version:Grimmpossible
Source:
Tags:hanamushi distorted children speedcore hardcore electro burst hardstyle 花蟲 laughingcomet
BeatmapID:1263478
BeatmapSetID:597690

[Difficulty]
HPDrainRate:8.7
CircleSize:4
OverallDifficulty:8.7
ApproachRate:5
SliderMultiplier:1.4
SliderTickRate:1

[Events]
//Background and Video events
0,0,"grimm_logo.png",0,0
//Break Periods
//Storyboard Layer 0 (Background)
//Storyboard Layer 1 (Fail)
//Storyboard Layer 2 (Pass)
//Storyboard Layer 3 (Foreground)
//Storyboard Sound Samples

[TimingPoints]
567,300,4,1,1,50,1,0
27867,-19.2307692307692,4,1,1,50,0,0
27904,-250,4,1,1,50,0,0
28167,-100,4,1,1,50,0,1
46167,-55.5555555555556,4,1,1,50,0,1
46242,-500,4,1,1,50,0,1
46317,-100,4,1,1,50,0,1
46467,-55.5555555555556,4,1,1,50,0,1
46542,-500,4,1,1,50,0,1
46617,-100,4,1,1,50,0,1
47367,-100,4,1,1,50,0,0
55767,-57.1428571428571,4,1,1,50,0,0
55842,-400,4,1,1,50,0,0
55917,-57.1428571428571,4,1,1,50,0,0
55992,-400,4,1,1,50,0,0
56067,-57.1428571428571,4,1,1,50,0,0
56142,-400,4,1,1,50,0,0
56217,-57.1428571428571,4,1,1,50,0,0
56292,-400,4,1,1,50,0,0
56367,-57.1428571428571,4,1,1,50,0,0
56442,-400,4,1,1,50,0,0
56517,-57.1428571428571,4,1,1,50,0,0
56592,-400,4,1,1,50,0,0
56667,-19.2307692307692,4,1,1,50,0,0
56704,-250,4,1,1,50,0,0
56967,-100,4,1,1,50,0,0
66267,-19.2307692307692,4,1,1,50,0,0
66304,-250,4,1,1,50,0,0
66567,-100,4,1,1,50,0,0
67317,-57.1428571428571,4,1,1,50,0,0
67392,-133.333333333333,4,1,1,50,0,0
67617,-100,4,1,1,50,0,0
67767,-57.1428571428571,4,1,1,50,0,0
67842,-133.333333333333,4,1,1,50,0,0
68067,-100,4,1,1,50,0,0
68217,-57.1428571428571,4,1,1,50,0,0
68292,-133.333333333333,4,1,1,50,0,0
68517,-100,4,1,1,50,0,0
68667,-57.1428571428571,4,1,1,50,0,0
68742,-133.333333333333,4,1,1,50,0,0
68967,-100,4,1,1,50,0,0
69717,-57.1428571428571,4,1,1,50,0,0
69792,-133.333333333333,4,1,1,50,0,0
70017,-100,4,1,1,50,0,0
70167,-57.1428571428571,4,1,1,50,0,0
70242,-133.333333333333,4,1,1,50,0,0
70467,-100,4,1,1,50,0,0
70617,-57.1428571428571,4,1,1,50,0,0
70692,-133.333333333333,4,1,1,50,0,0
70917,-100,4,1,1,50,0,0
71067,-57.1428571428571,4,1,1,50,0,0
71142,-133.333333333333,4,1,1,50,0,0
71367,-52.6315789473684,4,1,1,50,0,0
71385,-1000,4,1,1,50,0,0
71404,-52.6315789473684,4,1,1,50,0,0
71423,-1000,4,1,1,50,0,0
71442,-52.6315789473684,4,1,1,50,0,0
71460,-1000,4,1,1,50,0,0
71479,-52.6315789473684,4,1,1,50,0,0
71498,-1000,4,1,1,50,0,0
71517,-100,4,1,1,50,0,0
72117,-57.1428571428571,4,1,1,50,0,0
72192,-133.333333333333,4,1,1,50,0,0
72417,-100,4,1,1,50,0,0
72567,-57.1428571428571,4,1,1,50,0,0
72642,-133.333333333333,4,1,1,50,0,0
72867,-100,4,1,1,50,0,0
73017,-57.1428571428571,4,1,1,50,0,0
73092,-133.333333333333,4,1,1,50,0,0
73317,-100,4,1,1,50,0,0
74517,-57.1428571428571,4,1,1,50,0,0
74592,-133.333333333333,4,1,1,50,0,0
74817,-100,4,1,1,50,0,0
74967,-49.5049504950495,4,1,1,50,0,0
75017,-151.515151515152,4,1,1,50,0,0
75167,-49.5049504950495,4,1,1,50,0,0
75217,-151.515151515152,4,1,1,50,0,0
75367,-49.5049504950495,4,1,1,50,0,0
75417,-151.515151515152,4,1,1,50,0,0
75567,-49.5049504950495,4,1,1,50,0,0
75617,-151.515151515152,4,1,1,50,0,0
75767,-49.5049504950495,4,1,1,50,0,0
75817,-151.515151515152,4,1,1,50,0,0
75967,-49.5049504950495,4,1,1,50,0,0
76017,-151.515151515152,4,1,1,50,0,0
76167,-100,4,1,1,50,0,0
80967,-125,4,1,1,30,0,0
90567,-111.111111111111,4,1,1,40,0,0
109767,-100,4,1,1,50,0,0
147867,-19.2307692307692,4,1,1,50,0,0
147904,-250,4,1,1,50,0,0
148167,-100,4,1,1,50,0,1
166767,-55.5555555555556,4,1,1,50,0,1
166804,-500,4,1,1,50,0,1
166842,-55.5555555555556,4,1,1,50,0,1
166879,-500,4,1,1,50,0,1
166917,-55.5555555555556,4,1,1,50,0,1
166954,-500,4,1,1,50,0,1
166992,-55.5555555555556,4,1,1,50,0,1
167029,-500,4,1,1,50,0,1
167067,-19.2307692307692,4,1,1,50,0,1
167104,-250,4,1,1,50,0,1
167367,-100,4,1,1,50,0,0
176667,-19.2307692307692,4,1,1,50,0,0
176704,-250,4,1,1,50,0,0
176967,-100,4,1,1,50,0,1
186267,-19.2307692307692,4,1,1,50,0,1
186304,-250,4,1,1,50,0,1
186567,-100,4,1,1,50,0,1
195567,-55.5555555555556,4,1,1,50,0,1
195604,-500,4,1,1,50,0,1
195642,-55.5555555555556,4,1,1,50,0,1
195679,-500,4,1,1,50,0,1
195717,-55.5555555555556,4,1,1,50,0,1
195754,-500,4,1,1,50,0,1
195792,-55.5555555555556,4,1,1,50,0,1
195829,-500,4,1,1,50,0,1
195867,-19.2307692307692,4,1,1,50,0,0
195885,-250,4,1,1,50,0,0
196017,-100,4,1,1,50,0,0
196167,-100,4,1,1,50,0,1
205767,-100,4,1,1,50,0,0
215067,-19.2307692307692,4,1,1,50,0,0
215104,-250,4,1,1,50,0,0
215367,-200,4,1,1,50,0,0

[HitObjects]
64,192,567,5,0,0:0:0:0:
448,192,717,1,0,0:0:0:0:
192,192,867,128,0,1767:0:0:0:0:
64,192,1767,1,0,0:0:0:0:
448,192,1917,1,0,0:0:0:0:
320,192,2067,128,0,2967:0:0:0:0:
192,192,2967,1,0,0:0:0:0:
64,192,3117,1,0,0:0:0:0:
448,192,3267,128,0,4167:0:0:0:0:
320,192,4167,1,0,0:0:0:0:
64,192,4317,1,0,0:0:0:0:
192,192,4467,128,0,4767:0:0:0:0:
448,192,4767,1,0,0:0:0:0:
320,192,4917,1,0,0:0:0:0:
64,192,5067,128,0,5367:0:0:0:0:
192,192,5367,1,0,0:0:0:0:
448,192,5517,1,0,0:0:0:0:
320,192,5667,128,0,6567:0:0:0:0:
192,192,6567,1,0,0:0:0:0:
448,192,6717,1,0,0:0:0:0:
64,192,6867,128,0,7767:0:0:0:0:
192,192,7767,1,0,0:0:0:0:
448,192,7917,1,0,0:0:0:0:
320,192,8067,128,0,8967:0:0:0:0:
192,192,8967,1,0,0:0:0:0:
64,192,9117,1,0,0:0:0:0:
448,192,9267,128,0,9567:0:0:0:0:
320,192,9567,1,0,0:0:0:0:
192,192,9717,1,0,0:0:0:0:
64,192,9867,128,0,10167:0:0:0:0:
192,192,10167,128,0,11367:0:0:0:0:
448,192,10167,1,0,0:0:0:0:
320,192,10317,1,0,0:0:0:0:
64,192,10467,128,0,11367:0:0:0:0:
448,192,11367,128,0,12567:0:0:0:0:
320,192,11367,1,0,0:0:0:0:
64,192,11517,1,0,0:0:0:0:
192,192,11667,128,0,12567:0:0:0:0:
320,192,12567,128,0,13767:0:0:0:0:
64,192,12567,1,0,0:0:0:0:
192,192,12717,1,0,0:0:0:0:
448,192,12867,128,0,13767:0:0:0:0:
64,192,13767,128,0,14367:0:0:0:0:
192,192,13767,1,0,0:0:0:0:
448,192,13917,1,0,0:0:0:0:
320,192,14067,128,0,14367:0:0:0:0:
192,192,14367,128,0,14967:0:0:0:0:
448,192,14367,1,0,0:0:0:0:
320,192,14517,1,0,0:0:0:0:
64,192,14667,128,0,14967:0:0:0:0:
448,192,14967,128,0,16167:0:0:0:0:
320,192,14967,1,0,0:0:0:0:
192,192,15117,1,0,0:0:0:0:
64,192,15267,128,0,16167:0:0:0:0:
192,192,16167,128,0,17367:0:0:0:0:
320,192,16167,1,0,0:0:0:0:
64,192,16317,1,0,0:0:0:0:
448,192,16467,128,0,17367:0:0:0:0:
320,192,17367,128,0,18567:0:0:0:0:
64,192,17367,1,0,0:0:0:0:
192,192,17517,1,0,0:0:0:0:
448,192,17667,128,0,18567:0:0:0:0:
192,192,18567,128,0,19167:0:0:0:0:
64,192,18567,1,0,0:0:0:0:
448,192,18717,1,0,0:0:0:0:
320,192,18867,128,0,19167:0:0:0:0:
448,192,19167,128,0,19767:0:0:0:0:
64,192,19167,1,0,0:0:0:0:
320,192,19317,1,0,0:0:0:0:
192,192,19467,128,0,19767:0:0:0:0:
64,192,19767,128,0,26967:0:0:0:0:
320,192,20967,128,0,26667:0:0:0:0:
448,192,23367,128,0,26967:0:0:0:0:
192,192,26967,1,0,0:0:0:0:
320,192,26967,1,8,0:0:0:0:
448,192,27042,1,8,0:0:0:0:
64,192,27042,1,0,0:0:0:0:
192,192,27117,1,0,0:0:0:0:
320,192,27117,1,8,0:0:0:0:
448,192,27192,1,8,0:0:0:0:
64,192,27267,1,8,0:0:0:0:
192,192,27304,1,8,0:0:0:0:
320,192,27342,1,8,0:0:0:0:
448,192,27342,1,0,0:0:0:0:
64,192,27417,1,8,0:0:0:0:
192,192,27454,1,8,0:0:0:0:
448,192,27492,1,8,0:0:0:0:
320,192,27492,1,0,0:0:0:0:
192,192,27567,1,8,0:0:0:0:
64,192,27567,1,0,0:0:0:0:
320,192,27642,1,0,0:0:0:0:
448,192,27642,1,8,0:0:0:0:
64,192,27717,1,0,0:0:0:0:
192,192,27717,1,8,0:0:0:0:
448,192,27792,1,8,0:0:0:0:
320,192,27792,1,0,0:0:0:0:
64,192,27867,1,4,0:0:0:0:
448,192,27867,1,0,0:0:0:0:
192,192,27867,1,8,0:0:0:0:
320,192,28167,1,8,0:0:0:0:
448,192,28167,1,0,0:0:0:0:
64,192,28167,1,0,0:0:0:0:
64,192,28317,1,0,0:0:0:0:
448,192,28317,1,0,0:0:0:0:
192,192,28317,1,8,0:0:0:0:
192,192,28467,1,8,0:0:0:0:
320,192,28467,1,0,0:0:0:0:
448,192,28467,1,0,0:0:0:0:
64,192,28542,1,0,0:0:0:0:
192,192,28617,1,8,0:0:0:0:
448,192,28617,1,0,0:0:0:0:
320,192,28692,1,0,0:0:0:0:
192,192,28767,1,8,0:0:0:0:
448,192,28767,1,0,0:0:0:0:
64,192,28767,1,0,0:0:0:0:
320,192,28917,1,8,0:0:0:0:
448,192,28917,1,0,0:0:0:0:
64,192,28917,1,0,0:0:0:0:
64,192,29067,1,0,0:0:0:0:
320,192,29067,1,8,0:0:0:0:
192,192,29067,1,0,0:0:0:0:
448,192,29142,1,0,0:0:0:0:
320,192,29217,1,0,0:0:0:0:
192,192,29217,1,8,0:0:0:0:
64,192,29292,1,0,0:0:0:0:
448,192,29367,1,0,0:0:0:0:
192,192,29367,1,0,0:0:0:0:
320,192,29367,1,8,0:0:0:0:
192,192,29517,1,8,0:0:0:0:
448,192,29517,1,0,0:0:0:0:
64,192,29517,1,0,0:0:0:0:
64,192,29667,1,0,0:0:0:0:
192,192,29667,1,8,0:0:0:0:
448,192,29667,1,0,0:0:0:0:
320,192,29742,1,0,0:0:0:0:
448,192,29817,1,8,0:0:0:0:
64,192,29817,1,0,0:0:0:0:
192,192,29892,1,0,0:0:0:0:
448,192,29967,1,0,0:0:0:0:
320,192,29967,1,8,0:0:0:0:
64,192,29967,1,0,0:0:0:0:
448,192,30117,1,8,0:0:0:0:
64,192,30117,1,0,0:0:0:0:
320,192,30154,1,8,0:0:0:0:
192,192,30192,1,8,0:0:0:0:
64,192,30229,1,8,0:0:0:0:
320,192,30267,1,8,0:0:0:0:
448,192,30267,1,0,0:0:0:0:
192,192,30342,1,0,0:0:0:0:
448,192,30417,1,8,0:0:0:0:
320,192,30417,1,0,0:0:0:0:
192,192,30492,1,0,0:0:0:0:
64,192,30492,1,8,0:0:0:0:
64,192,30567,1,0,0:0:0:0:
320,192,30567,1,8,0:0:0:0:
448,192,30567,1,4,0:0:0:0:
64,192,30717,1,0,0:0:0:0:
192,192,30717,1,0,0:0:0:0:
448,192,30717,1,8,0:0:0:0:
320,192,30867,1,0,0:0:0:0:
448,192,30867,1,0,0:0:0:0:
64,192,30867,1,8,0:0:0:0:
192,192,30942,1,0,0:0:0:0:
320,192,31017,1,8,0:0:0:0:
448,192,31017,1,0,0:0:0:0:
192,192,31092,1,0,0:0:0:0:
64,192,31167,1,0,0:0:0:0:
320,192,31167,1,8,0:0:0:0:
448,192,31167,1,0,0:0:0:0:
192,192,31317,1,8,0:0:0:0:
448,192,31317,1,0,0:0:0:0:
64,192,31317,1,0,0:0:0:0:
192,192,31467,1,0,0:0:0:0:
320,192,31467,1,8,0:0:0:0:
64,192,31467,1,0,0:0:0:0:
448,192,31542,1,0,0:0:0:0:
192,192,31617,1,8,0:0:0:0:
64,192,31617,1,0,0:0:0:0:
320,192,31692,1,0,0:0:0:0:
192,192,31767,1,8,0:0:0:0:
448,192,31767,1,0,0:0:0:0:
64,192,31767,1,0,0:0:0:0:
320,192,31917,1,0,0:0:0:0:
192,192,31917,1,0,0:0:0:0:
448,192,31917,1,8,0:0:0:0:
320,192,32067,1,8,0:0:0:0:
64,192,32067,1,0,0:0:0:0:
448,192,32067,1,0,0:0:0:0:
192,192,32142,1,0,0:0:0:0:
64,192,32217,1,0,0:0:0:0:
448,192,32217,1,8,0:0:0:0:
320,192,32292,1,0,0:0:0:0:
192,192,32367,1,8,0:0:0:0:
64,192,32367,1,0,0:0:0:0:
320,192,32442,1,8,0:0:0:0:
448,192,32442,1,0,0:0:0:0:
192,192,32517,1,8,0:0:0:0:
320,192,32554,1,8,0:0:0:0:
64,192,32592,1,8,0:0:0:0:
448,192,32592,1,0,0:0:0:0:
192,192,32667,1,8,0:0:0:0:
320,192,32704,1,8,0:0:0:0:
64,192,32742,1,8,0:0:0:0:
448,192,32742,1,0,0:0:0:0:
192,192,32817,1,8,0:0:0:0:
320,192,32817,1,0,0:0:0:0:
448,192,32892,1,0,0:0:0:0:
64,192,32892,1,8,0:0:0:0:
448,192,32967,1,0,0:0:0:0:
192,192,32967,1,4,0:0:0:0:
320,192,32967,1,8,0:0:0:0:
448,192,33117,1,8,0:0:0:0:
192,192,33117,1,0,0:0:0:0:
64,192,33117,1,0,0:0:0:0:
64,192,33267,1,0,0:0:0:0:
192,192,33267,1,8,0:0:0:0:
320,192,33267,1,0,0:0:0:0:
448,192,33342,1,0,0:0:0:0:
64,192,33417,1,0,0:0:0:0:
320,192,33417,1,8,0:0:0:0:
192,192,33492,1,0,0:0:0:0:
64,192,33567,1,0,0:0:0:0:
320,192,33567,1,8,0:0:0:0:
448,192,33567,1,0,0:0:0:0:
192,192,33717,1,8,0:0:0:0:
64,192,33717,1,0,0:0:0:0:
448,192,33717,1,0,0:0:0:0:
320,192,33867,1,8,0:0:0:0:
448,192,33867,1,0,0:0:0:0:
192,192,33867,1,0,0:0:0:0:
64,192,33942,1,0,0:0:0:0:
448,192,34017,1,0,0:0:0:0:
192,192,34017,1,8,0:0:0:0:
320,192,34092,1,0,0:0:0:0:
448,192,34167,1,8,0:0:0:0:
64,192,34167,1,0,0:0:0:0:
192,192,34167,1,0,0:0:0:0:
64,192,34317,1,0,0:0:0:0:
192,192,34317,1,0,0:0:0:0:
320,192,34317,1,8,0:0:0:0:
64,192,34467,1,0,0:0:0:0:
448,192,34467,1,0,0:0:0:0:
320,192,34467,1,8,0:0:0:0:
192,192,34542,1,0,0:0:0:0:
64,192,34617,1,0,0:0:0:0:
448,192,34617,1,8,0:0:0:0:
320,192,34692,1,0,0:0:0:0:
192,192,34767,1,8,0:0:0:0:
64,192,34767,1,0,0:0:0:0:
448,192,34767,1,0,0:0:0:0:
192,192,34917,1,0,0:0:0:0:
320,192,34917,1,8,0:0:0:0:
448,192,34954,1,8,0:0:0:0:
64,192,34992,1,8,0:0:0:0:
192,192,35029,1,8,0:0:0:0:
320,192,35067,1,8,0:0:0:0:
448,192,35067,1,0,0:0:0:0:
64,192,35142,1,0,0:0:0:0:
320,192,35217,1,0,0:0:0:0:
448,192,35217,1,8,0:0:0:0:
192,192,35292,1,0,0:0:0:0:
64,192,35292,1,8,0:0:0:0:
64,192,35367,1,0,0:0:0:0:
448,192,35367,1,8,0:0:0:0:
320,192,35367,1,4,0:0:0:0:
192,192,35517,1,8,0:0:0:0:
448,192,35517,1,0,0:0:0:0:
64,192,35517,1,0,0:0:0:0:
64,192,35667,1,0,0:0:0:0:
192,192,35667,1,0,0:0:0:0:
320,192,35667,1,8,0:0:0:0:
448,192,35742,1,0,0:0:0:0:
64,192,35817,1,0,0:0:0:0:
192,192,35817,1,8,0:0:0:0:
320,192,35892,1,0,0:0:0:0:
192,192,35967,1,8,0:0:0:0:
448,192,35967,1,0,0:0:0:0:
64,192,35967,1,0,0:0:0:0:
448,192,36117,1,0,0:0:0:0:
320,192,36117,1,8,0:0:0:0:
64,192,36117,1,0,0:0:0:0:
64,192,36267,1,0,0:0:0:0:
192,192,36267,1,8,0:0:0:0:
448,192,36267,1,0,0:0:0:0:
320,192,36342,1,0,0:0:0:0:
448,192,36417,1,0,0:0:0:0:
192,192,36417,1,8,0:0:0:0:
64,192,36492,1,0,0:0:0:0:
448,192,36567,1,0,0:0:0:0:
320,192,36567,1,8,0:0:0:0:
192,192,36642,1,8,0:0:0:0:
64,192,36642,1,0,0:0:0:0:
320,192,36717,1,8,0:0:0:0:
448,192,36717,1,0,0:0:0:0:
192,192,36792,1,8,0:0:0:0:
64,192,36792,1,0,0:0:0:0:
320,192,36867,1,8,0:0:0:0:
448,192,36867,1,0,0:0:0:0:
64,192,36942,1,0,0:0:0:0:
192,192,36942,1,8,0:0:0:0:
320,192,37017,1,8,0:0:0:0:
448,192,37017,1,0,0:0:0:0:
192,192,37092,1,8,0:0:0:0:
64,192,37092,1,0,0:0:0:0:
448,192,37167,1,8,0:0:0:0:
320,192,37204,1,8,0:0:0:0:
192,192,37242,1,8,0:0:0:0:
64,192,37242,1,0,0:0:0:0:
448,192,37317,1,8,0:0:0:0:
320,192,37354,1,8,0:0:0:0:
192,192,37392,1,8,0:0:0:0:
64,192,37392,1,0,0:0:0:0:
448,192,37467,1,2,0:0:0:0:
320,192,37467,128,0,37542:0:0:0:0:
192,192,37542,128,0,37617:0:0:0:0:
64,192,37617,128,0,37692:0:0:0:0:
448,192,37692,128,0,37767:0:0:0:0:
320,192,37767,1,8,0:0:0:0:
64,192,37767,1,0,0:0:0:0:
192,192,37767,1,4,0:0:0:0:
192,192,37917,1,8,0:0:0:0:
320,192,37917,1,0,0:0:0:0:
448,192,37917,1,0,0:0:0:0:
64,192,38067,1,0,0:0:0:0:
320,192,38067,1,8,0:0:0:0:
192,192,38067,1,0,0:0:0:0:
448,192,38142,1,0,0:0:0:0:
320,192,38217,1,8,0:0:0:0:
64,192,38217,1,0,0:0:0:0:
192,192,38292,1,0,0:0:0:0:
448,192,38367,1,0,0:0:0:0:
64,192,38367,1,0,0:0:0:0:
320,192,38367,1,8,0:0:0:0:
448,192,38517,1,0,0:0:0:0:
64,192,38517,1,0,0:0:0:0:
192,192,38517,1,8,0:0:0:0:
448,192,38667,1,0,0:0:0:0:
192,192,38667,1,8,0:0:0:0:
64,192,38667,1,0,0:0:0:0:
320,192,38742,1,0,0:0:0:0:
448,192,38817,1,0,0:0:0:0:
64,192,38817,1,8,0:0:0:0:
192,192,38892,1,0,0:0:0:0:
448,192,38967,1,0,0:0:0:0:
64,192,38967,1,0,0:0:0:0:
320,192,38967,1,8,0:0:0:0:
64,192,39117,1,0,0:0:0:0:
320,192,39117,1,8,0:0:0:0:
192,192,39117,1,0,0:0:0:0:
448,192,39267,1,0,0:0:0:0:
192,192,39267,1,8,0:0:0:0:
320,192,39267,1,0,0:0:0:0:
64,192,39342,1,0,0:0:0:0:
448,192,39417,1,0,0:0:0:0:
192,192,39417,1,8,0:0:0:0:
320,192,39492,1,0,0:0:0:0:
64,192,39567,1,0,0:0:0:0:
192,192,39567,1,8,0:0:0:0:
448,192,39567,1,0,0:0:0:0:
320,192,39717,1,8,0:0:0:0:
64,192,39717,1,0,0:0:0:0:
448,192,39754,1,8,0:0:0:0:
192,192,39792,1,8,0:0:0:0:
320,192,39829,1,8,0:0:0:0:
64,192,39867,1,8,0:0:0:0:
448,192,39867,1,0,0:0:0:0:
192,192,39942,1,0,0:0:0:0:
320,192,40017,1,0,0:0:0:0:
64,192,40017,1,8,0:0:0:0:
192,192,40092,1,0,0:0:0:0:
448,192,40092,1,8,0:0:0:0:
448,192,40167,1,4,0:0:0:0:
64,192,40167,1,0,0:0:0:0:
320,192,40167,1,8,0:0:0:0:
192,192,40317,1,8,0:0:0:0:
64,192,40317,1,0,0:0:0:0:
448,192,40317,1,0,0:0:0:0:
320,192,40467,1,0,0:0:0:0:
64,192,40467,1,0,0:0:0:0:
448,192,40467,1,8,0:0:0:0:
192,192,40542,1,0,0:0:0:0:
320,192,40617,1,8,0:0:0:0:
448,192,40617,1,0,0:0:0:0:
192,192,40692,1,0,0:0:0:0:
448,192,40767,1,0,0:0:0:0:
320,192,40767,1,8,0:0:0:0:
64,192,40767,1,0,0:0:0:0:
64,192,40917,1,0,0:0:0:0:
192,192,40917,1,8,0:0:0:0:
448,192,40917,1,0,0:0:0:0:
64,192,41067,1,0,0:0:0:0:
320,192,41067,1,8,0:0:0:0:
448,192,41067,1,0,0:0:0:0:
192,192,41142,1,0,0:0:0:0:
64,192,41217,1,8,0:0:0:0:
320,192,41217,1,0,0:0:0:0:
448,192,41292,1,0,0:0:0:0:
320,192,41367,1,0,0:0:0:0:
192,192,41367,1,8,0:0:0:0:
64,192,41367,1,0,0:0:0:0:
320,192,41517,1,8,0:0:0:0:
192,192,41517,1,0,0:0:0:0:
448,192,41517,1,0,0:0:0:0:
64,192,41667,1,0,0:0:0:0:
192,192,41667,1,8,0:0:0:0:
448,192,41667,1,0,0:0:0:0:
320,192,41742,1,0,0:0:0:0:
448,192,41817,1,8,0:0:0:0:
64,192,41817,1,0,0:0:0:0:
192,192,41892,1,0,0:0:0:0:
448,192,41967,1,8,0:0:0:0:
320,192,41967,1,0,0:0:0:0:
192,192,42042,1,0,0:0:0:0:
64,192,42042,1,8,0:0:0:0:
320,192,42117,1,8,0:0:0:0:
192,192,42154,1,8,0:0:0:0:
448,192,42192,1,8,0:0:0:0:
64,192,42192,1,0,0:0:0:0:
320,192,42267,1,8,0:0:0:0:
192,192,42304,1,8,0:0:0:0:
64,192,42342,1,8,0:0:0:0:
448,192,42342,1,0,0:0:0:0:
320,192,42417,1,8,0:0:0:0:
192,192,42417,1,0,0:0:0:0:
448,192,42492,1,8,0:0:0:0:
64,192,42492,1,0,0:0:0:0:
320,192,42567,1,8,0:0:0:0:
192,192,42567,1,0,0:0:0:0:
64,192,42567,1,4,0:0:0:0:
192,192,42717,1,0,0:0:0:0:
320,192,42717,1,8,0:0:0:0:
448,192,42717,1,0,0:0:0:0:
64,192,42867,1,0,0:0:0:0:
320,192,42867,1,0,0:0:0:0:
192,192,42867,1,8,0:0:0:0:
448,192,42942,1,0,0:0:0:0:
64,192,43017,1,0,0:0:0:0:
192,192,43017,1,8,0:0:0:0:
320,192,43092,1,0,0:0:0:0:
448,192,43167,1,0,0:0:0:0:
192,192,43167,1,8,0:0:0:0:
64,192,43167,1,0,0:0:0:0:
320,192,43317,1,8,0:0:0:0:
448,192,43317,1,0,0:0:0:0:
64,192,43317,1,0,0:0:0:0:
192,192,43467,1,8,0:0:0:0:
64,192,43467,1,0,0:0:0:0:
448,192,43467,1,0,0:0:0:0:
320,192,43542,1,0,0:0:0:0:
192,192,43617,1,8,0:0:0:0:
448,192,43617,1,0,0:0:0:0:
64,192,43692,1,0,0:0:0:0:
320,192,43767,1,0,0:0:0:0:
192,192,43767,1,8,0:0:0:0:
448,192,43767,1,0,0:0:0:0:
192,192,43917,1,0,0:0:0:0:
64,192,43917,1,0,0:0:0:0:
320,192,43917,1,8,0:0:0:0:
448,192,44067,1,0,0:0:0:0:
320,192,44067,1,8,0:0:0:0:
64,192,44067,1,0,0:0:0:0:
192,192,44142,1,0,0:0:0:0:
64,192,44217,1,8,0:0:0:0:
448,192,44217,1,0,0:0:0:0:
320,192,44292,1,0,0:0:0:0:
448,192,44367,1,0,0:0:0:0:
192,192,44367,1,8,0:0:0:0:
64,192,44367,1,0,0:0:0:0:
192,192,44517,1,8,0:0:0:0:
320,192,44517,1,0,0:0:0:0:
64,192,44554,1,8,0:0:0:0:
448,192,44592,1,8,0:0:0:0:
320,192,44629,1,8,0:0:0:0:
192,192,44667,1,8,0:0:0:0:
64,192,44667,1,0,0:0:0:0:
448,192,44742,1,0,0:0:0:0:
320,192,44817,1,8,0:0:0:0:
64,192,44817,1,0,0:0:0:0:
192,192,44892,1,8,0:0:0:0:
448,192,44892,1,0,0:0:0:0:
320,192,44967,1,8,0:0:0:0:
64,192,44967,1,0,0:0:0:0:
448,192,44967,1,4,0:0:0:0:
192,192,45117,1,8,0:0:0:0:
64,192,45117,1,0,0:0:0:0:
320,192,45117,1,0,0:0:0:0:
448,192,45267,1,0,0:0:0:0:
192,192,45267,1,0,0:0:0:0:
320,192,45267,1,8,0:0:0:0:
64,192,45342,1,0,0:0:0:0:
448,192,45417,1,0,0:0:0:0:
320,192,45417,1,8,0:0:0:0:
192,192,45492,1,0,0:0:0:0:
64,192,45567,1,0,0:0:0:0:
320,192,45567,1,8,0:0:0:0:
448,192,45567,1,0,0:0:0:0:
64,192,45717,1,0,0:0:0:0:
448,192,45717,1,0,0:0:0:0:
192,192,45717,1,8,0:0:0:0:
320,192,45867,1,8,0:0:0:0:
192,192,45867,1,0,0:0:0:0:
64,192,45867,1,0,0:0:0:0:
448,192,45942,1,0,0:0:0:0:
64,192,46017,1,0,0:0:0:0:
320,192,46017,1,8,0:0:0:0:
448,192,46092,1,0,0:0:0:0:
64,192,46167,128,0,46317:0:0:0:0:
192,192,46167,128,8,46317:0:0:0:0:
320,192,46317,5,8,0:0:0:0:
448,192,46354,1,8,0:0:0:0:
64,192,46392,1,8,0:0:0:0:
192,192,46429,1,8,0:0:0:0:
320,192,46467,128,8,46617:0:0:0:0:
448,192,46467,128,0,46617:0:0:0:0:
64,192,46617,1,8,0:0:0:0:
192,192,46654,1,8,0:0:0:0:
448,192,46692,1,8,0:0:0:0:
320,192,46729,1,8,0:0:0:0:
64,192,46767,1,8,0:0:0:0:
192,192,46804,1,8,0:0:0:0:
320,192,46842,1,8,0:0:0:0:
448,192,46842,1,0,0:0:0:0:
64,192,46917,1,8,0:0:0:0:
192,192,46954,1,8,0:0:0:0:
320,192,46992,1,8,0:0:0:0:
448,192,46992,1,0,0:0:0:0:
64,192,47067,128,0,47367:0:0:0:0:
192,192,47067,1,4,0:0:0:0:
448,192,47067,1,2,0:0:0:0:
448,192,47367,1,8,0:0:0:0:
320,192,47367,1,0,0:0:0:0:
64,192,47517,1,0,0:0:0:0:
192,192,47592,1,0,0:0:0:0:
320,192,47667,1,2,0:0:0:0:
448,192,47667,1,0,0:0:0:0:
64,192,47667,1,0,0:0:0:0:
192,192,47817,1,8,0:0:0:0:
64,192,47817,1,0,0:0:0:0:
320,192,47892,1,0,0:0:0:0:
448,192,47967,1,0,0:0:0:0:
192,192,48042,1,0,0:0:0:0:
64,192,48117,1,0,0:0:0:0:
320,192,48117,1,2,0:0:0:0:
448,192,48117,1,0,0:0:0:0:
192,192,48267,1,0,0:0:0:0:
448,192,48342,1,0,0:0:0:0:
192,192,48417,1,0,0:0:0:0:
448,192,48492,1,0,0:0:0:0:
192,192,48567,1,0,0:0:0:0:
64,192,48642,1,0,0:0:0:0:
448,192,48642,1,0,0:0:0:0:
192,192,48717,1,8,0:0:0:0:
320,192,48717,1,0,0:0:0:0:
64,192,48792,1,0,0:0:0:0:
320,192,48867,1,0,0:0:0:0:
448,192,48867,1,2,0:0:0:0:
192,192,48867,1,0,0:0:0:0:
320,192,49017,1,0,0:0:0:0:
64,192,49092,1,0,0:0:0:0:
448,192,49167,1,0,0:0:0:0:
320,192,49167,1,8,0:0:0:0:
64,192,49242,1,0,0:0:0:0:
192,192,49317,1,0,0:0:0:0:
448,192,49392,1,0,0:0:0:0:
64,192,49467,1,0,0:0:0:0:
320,192,49467,1,2,0:0:0:0:
192,192,49542,1,0,0:0:0:0:
320,192,49617,1,0,0:0:0:0:
192,192,49692,1,0,0:0:0:0:
64,192,49767,1,8,0:0:0:0:
448,192,49767,1,0,0:0:0:0:
192,192,49917,1,8,0:0:0:0:
64,192,49917,1,0,0:0:0:0:
448,192,50067,1,2,0:0:0:0:
64,192,50067,1,0,0:0:0:0:
320,192,50067,1,0,0:0:0:0:
192,192,50142,1,0,0:0:0:0:
320,192,50217,1,8,0:0:0:0:
448,192,50217,1,0,0:0:0:0:
64,192,50292,1,0,0:0:0:0:
192,192,50367,1,0,0:0:0:0:
448,192,50442,1,0,0:0:0:0:
320,192,50517,1,2,0:0:0:0:
64,192,50667,1,0,0:0:0:0:
448,192,50742,1,0,0:0:0:0:
64,192,50817,1,0,0:0:0:0:
448,192,50892,1,0,0:0:0:0:
64,192,50967,1,0,0:0:0:0:
320,192,51042,1,0,0:0:0:0:
448,192,51042,1,0,0:0:0:0:
192,192,51117,1,8,0:0:0:0:
64,192,51117,1,0,0:0:0:0:
448,192,51267,1,0,0:0:0:0:
192,192,51267,1,2,0:0:0:0:
320,192,51342,1,0,0:0:0:0:
64,192,51417,1,0,0:0:0:0:
320,192,51567,1,8,0:0:0:0:
448,192,51567,1,0,0:0:0:0:
448,192,51642,1,0,0:0:0:0:
64,192,51717,1,0,0:0:0:0:
192,192,51867,1,2,0:0:0:0:
448,192,51942,1,0,0:0:0:0:
192,192,52017,1,0,0:0:0:0:
448,192,52092,1,0,0:0:0:0:
64,192,52167,1,8,0:0:0:0:
320,192,52167,1,0,0:0:0:0:
320,192,52317,1,0,0:0:0:0:
64,192,52392,1,0,0:0:0:0:
192,192,52467,1,2,0:0:0:0:
448,192,52467,1,0,0:0:0:0:
320,192,52467,1,0,0:0:0:0:
64,192,52617,1,8,0:0:0:0:
448,192,52617,1,0,0:0:0:0:
320,192,52692,1,0,0:0:0:0:
64,192,52767,1,0,0:0:0:0:
448,192,52917,1,2,0:0:0:0:
192,192,53067,1,0,0:0:0:0:
320,192,53142,1,0,0:0:0:0:
192,192,53217,1,0,0:0:0:0:
320,192,53292,1,0,0:0:0:0:
192,192,53367,1,0,0:0:0:0:
320,192,53442,1,0,0:0:0:0:
64,192,53517,1,0,0:0:0:0:
448,192,53517,1,8,0:0:0:0:
192,192,53592,1,0,0:0:0:0:
448,192,53667,1,0,0:0:0:0:
320,192,53667,1,2,0:0:0:0:
64,192,53667,1,0,0:0:0:0:
192,192,53817,1,0,0:0:0:0:
448,192,53892,1,0,0:0:0:0:
320,192,53967,1,0,0:0:0:0:
64,192,53967,1,8,0:0:0:0:
448,192,54117,1,0,0:0:0:0:
64,192,54192,1,0,0:0:0:0:
192,192,54267,1,2,0:0:0:0:
448,192,54267,1,0,0:0:0:0:
320,192,54267,1,0,0:0:0:0:
64,192,54342,1,0,0:0:0:0:
448,192,54417,1,0,0:0:0:0:
192,192,54567,1,8,0:0:0:0:
64,192,54567,1,0,0:0:0:0:
320,192,54717,1,8,0:0:0:0:
448,192,54717,1,0,0:0:0:0:
192,192,54792,1,0,0:0:0:0:
64,192,54867,1,0,0:0:0:0:
448,192,54867,1,2,0:0:0:0:
320,192,54867,1,0,0:0:0:0:
192,192,55017,1,8,0:0:0:0:
64,192,55017,1,0,0:0:0:0:
192,192,55092,1,0,0:0:0:0:
320,192,55167,1,0,0:0:0:0:
64,192,55242,1,0,0:0:0:0:
448,192,55317,1,2,0:0:0:0:
448,192,55467,1,0,0:0:0:0:
192,192,55542,1,0,0:0:0:0:
320,192,55617,1,0,0:0:0:0:
64,192,55767,1,0,0:0:0:0:
64,192,55917,1,0,0:0:0:0:
192,192,56067,1,0,0:0:0:0:
192,192,56217,1,0,0:0:0:0:
320,192,56367,1,0,0:0:0:0:
320,192,56517,1,0,0:0:0:0:
448,192,56667,1,0,0:0:0:0:
192,192,56667,1,8,0:0:0:0:
64,192,56667,1,0,0:0:0:0:
320,192,56667,1,4,0:0:0:0:
192,192,56967,1,8,0:0:0:0:
64,192,56967,1,0,0:0:0:0:
448,192,56967,1,0,0:0:0:0:
320,192,57117,1,8,0:0:0:0:
448,192,57117,1,0,0:0:0:0:
192,192,57117,1,0,0:0:0:0:
64,192,57267,1,0,0:0:0:0:
448,192,57267,1,0,0:0:0:0:
320,192,57267,1,8,0:0:0:0:
192,192,57417,1,0,0:0:0:0:
64,192,57417,1,0,0:0:0:0:
320,192,57417,1,8,0:0:0:0:
448,192,57567,1,0,0:0:0:0:
192,192,57567,1,8,0:0:0:0:
64,192,57567,1,0,0:0:0:0:
64,192,57642,1,0,0:0:0:0:
320,192,57717,1,8,0:0:0:0:
448,192,57717,1,0,0:0:0:0:
192,192,57717,1,0,0:0:0:0:
64,192,57867,1,0,0:0:0:0:
320,192,57867,1,8,0:0:0:0:
448,192,57867,1,0,0:0:0:0:
192,192,58017,1,0,0:0:0:0:
64,192,58017,1,0,0:0:0:0:
320,192,58017,1,8,0:0:0:0:
192,192,58167,1,0,0:0:0:0:
320,192,58167,1,8,0:0:0:0:
448,192,58167,1,0,0:0:0:0:
448,192,58242,1,0,0:0:0:0:
320,192,58317,1,0,0:0:0:0:
192,192,58317,1,8,0:0:0:0:
64,192,58317,1,0,0:0:0:0:
448,192,58467,1,0,0:0:0:0:
64,192,58467,1,8,0:0:0:0:
192,192,58467,1,0,0:0:0:0:
192,192,58542,1,0,0:0:0:0:
320,192,58617,1,8,0:0:0:0:
448,192,58617,1,0,0:0:0:0:
64,192,58617,1,0,0:0:0:0:
320,192,58767,1,0,0:0:0:0:
64,192,58767,1,0,0:0:0:0:
192,192,58767,1,8,0:0:0:0:
192,192,58917,1,0,0:0:0:0:
320,192,58917,1,8,0:0:0:0:
448,192,58917,1,0,0:0:0:0:
192,192,59067,1,8,0:0:0:0:
64,192,59067,1,0,0:0:0:0:
448,192,59067,128,0,59142:0:0:0:0:
64,192,59217,1,0,0:0:0:0:
192,192,59217,1,8,0:0:0:0:
448,192,59217,128,0,59292:0:0:0:0:
320,192,59367,1,8,0:0:0:0:
192,192,59367,1,0,0:0:0:0:
64,192,59367,1,0,0:0:0:0:
320,192,59517,1,0,0:0:0:0:
448,192,59517,1,8,0:0:0:0:
64,192,59517,1,0,0:0:0:0:
64,192,59667,1,8,0:0:0:0:
192,192,59667,1,0,0:0:0:0:
448,192,59667,1,0,0:0:0:0:
192,192,59817,1,8,0:0:0:0:
448,192,59817,1,0,0:0:0:0:
320,192,59817,1,0,0:0:0:0:
192,192,59967,1,0,0:0:0:0:
320,192,59967,1,8,0:0:0:0:
64,192,59967,1,0,0:0:0:0:
64,192,60042,1,0,0:0:0:0:
448,192,60117,1,0,0:0:0:0:
320,192,60117,1,0,0:0:0:0:
192,192,60117,1,8,0:0:0:0:
64,192,60267,1,0,0:0:0:0:
448,192,60267,1,0,0:0:0:0:
320,192,60267,1,8,0:0:0:0:
192,192,60417,1,8,0:0:0:0:
64,192,60417,1,0,0:0:0:0:
448,192,60417,1,0,0:0:0:0:
320,192,60567,1,0,0:0:0:0:
448,192,60567,1,8,0:0:0:0:
192,192,60567,1,0,0:0:0:0:
320,192,60642,1,0,0:0:0:0:
64,192,60717,1,0,0:0:0:0:
192,192,60717,1,8,0:0:0:0:
448,192,60717,1,0,0:0:0:0:
320,192,60867,1,8,0:0:0:0:
192,192,60867,1,0,0:0:0:0:
64,192,60867,1,0,0:0:0:0:
64,192,60942,1,0,0:0:0:0:
448,192,61017,1,0,0:0:0:0:
192,192,61017,1,8,0:0:0:0:
320,192,61017,1,0,0:0:0:0:
64,192,61167,1,0,0:0:0:0:
448,192,61167,1,8,0:0:0:0:
320,192,61242,1,8,0:0:0:0:
192,192,61242,1,0,0:0:0:0:
64,192,61317,1,0,0:0:0:0:
448,192,61317,1,8,0:0:0:0:
320,192,61392,1,0,0:0:0:0:
192,192,61392,1,8,0:0:0:0:
64,192,61467,1,8,0:0:0:0:
192,192,61504,1,8,0:0:0:0:
320,192,61542,1,8,0:0:0:0:
448,192,61542,1,0,0:0:0:0:
64,192,61617,1,8,0:0:0:0:
192,192,61654,1,8,0:0:0:0:
320,192,61692,1,8,0:0:0:0:
448,192,61692,1,0,0:0:0:0:
192,192,61767,1,8,0:0:0:0:
64,192,61767,1,4,0:0:0:0:
192,192,61917,1,0,0:0:0:0:
320,192,61917,1,8,0:0:0:0:
448,192,61917,1,0,0:0:0:0:
64,192,62067,1,0,0:0:0:0:
320,192,62067,1,8,0:0:0:0:
448,192,62067,1,0,0:0:0:0:
192,192,62217,1,8,0:0:0:0:
64,192,62217,1,0,0:0:0:0:
448,192,62217,1,0,0:0:0:0:
192,192,62367,1,0,0:0:0:0:
64,192,62367,1,0,0:0:0:0:
320,192,62367,1,8,0:0:0:0:
320,192,62442,1,0,0:0:0:0:
448,192,62517,1,0,0:0:0:0:
192,192,62517,1,8,0:0:0:0:
64,192,62517,1,0,0:0:0:0:
320,192,62667,1,8,0:0:0:0:
448,192,62667,1,0,0:0:0:0:
64,192,62667,1,0,0:0:0:0:
448,192,62817,1,0,0:0:0:0:
320,192,62817,1,0,0:0:0:0:
192,192,62817,1,8,0:0:0:0:
192,192,62967,1,0,0:0:0:0:
320,192,62967,1,8,0:0:0:0:
64,192,62967,1,0,0:0:0:0:
64,192,63042,1,0,0:0:0:0:
192,192,63117,1,8,0:0:0:0:
320,192,63117,1,0,0:0:0:0:
448,192,63117,1,0,0:0:0:0:
64,192,63267,1,0,0:0:0:0:
192,192,63267,1,8,0:0:0:0:
448,192,63267,1,0,0:0:0:0:
448,192,63342,1,0,0:0:0:0:
320,192,63417,1,8,0:0:0:0:
192,192,63417,1,0,0:0:0:0:
64,192,63417,1,0,0:0:0:0:
448,192,63567,1,0,0:0:0:0:
320,192,63567,1,8,0:0:0:0:
64,192,63567,1,0,0:0:0:0:
448,192,63717,1,0,0:0:0:0:
320,192,63717,1,8,0:0:0:0:
192,192,63717,1,0,0:0:0:0:
64,192,63867,1,0,0:0:0:0:
192,192,63867,1,8,0:0:0:0:
448,192,63867,128,0,63942:0:0:0:0:
192,192,64017,1,8,0:0:0:0:
64,192,64017,1,0,0:0:0:0:
448,192,64017,128,0,64092:0:0:0:0:
320,192,64167,1,0,0:0:0:0:
192,192,64167,1,8,0:0:0:0:
64,192,64167,1,0,0:0:0:0:
192,192,64317,1,8,0:0:0:0:
64,192,64317,1,0,0:0:0:0:
448,192,64317,1,0,0:0:0:0:
64,192,64467,1,0,0:0:0:0:
320,192,64467,1,8,0:0:0:0:
448,192,64467,1,0,0:0:0:0:
192,192,64542,1,0,0:0:0:0:
64,192,64617,1,0,0:0:0:0:
320,192,64617,1,8,0:0:0:0:
448,192,64617,1,0,0:0:0:0:
64,192,64767,1,0,0:0:0:0:
192,192,64767,1,8,0:0:0:0:
320,192,64767,1,0,0:0:0:0:
320,192,64842,1,0,0:0:0:0:
448,192,64917,1,0,0:0:0:0:
192,192,64917,1,8,0:0:0:0:
64,192,64917,1,0,0:0:0:0:
320,192,65067,1,8,0:0:0:0:
448,192,65067,1,0,0:0:0:0:
64,192,65067,1,0,0:0:0:0:
192,192,65217,1,8,0:0:0:0:
320,192,65217,1,0,0:0:0:0:
448,192,65217,1,0,0:0:0:0:
192,192,65292,1,0,0:0:0:0:
320,192,65367,128,8,65442:0:0:0:0:
448,192,65367,1,0,0:0:0:0:
192,192,65442,128,8,65517:0:0:0:0:
64,192,65442,1,0,0:0:0:0:
320,192,65517,128,8,65592:0:0:0:0:
448,192,65517,1,0,0:0:0:0:
192,192,65592,128,8,65667:0:0:0:0:
64,192,65592,1,0,0:0:0:0:
448,192,65667,128,0,65742:0:0:0:0:
320,192,65667,128,8,65742:0:0:0:0:
64,192,65742,128,0,65817:0:0:0:0:
192,192,65742,128,8,65817:0:0:0:0:
448,192,65817,128,0,65892:0:0:0:0:
320,192,65817,128,8,65892:0:0:0:0:
64,192,65892,128,0,65967:0:0:0:0:
192,192,65892,128,8,65967:0:0:0:0:
448,192,65967,1,8,0:0:0:0:
320,192,66004,1,8,0:0:0:0:
192,192,66042,128,8,66117:0:0:0:0:
64,192,66042,128,0,66117:0:0:0:0:
448,192,66117,1,8,0:0:0:0:
320,192,66154,1,8,0:0:0:0:
192,192,66192,128,8,66267:0:0:0:0:
64,192,66192,128,0,66267:0:0:0:0:
448,192,66267,1,0,0:0:0:0:
320,192,66267,1,4,0:0:0:0:
64,192,66567,1,0,0:0:0:0:
448,192,66567,1,0,0:0:0:0:
320,192,66567,1,8,0:0:0:0:
64,192,66717,1,0,0:0:0:0:
192,192,66717,1,8,0:0:0:0:
448,192,66717,1,0,0:0:0:0:
320,192,66792,1,0,0:0:0:0:
448,192,66867,1,2,0:0:0:0:
192,192,66867,1,0,0:0:0:0:
320,192,67017,1,0,0:0:0:0:
448,192,67167,1,8,0:0:0:0:
64,192,67167,1,0,0:0:0:0:
320,192,67242,1,8,0:0:0:0:
192,192,67242,1,0,0:0:0:0:
448,192,67317,128,0,67617:0:0:0:0:
64,192,67317,1,2,0:0:0:0:
192,192,67617,1,8,0:0:0:0:
64,192,67617,1,0,0:0:0:0:
320,192,67692,1,8,0:0:0:0:
448,192,67692,1,0,0:0:0:0:
192,192,67767,128,0,68067:0:0:0:0:
64,192,67767,1,2,0:0:0:0:
448,192,68067,1,8,0:0:0:0:
64,192,68067,1,0,0:0:0:0:
320,192,68142,1,8,0:0:0:0:
192,192,68142,1,0,0:0:0:0:
64,192,68217,128,0,68517:0:0:0:0:
448,192,68217,1,2,0:0:0:0:
192,192,68517,1,8,0:0:0:0:
448,192,68517,1,0,0:0:0:0:
320,192,68592,1,8,0:0:0:0:
64,192,68592,1,0,0:0:0:0:
448,192,68667,128,0,68967:0:0:0:0:
192,192,68667,1,2,0:0:0:0:
192,192,68967,1,0,0:0:0:0:
64,192,68967,1,8,0:0:0:0:
448,192,69042,1,8,0:0:0:0:
320,192,69042,1,0,0:0:0:0:
192,192,69117,1,0,0:0:0:0:
64,192,69117,1,8,0:0:0:0:
320,192,69192,1,0,0:0:0:0:
448,192,69267,1,8,0:0:0:0:
64,192,69267,1,2,0:0:0:0:
192,192,69417,1,0,0:0:0:0:
320,192,69567,1,8,0:0:0:0:
448,192,69567,1,0,0:0:0:0:
192,192,69642,1,8,0:0:0:0:
64,192,69642,1,0,0:0:0:0:
320,192,69717,128,0,70017:0:0:0:0:
448,192,69717,1,2,0:0:0:0:
192,192,70017,1,0,0:0:0:0:
448,192,70017,1,8,0:0:0:0:
320,192,70092,1,8,0:0:0:0:
64,192,70092,1,0,0:0:0:0:
192,192,70167,128,0,70467:0:0:0:0:
448,192,70167,1,2,0:0:0:0:
448,192,70467,1,8,0:0:0:0:
64,192,70467,1,0,0:0:0:0:
192,192,70542,1,0,0:0:0:0:
320,192,70542,1,8,0:0:0:0:
64,192,70617,128,0,70917:0:0:0:0:
448,192,70617,1,2,0:0:0:0:
192,192,70917,1,0,0:0:0:0:
320,192,70917,1,8,0:0:0:0:
448,192,70992,1,8,0:0:0:0:
64,192,70992,1,0,0:0:0:0:
320,192,71067,128,0,71367:0:0:0:0:
192,192,71067,128,2,71367:0:0:0:0:
64,192,71367,1,0,0:0:0:0:
192,192,71404,1,0,0:0:0:0:
320,192,71442,1,0,0:0:0:0:
448,192,71479,1,0,0:0:0:0:
64,192,71517,1,4,0:0:0:0:
192,192,71517,1,8,0:0:0:0:
192,192,71667,1,8,0:0:0:0:
448,192,71667,1,2,0:0:0:0:
320,192,71817,1,0,0:0:0:0:
448,192,71892,1,0,0:0:0:0:
64,192,71967,1,0,0:0:0:0:
192,192,71967,1,8,0:0:0:0:
192,192,72042,1,0,0:0:0:0:
64,192,72042,1,8,0:0:0:0:
320,192,72117,128,0,72417:0:0:0:0:
448,192,72117,1,2,0:0:0:0:
448,192,72417,1,0,0:0:0:0:
64,192,72417,1,8,0:0:0:0:
64,192,72492,1,0,0:0:0:0:
448,192,72492,1,8,0:0:0:0:
320,192,72567,128,0,72867:0:0:0:0:
192,192,72567,1,2,0:0:0:0:
192,192,72867,1,8,0:0:0:0:
64,192,72867,1,0,0:0:0:0:
192,192,72942,1,8,0:0:0:0:
64,192,72942,1,0,0:0:0:0:
448,192,73017,128,0,73317:0:0:0:0:
320,192,73017,1,2,0:0:0:0:
320,192,73317,1,8,0:0:0:0:
64,192,73317,1,0,0:0:0:0:
64,192,73392,1,8,0:0:0:0:
320,192,73392,1,0,0:0:0:0:
192,192,73467,128,0,73617:0:0:0:0:
448,192,73467,1,2,0:0:0:0:
64,192,73617,128,0,73767:0:0:0:0:
448,192,73767,1,0,0:0:0:0:
320,192,73767,1,8,0:0:0:0:
320,192,73842,1,0,0:0:0:0:
448,192,73842,1,8,0:0:0:0:
192,192,73917,1,0,0:0:0:0:
64,192,73917,1,8,0:0:0:0:
448,192,74067,1,0,0:0:0:0:
64,192,74067,1,2,0:0:0:0:
448,192,74217,1,0,0:0:0:0:
64,192,74367,1,8,0:0:0:0:
192,192,74367,1,0,0:0:0:0:
64,192,74442,1,0,0:0:0:0:
192,192,74442,1,8,0:0:0:0:
320,192,74517,128,0,74817:0:0:0:0:
448,192,74517,1,2,0:0:0:0:
64,192,74817,1,0,0:0:0:0:
448,192,74817,1,8,0:0:0:0:
64,192,74892,1,0,0:0:0:0:
448,192,74892,1,8,0:0:0:0:
192,192,74967,1,2,0:0:0:0:
320,192,74967,1,8,0:0:0:0:
448,192,75167,1,8,0:0:0:0:
320,192,75167,1,0,0:0:0:0:
64,192,75167,1,0,0:0:0:0:
192,192,75367,1,8,0:0:0:0:
64,192,75367,1,0,0:0:0:0:
448,192,75367,1,0,0:0:0:0:
64,192,75567,1,8,0:0:0:0:
448,192,75567,1,0,0:0:0:0:
320,192,75567,1,2,0:0:0:0:
64,192,75767,1,0,0:0:0:0:
448,192,75767,1,8,0:0:0:0:
192,192,75767,1,0,0:0:0:0:
320,192,75967,1,2,0:0:0:0:
64,192,75967,1,0,0:0:0:0:
448,192,75967,1,8,0:0:0:0:
64,192,76167,128,8,80967:0:0:0:0:
320,192,76167,128,4,76617:0:0:0:0:
192,192,76167,128,0,76617:0:0:0:0:
448,192,76167,1,0,0:0:0:0:
448,192,76617,128,0,79467:0:0:0:0:
192,192,79467,128,0,80967:0:0:0:0:
448,192,80967,1,0,0:0:0:50:thunder_strike.wav
320,192,81417,1,0,0:0:0:0:
64,192,81867,1,0,0:0:0:0:
448,192,81867,1,0,0:0:0:0:
192,192,82167,1,0,0:0:0:0:
448,192,82467,1,0,0:0:0:0:
320,192,82617,1,0,0:0:0:0:
448,192,82917,1,0,0:0:0:0:
64,192,83067,1,0,0:0:0:0:
192,192,83067,1,0,0:0:0:0:
320,192,83217,1,0,0:0:0:0:
64,192,83367,1,0,0:0:0:0:
64,192,83667,1,0,0:0:0:0:
448,192,83817,1,0,0:0:0:0:
192,192,84267,1,0,0:0:0:0:
64,192,84267,1,0,0:0:0:0:
448,192,84567,1,0,0:0:0:0:
448,192,85017,1,0,0:0:0:0:
64,192,85017,1,0,0:0:0:0:
192,192,85467,1,0,0:0:0:0:
320,192,85617,1,0,0:0:0:0:
448,192,85767,1,0,0:0:0:0:
64,192,86217,1,0,0:0:0:0:
320,192,86217,1,0,0:0:0:0:
192,192,86517,1,0,0:0:0:0:
320,192,86667,1,0,0:0:0:0:
64,192,86667,1,0,0:0:0:0:
448,192,86967,1,0,0:0:0:0:
320,192,87417,1,0,0:0:0:0:
448,192,87417,1,0,0:0:0:0:
192,192,87717,1,0,0:0:0:0:
320,192,87867,1,0,0:0:0:0:
448,192,87867,1,0,0:0:0:0:
64,192,88167,1,0,0:0:0:0:
320,192,88617,1,0,0:0:0:0:
192,192,88617,1,0,0:0:0:0:
448,192,88917,1,0,0:0:0:0:
192,192,89067,1,0,0:0:0:0:
320,192,89067,1,0,0:0:0:0:
64,192,89217,1,0,0:0:0:0:
448,192,89217,1,0,0:0:0:0:
64,192,89367,1,0,0:0:0:0:
192,192,89367,1,0,0:0:0:0:
320,192,89367,1,0,0:0:0:0:
64,192,89817,1,0,0:0:0:0:
448,192,89817,128,0,90567:0:0:0:0:
320,192,90267,1,0,0:0:0:0:
64,192,90267,1,0,0:0:0:0:
192,192,90567,1,4,0:0:0:0:
64,192,90567,1,0,0:0:0:0:
448,192,91017,1,0,0:0:0:0:
320,192,91317,1,0,0:0:0:0:
64,192,91317,1,0,0:0:0:0:
192,192,91467,1,0,0:0:0:0:
320,192,91467,1,0,0:0:0:0:
448,192,91617,1,0,0:0:0:0:
64,192,91767,1,0,0:0:0:0:
192,192,91767,1,0,0:0:0:0:
448,192,92067,1,0,0:0:0:0:
320,192,92067,1,0,0:0:0:0:
192,192,92217,1,0,0:0:0:0:
320,192,92367,1,0,0:0:0:0:
64,192,92367,1,0,0:0:0:0:
448,192,92517,1,0,0:0:0:0:
192,192,92667,1,0,0:0:0:0:
192,192,92817,1,0,0:0:0:0:
448,192,92967,1,0,0:0:0:0:
64,192,92967,1,0,0:0:0:0:
320,192,93417,1,0,0:0:0:0:
64,192,93717,1,0,0:0:0:0:
448,192,93717,1,0,0:0:0:0:
320,192,93867,1,0,0:0:0:0:
64,192,94017,1,0,0:0:0:0:
448,192,94167,1,0,0:0:0:0:
192,192,94167,1,0,0:0:0:0:
320,192,94467,1,0,0:0:0:0:
192,192,94467,1,0,0:0:0:0:
64,192,94617,1,0,0:0:0:0:
320,192,94767,1,0,0:0:0:0:
448,192,94767,1,0,0:0:0:0:
192,192,95067,1,0,0:0:0:0:
448,192,95217,1,0,0:0:0:0:
320,192,95367,1,0,0:0:0:0:
64,192,95367,1,0,0:0:0:0:
192,192,95817,1,0,0:0:0:0:
448,192,95817,1,0,0:0:0:0:
448,192,96117,1,0,0:0:0:0:
320,192,96117,1,0,0:0:0:0:
64,192,96267,1,0,0:0:0:0:
192,192,96267,1,0,0:0:0:0:
448,192,96567,1,0,0:0:0:0:
64,192,96567,1,0,0:0:0:0:
320,192,96867,1,0,0:0:0:0:
192,192,96867,1,0,0:0:0:0:
448,192,97017,1,0,0:0:0:0:
64,192,97167,1,0,0:0:0:0:
192,192,97167,1,0,0:0:0:0:
320,192,97317,1,0,0:0:0:0:
448,192,97467,1,0,0:0:0:0:
192,192,97467,1,0,0:0:0:0:
448,192,97617,1,0,0:0:0:0:
64,192,97617,1,0,0:0:0:0:
320,192,97767,1,0,0:0:0:0:
64,192,97767,1,0,0:0:0:0:
192,192,98067,1,0,0:0:0:0:
448,192,98217,1,0,0:0:0:0:
320,192,98217,1,0,0:0:0:0:
64,192,98517,1,0,0:0:0:0:
448,192,98517,1,0,0:0:0:0:
192,192,98667,1,0,0:0:0:0:
320,192,98817,1,0,0:0:0:0:
448,192,98967,1,0,0:0:0:0:
64,192,98967,1,0,0:0:0:0:
64,192,99267,1,0,0:0:0:0:
448,192,99267,1,0,0:0:0:0:
320,192,99417,1,0,0:0:0:0:
192,192,99567,1,0,0:0:0:0:
448,192,99567,1,0,0:0:0:0:
64,192,99867,1,0,0:0:0:0:
448,192,100017,1,0,0:0:0:0:
320,192,100017,1,0,0:0:0:0:
448,192,100167,1,0,0:0:0:0:
64,192,100167,128,0,101667:0:0:0:0:
192,192,100467,1,0,0:0:0:0:
448,192,100617,1,0,0:0:0:0:
320,192,100917,1,0,0:0:0:0:
448,192,101067,1,0,0:0:0:0:
448,192,101217,1,0,0:0:0:0:
192,192,101217,1,0,0:0:0:0:
320,192,101367,128,0,101667:0:0:0:0:
192,192,101367,1,0,0:0:0:0:
448,192,101667,1,0,0:0:0:0:
192,192,101817,1,0,0:0:0:0:
320,192,101967,1,0,0:0:0:0:
64,192,101967,1,0,0:0:0:0:
448,192,102117,1,0,0:0:0:0:
192,192,102267,1,0,0:0:0:0:
320,192,102417,1,0,0:0:0:0:
64,192,102417,1,0,0:0:0:0:
448,192,102567,128,0,104067:0:0:0:0:
64,192,102567,1,0,0:0:0:0:
192,192,102867,1,0,0:0:0:0:
320,192,103017,1,0,0:0:0:0:
64,192,103017,1,0,0:0:0:0:
192,192,103317,1,0,0:0:0:0:
320,192,103467,1,0,0:0:0:0:
64,192,103467,1,0,0:0:0:0:
192,192,103617,1,0,0:0:0:0:
320,192,103767,128,0,104067:0:0:0:0:
192,192,103767,1,0,0:0:0:0:
192,192,104067,1,0,0:0:0:0:
64,192,104067,1,0,0:0:0:0:
64,192,104217,1,0,0:0:0:0:
320,192,104367,1,0,0:0:0:0:
448,192,104367,1,0,0:0:0:0:
192,192,104517,1,0,0:0:0:0:
320,192,104517,1,0,0:0:0:0:
64,192,104667,1,0,0:0:0:0:
192,192,104667,1,0,0:0:0:0:
448,192,104817,1,0,0:0:0:0:
64,192,104817,1,0,0:0:0:0:
192,192,104967,128,0,106467:0:0:0:0:
320,192,104967,1,0,0:0:0:0:
448,192,105267,1,0,0:0:0:0:
64,192,105267,1,0,0:0:0:0:
320,192,105417,1,0,0:0:0:0:
448,192,105867,1,0,0:0:0:0:
320,192,106017,1,0,0:0:0:0:
64,192,106017,1,0,0:0:0:0:
448,192,106167,128,0,106467:0:0:0:0:
320,192,106167,1,0,0:0:0:0:
64,192,106317,1,0,0:0:0:0:
320,192,106467,1,0,0:0:0:0:
64,192,106617,1,0,0:0:0:0:
448,192,106617,1,0,0:0:0:0:
192,192,106767,1,0,0:0:0:0:
320,192,106917,1,0,0:0:0:0:
64,192,107067,1,0,0:0:0:0:
64,192,107217,1,0,0:0:0:0:
448,192,107217,1,0,0:0:0:0:
320,192,107367,128,0,108867:0:0:0:0:
192,192,107367,1,0,0:0:0:0:
64,192,107817,1,0,0:0:0:0:
448,192,107817,1,0,0:0:0:0:
192,192,108117,1,0,0:0:0:0:
448,192,108267,1,0,0:0:0:0:
64,192,108417,1,0,0:0:0:0:
192,192,108567,128,0,108867:0:0:0:0:
448,192,108567,1,0,0:0:0:0:
64,192,108867,1,0,0:0:0:0:
448,192,109017,1,0,0:0:0:0:
64,192,109167,1,0,0:0:0:0:
448,192,109167,1,0,0:0:0:0:
64,192,109317,1,0,0:0:0:0:
320,192,109317,1,0,0:0:0:0:
192,192,109467,1,0,0:0:0:0:
320,192,109504,1,0,0:0:0:0:
448,192,109542,1,0,0:0:0:0:
64,192,109579,1,0,0:0:0:0:
192,192,109617,1,0,0:0:0:0:
320,192,109654,1,0,0:0:0:0:
448,192,109692,1,0,0:0:0:0:
64,192,109729,1,0,3:0:0:0:
320,192,109767,1,4,0:0:0:0:
192,192,109767,1,0,3:0:0:0:
320,192,110067,1,0,3:0:0:0:
64,192,110067,1,0,0:0:0:0:
192,192,110217,1,0,0:0:0:0:
320,192,110217,1,0,3:0:0:0:
448,192,110367,1,0,0:0:0:0:
64,192,110367,1,0,0:0:0:0:
192,192,110367,1,2,0:0:0:0:
320,192,110592,1,0,3:0:0:0:
64,192,110592,1,0,0:0:0:0:
192,192,110667,1,0,3:0:0:0:
448,192,110667,1,0,0:0:0:0:
448,192,110817,1,0,0:0:0:0:
320,192,110817,1,0,3:0:0:0:
64,192,110967,1,0,3:0:0:0:
320,192,111117,1,0,3:0:0:0:
448,192,111117,1,0,0:0:0:0:
320,192,111267,1,0,3:0:0:0:
448,192,111267,1,0,0:0:0:0:
192,192,111417,1,0,0:0:0:0:
64,192,111567,1,0,0:0:0:0:
320,192,111567,1,2,0:0:0:0:
192,192,111567,1,0,0:0:0:0:
448,192,111792,1,0,3:0:0:0:
64,192,111792,1,0,0:0:0:0:
192,192,111867,1,0,0:0:0:0:
320,192,111867,1,0,3:0:0:0:
64,192,112017,1,0,0:0:0:0:
320,192,112017,1,0,3:0:0:0:
448,192,112167,1,0,0:0:0:0:
192,192,112167,1,0,3:0:0:0:
320,192,112317,1,0,0:0:0:0:
64,192,112467,1,0,0:0:0:0:
192,192,112617,1,0,3:0:0:0:
64,192,112617,1,0,0:0:0:0:
448,192,112767,1,0,0:0:0:0:
192,192,112767,1,0,0:0:0:0:
320,192,112767,1,2,0:0:0:0:
64,192,112992,1,0,0:0:0:0:
192,192,112992,1,0,3:0:0:0:
320,192,113067,1,0,3:0:0:0:
448,192,113067,1,0,0:0:0:0:
192,192,113217,1,0,3:0:0:0:
448,192,113217,1,0,0:0:0:0:
320,192,113367,1,0,0:0:0:0:
64,192,113517,1,0,0:0:0:0:
192,192,113517,1,0,3:0:0:0:
448,192,113667,1,0,3:0:0:0:
64,192,113667,1,0,0:0:0:0:
320,192,113817,1,0,0:0:0:0:
192,192,113967,1,2,0:0:0:0:
64,192,113967,1,0,0:0:0:0:
320,192,113967,1,0,0:0:0:0:
448,192,114117,1,0,0:0:0:0:
320,192,114192,1,0,3:0:0:0:
64,192,114192,1,0,0:0:0:0:
192,192,114267,1,0,3:0:0:0:
448,192,114267,1,0,0:0:0:0:
192,192,114417,1,0,0:0:0:0:
64,192,114417,1,0,3:0:0:0:
320,192,114567,1,0,3:0:0:0:
448,192,114567,1,0,0:0:0:0:
64,192,114867,1,0,0:0:0:0:
320,192,115017,1,0,3:0:0:0:
448,192,115017,1,0,0:0:0:0:
192,192,115167,1,2,0:0:0:0:
64,192,115167,1,0,0:0:0:0:
448,192,115167,1,0,0:0:0:0:
320,192,115392,1,0,3:0:0:0:
64,192,115392,1,0,0:0:0:0:
192,192,115467,1,0,3:0:0:0:
448,192,115467,1,0,0:0:0:0:
448,192,115617,1,0,3:0:0:0:
64,192,115617,1,0,0:0:0:0:
320,192,115767,1,0,0:0:0:0:
64,192,115917,1,0,0:0:0:0:
192,192,115917,1,0,3:0:0:0:
192,192,116067,1,0,3:0:0:0:
64,192,116067,1,0,0:0:0:0:
448,192,116217,1,0,0:0:0:0:
320,192,116367,1,2,0:0:0:0:
192,192,116367,1,0,0:0:0:0:
64,192,116367,1,0,0:0:0:0:
448,192,116592,1,0,0:0:0:0:
320,192,116592,1,0,3:0:0:0:
192,192,116667,1,0,3:0:0:0:
64,192,116667,1,0,0:0:0:0:
320,192,116817,1,0,3:0:0:0:
448,192,116817,1,0,0:0:0:0:
64,192,116967,1,0,0:0:0:0:
448,192,116967,1,0,3:0:0:0:
192,192,117117,1,0,0:0:0:0:
64,192,117267,1,0,0:0:0:0:
448,192,117417,1,0,0:0:0:0:
192,192,117417,1,0,3:0:0:0:
320,192,117567,1,2,0:0:0:0:
448,192,117567,1,0,0:0:0:0:
64,192,117567,1,0,0:0:0:0:
192,192,117792,1,0,0:0:0:0:
320,192,117792,1,0,3:0:0:0:
64,192,117867,1,0,0:0:0:0:
448,192,117867,1,0,3:0:0:0:
320,192,118017,1,0,3:0:0:0:
448,192,118017,1,0,0:0:0:0:
192,192,118167,1,0,0:0:0:0:
192,192,118317,1,0,0:0:0:0:
320,192,118317,1,0,3:0:0:0:
448,192,118467,1,0,0:0:0:0:
64,192,118467,1,0,3:0:0:0:
320,192,118617,1,0,0:0:0:0:
192,192,118767,1,2,0:0:0:0:
64,192,118767,1,0,0:0:0:0:
448,192,118767,1,0,0:0:0:0:
320,192,118917,1,0,0:0:0:0:
192,192,118992,1,0,3:0:0:0:
448,192,118992,1,0,0:0:0:0:
320,192,119067,1,0,3:0:0:0:
64,192,119067,1,0,0:0:0:0:
192,192,119217,1,0,3:0:0:0:
64,192,119217,1,0,0:0:0:0:
448,192,119367,128,0,120567:0:0:0:0:
320,192,119367,1,0,3:0:0:0:
64,192,119667,1,0,0:0:0:0:
192,192,119817,1,0,0:0:0:0:
192,192,119967,1,2,0:0:0:0:
64,192,119967,1,0,0:0:0:0:
320,192,119967,1,0,0:0:0:0:
320,192,120117,1,0,0:0:0:0:
192,192,120192,1,0,3:0:0:0:
64,192,120192,1,0,0:0:0:0:
320,192,120267,1,0,3:0:0:0:
192,192,120417,1,0,0:0:0:0:
64,192,120417,1,0,0:0:0:0:
64,192,120567,1,0,0:0:0:0:
320,192,120567,1,0,3:0:0:0:
192,192,120717,1,0,3:0:0:0:
448,192,120717,1,0,0:0:0:0:
64,192,120867,1,0,3:0:0:0:
448,192,120867,1,0,0:0:0:0:
192,192,121017,1,0,0:0:0:0:
320,192,121167,1,2,0:0:0:0:
192,192,121167,1,0,0:0:0:0:
64,192,121167,1,0,0:0:0:0:
448,192,121392,1,0,0:0:0:0:
192,192,121392,1,0,3:0:0:0:
320,192,121467,1,0,3:0:0:0:
64,192,121467,1,0,0:0:0:0:
192,192,121617,1,0,0:0:0:0:
320,192,121617,1,0,3:0:0:0:
64,192,121767,128,0,122967:0:0:0:0:
448,192,121767,1,0,3:0:0:0:
320,192,122067,1,0,0:0:0:0:
448,192,122217,1,0,0:0:0:0:
192,192,122217,1,0,3:0:0:0:
320,192,122367,1,2,0:0:0:0:
192,192,122367,1,0,0:0:0:0:
448,192,122367,1,0,0:0:0:0:
320,192,122517,1,0,0:0:0:0:
192,192,122592,1,0,0:0:0:0:
448,192,122592,1,0,3:0:0:0:
320,192,122667,1,0,3:0:0:0:
192,192,122817,1,0,3:0:0:0:
448,192,122817,1,0,0:0:0:0:
320,192,122892,1,0,0:0:0:0:
448,192,122967,1,0,0:0:0:0:
320,192,123117,1,0,3:0:0:0:
192,192,123117,1,0,0:0:0:0:
192,192,123267,1,0,3:0:0:0:
64,192,123267,1,0,0:0:0:0:
320,192,123417,1,0,0:0:0:0:
64,192,123567,1,0,0:0:0:0:
320,192,123567,1,2,0:0:0:0:
448,192,123567,1,0,0:0:0:0:
192,192,123717,1,0,0:0:0:0:
64,192,123792,1,0,0:0:0:0:
320,192,123792,1,0,3:0:0:0:
448,192,123867,1,0,3:0:0:0:
64,192,124017,1,0,0:0:0:0:
320,192,124017,1,0,3:0:0:0:
320,192,124167,128,0,125367:0:0:0:0:
64,192,124167,1,0,3:0:0:0:
448,192,124467,1,0,0:0:0:0:
64,192,124617,1,0,0:0:0:0:
192,192,124617,1,0,3:0:0:0:
64,192,124767,1,0,0:0:0:0:
192,192,124767,1,2,0:0:0:0:
448,192,124767,1,0,0:0:0:0:
192,192,124917,1,0,0:0:0:0:
64,192,124992,1,0,0:0:0:0:
448,192,124992,1,0,3:0:0:0:
192,192,125067,1,0,3:0:0:0:
64,192,125217,1,0,0:0:0:0:
448,192,125217,1,0,3:0:0:0:
192,192,125367,1,0,3:0:0:0:
64,192,125367,1,0,0:0:0:0:
448,192,125517,1,0,3:0:0:0:
320,192,125517,1,0,0:0:0:0:
448,192,125667,1,0,3:0:0:0:
320,192,125667,1,0,0:0:0:0:
64,192,125817,1,0,0:0:0:0:
448,192,125967,1,0,0:0:0:0:
320,192,125967,1,2,0:0:0:0:
64,192,125967,1,0,0:0:0:0:
192,192,126117,1,0,0:0:0:0:
448,192,126192,1,0,3:0:0:0:
64,192,126192,1,0,0:0:0:0:
192,192,126267,1,0,0:0:0:0:
320,192,126267,1,0,3:0:0:0:
448,192,126417,1,0,3:0:0:0:
64,192,126417,1,0,0:0:0:0:
320,192,126492,1,0,0:0:0:0:
192,192,126567,128,0,127767:0:0:0:0:
64,192,126567,1,0,3:0:0:0:
448,192,126867,1,0,0:0:0:0:
320,192,127017,1,0,3:0:0:0:
64,192,127017,1,0,0:0:0:0:
448,192,127167,1,0,0:0:0:0:
320,192,127167,1,2,0:0:0:0:
64,192,127167,1,0,0:0:0:0:
448,192,127317,1,0,0:0:0:0:
64,192,127392,1,0,0:0:0:0:
320,192,127392,1,0,3:0:0:0:
448,192,127467,1,0,3:0:0:0:
64,192,127617,1,0,3:0:0:0:
320,192,127617,1,0,0:0:0:0:
448,192,127767,128,4,128367:0:0:0:0:
64,192,128667,128,0,128967:0:0:0:0:
192,192,128817,128,0,128967:0:0:0:0:
320,192,128967,1,8,0:0:0:0:
448,192,128967,1,0,0:0:0:0:
320,192,129117,1,0,0:0:0:0:
448,192,129192,1,0,0:0:0:0:
64,192,129192,1,0,0:0:0:0:
320,192,129342,1,0,0:0:0:0:
192,192,129417,1,0,0:0:0:0:
64,192,129417,1,0,0:0:0:0:
320,192,129567,1,0,0:0:0:0:
448,192,129567,1,0,0:0:0:0:
64,192,129642,1,0,0:0:0:0:
192,192,129792,1,0,0:0:0:0:
320,192,129867,1,0,0:0:0:0:
448,192,129867,1,0,0:0:0:0:
64,192,130017,1,0,0:0:0:0:
448,192,130017,1,0,0:0:0:0:
192,192,130167,1,0,0:0:0:0:
64,192,130167,1,0,0:0:0:0:
320,192,130317,1,0,0:0:0:0:
448,192,130392,1,0,0:0:0:0:
64,192,130392,1,0,0:0:0:0:
192,192,130542,1,0,0:0:0:0:
64,192,130617,1,0,0:0:0:0:
320,192,130617,1,0,0:0:0:0:
448,192,130767,1,0,0:0:0:0:
192,192,130842,1,0,0:0:0:0:
64,192,130842,1,0,0:0:0:0:
320,192,130992,1,0,0:0:0:0:
448,192,131067,1,0,0:0:0:0:
64,192,131067,1,0,0:0:0:0:
192,192,131217,1,0,0:0:0:0:
320,192,131217,1,0,0:0:0:0:
64,192,131367,1,0,0:0:0:0:
192,192,131367,1,0,0:0:0:0:
448,192,131517,1,0,0:0:0:0:
320,192,131592,1,0,0:0:0:0:
64,192,131592,1,0,0:0:0:0:
448,192,131742,1,0,0:0:0:0:
320,192,131817,1,0,0:0:0:0:
64,192,131817,1,0,0:0:0:0:
192,192,131967,1,0,0:0:0:0:
448,192,132042,1,0,0:0:0:0:
64,192,132042,1,0,0:0:0:0:
192,192,132192,1,0,0:0:0:0:
448,192,132267,1,0,0:0:0:0:
320,192,132267,1,0,0:0:0:0:
64,192,132417,1,0,0:0:0:0:
192,192,132417,1,0,0:0:0:0:
320,192,132567,1,0,0:0:0:0:
192,192,132567,1,0,0:0:0:0:
64,192,132717,1,0,0:0:0:0:
320,192,132792,1,0,0:0:0:0:
448,192,132792,1,0,0:0:0:0:
192,192,132942,1,0,0:0:0:0:
320,192,133017,1,0,0:0:0:0:
64,192,133017,1,0,0:0:0:0:
448,192,133167,1,0,0:0:0:0:
320,192,133242,1,0,0:0:0:0:
192,192,133242,1,0,0:0:0:0:
64,192,133392,1,0,0:0:0:0:
448,192,133467,1,0,0:0:0:0:
192,192,133467,1,0,0:0:0:0:
320,192,133617,1,0,0:0:0:0:
448,192,133617,1,0,0:0:0:0:
64,192,133767,1,0,0:0:0:0:
192,192,133767,1,0,0:0:0:0:
320,192,133917,1,0,0:0:0:0:
448,192,133992,1,0,0:0:0:0:
64,192,133992,1,0,0:0:0:0:
192,192,134142,1,0,0:0:0:0:
320,192,134217,1,0,0:0:0:0:
448,192,134217,1,0,0:0:0:0:
192,192,134367,1,0,0:0:0:0:
64,192,134442,1,0,0:0:0:0:
320,192,134442,1,0,0:0:0:0:
448,192,134592,1,0,0:0:0:0:
192,192,134667,1,0,0:0:0:0:
64,192,134667,1,0,0:0:0:0:
192,192,134817,1,0,0:0:0:0:
320,192,134817,1,0,0:0:0:0:
448,192,134967,1,0,0:0:0:0:
320,192,134967,1,0,0:0:0:0:
192,192,135117,1,0,0:0:0:0:
64,192,135192,1,0,0:0:0:0:
320,192,135192,1,0,0:0:0:0:
448,192,135342,1,0,0:0:0:0:
64,192,135417,1,0,0:0:0:0:
192,192,135417,1,0,0:0:0:0:
320,192,135567,1,0,0:0:0:0:
448,192,135642,1,0,0:0:0:0:
64,192,135642,1,0,0:0:0:0:
192,192,135792,1,0,0:0:0:0:
320,192,135867,1,0,0:0:0:0:
64,192,135867,1,0,0:0:0:0:
448,192,136017,1,0,0:0:0:0:
192,192,136017,1,0,0:0:0:0:
192,192,136167,1,0,0:0:0:0:
64,192,136167,1,0,0:0:0:0:
320,192,136317,1,0,0:0:0:0:
448,192,136392,1,0,0:0:0:0:
64,192,136392,1,0,0:0:0:0:
320,192,136542,1,0,0:0:0:0:
448,192,136617,1,0,0:0:0:0:
64,192,136617,1,0,0:0:0:0:
192,192,136767,1,0,0:0:0:0:
320,192,136842,1,0,0:0:0:0:
448,192,136842,1,0,0:0:0:0:
64,192,136992,1,0,0:0:0:0:
192,192,137067,1,0,0:0:0:0:
320,192,137067,1,0,0:0:0:0:
448,192,137217,1,0,0:0:0:0:
64,192,137217,1,0,0:0:0:0:
320,192,137367,1,0,0:0:0:0:
448,192,137367,1,0,0:0:0:0:
192,192,137517,1,0,0:0:0:0:
64,192,137592,1,0,0:0:0:0:
448,192,137592,1,0,0:0:0:0:
320,192,137742,1,0,0:0:0:0:
192,192,137817,1,0,0:0:0:0:
64,192,137817,1,0,0:0:0:0:
448,192,137967,128,0,138567:0:0:0:0:
192,192,138267,1,0,0:0:0:0:
64,192,138417,1,0,0:0:0:0:
320,192,138567,1,8,0:0:0:0:
64,192,138567,1,0,0:0:0:0:
192,192,138567,1,4,0:0:0:0:
320,192,138717,1,0,0:0:0:0:
64,192,138792,1,0,0:0:0:0:
192,192,138792,1,0,0:0:0:0:
448,192,138867,1,0,0:0:0:0:
320,192,138867,1,2,0:0:0:0:
192,192,138942,1,0,0:0:0:0:
448,192,139017,1,0,0:0:0:0:
64,192,139017,1,0,0:0:0:0:
64,192,139167,1,0,0:0:0:0:
320,192,139167,1,0,0:0:0:0:
192,192,139242,1,0,0:0:0:0:
448,192,139317,1,0,0:0:0:0:
320,192,139317,1,0,0:0:0:0:
64,192,139392,1,0,0:0:0:0:
192,192,139467,1,0,0:0:0:0:
320,192,139467,1,2,0:0:0:0:
448,192,139617,1,0,0:0:0:0:
64,192,139617,1,0,0:0:0:0:
320,192,139767,1,8,0:0:0:0:
448,192,139767,1,0,0:0:0:0:
192,192,139767,1,0,0:0:0:0:
64,192,139917,1,0,0:0:0:0:
192,192,139992,1,0,0:0:0:0:
448,192,139992,1,0,0:0:0:0:
64,192,140067,1,0,0:0:0:0:
320,192,140067,1,2,0:0:0:0:
448,192,140217,1,0,0:0:0:0:
192,192,140217,1,0,0:0:0:0:
320,192,140367,1,0,0:0:0:0:
192,192,140442,1,0,0:0:0:0:
64,192,140442,1,0,0:0:0:0:
448,192,140517,1,0,0:0:0:0:
320,192,140592,1,0,0:0:0:0:
64,192,140592,1,0,0:0:0:0:
448,192,140667,1,0,0:0:0:0:
192,192,140667,1,2,0:0:0:0:
320,192,140817,1,0,0:0:0:0:
64,192,140817,1,0,0:0:0:0:
192,192,140967,1,8,0:0:0:0:
64,192,140967,1,0,0:0:0:0:
448,192,140967,1,0,0:0:0:0:
448,192,141192,1,0,0:0:0:0:
192,192,141192,1,0,0:0:0:0:
320,192,141267,1,2,0:0:0:0:
64,192,141267,1,0,0:0:0:0:
192,192,141342,1,0,0:0:0:0:
320,192,141417,1,0,0:0:0:0:
448,192,141417,1,0,0:0:0:0:
192,192,141567,1,8,0:0:0:0:
64,192,141567,1,0,0:0:0:0:
448,192,141567,1,0,0:0:0:0:
320,192,141642,1,0,0:0:0:0:
192,192,141792,1,0,0:0:0:0:
64,192,141867,1,0,0:0:0:0:
320,192,141867,1,2,0:0:0:0:
448,192,142017,1,0,0:0:0:0:
320,192,142017,1,0,0:0:0:0:
64,192,142167,1,0,0:0:0:0:
192,192,142167,1,8,0:0:0:0:
448,192,142167,1,0,0:0:0:0:
320,192,142317,1,0,0:0:0:0:
192,192,142392,1,0,0:0:0:0:
64,192,142392,1,0,0:0:0:0:
320,192,142467,1,8,0:0:0:0:
448,192,142467,1,0,0:0:0:0:
64,192,142467,1,0,0:0:0:0:
192,192,142617,1,0,0:0:0:0:
448,192,142617,1,0,0:0:0:0:
320,192,142692,1,0,0:0:0:0:
192,192,142767,1,8,0:0:0:0:
64,192,142767,1,0,0:0:0:0:
448,192,142767,1,0,0:0:0:0:
320,192,142992,1,0,0:0:0:0:
192,192,142992,1,0,0:0:0:0:
64,192,143067,1,2,0:0:0:0:
448,192,143067,1,0,0:0:0:0:
64,192,143217,128,0,143367:0:0:0:0:
192,192,143217,1,0,0:0:0:0:
192,192,143367,1,0,0:0:0:0:
320,192,143367,1,8,0:0:0:0:
448,192,143367,1,0,0:0:0:0:
192,192,143592,1,0,0:0:0:0:
320,192,143667,1,8,0:0:0:0:
448,192,143667,1,0,0:0:0:0:
64,192,143667,1,0,0:0:0:0:
192,192,143817,1,0,0:0:0:0:
320,192,143817,1,0,0:0:0:0:
192,192,143967,1,8,0:0:0:0:
64,192,143967,1,0,0:0:0:0:
448,192,143967,1,0,0:0:0:0:
320,192,144042,1,0,0:0:0:0:
192,192,144192,1,0,0:0:0:0:
320,192,144267,1,8,0:0:0:0:
448,192,144267,1,0,0:0:0:0:
64,192,144267,1,0,0:0:0:0:
192,192,144417,1,0,0:0:0:0:
320,192,144417,1,0,0:0:0:0:
192,192,144567,1,8,0:0:0:0:
64,192,144567,1,0,0:0:0:0:
448,192,144567,1,0,0:0:0:0:
320,192,144717,1,8,0:0:0:0:
448,192,144717,1,0,0:0:0:0:
192,192,144717,1,0,0:0:0:0:
64,192,144867,1,0,0:0:0:0:
192,192,144867,1,8,0:0:0:0:
448,192,144867,1,0,0:0:0:0:
448,192,145017,1,8,0:0:0:0:
64,192,145017,1,0,0:0:0:0:
320,192,145017,1,0,0:0:0:0:
320,192,145167,1,0,0:0:0:0:
192,192,145167,1,8,0:0:0:0:
64,192,145167,1,0,0:0:0:0:
320,192,145317,1,8,0:0:0:0:
448,192,145317,1,0,0:0:0:0:
64,192,145317,1,0,0:0:0:0:
192,192,145467,1,8,0:0:0:0:
320,192,145467,1,0,0:0:0:0:
448,192,145467,1,0,0:0:0:0:
64,192,145617,1,0,0:0:0:0:
192,192,145617,1,8,0:0:0:0:
448,192,145767,1,0,0:0:0:0:
320,192,145767,1,8,0:0:0:0:
192,192,145842,1,8,0:0:0:0:
64,192,145842,1,0,0:0:0:0:
320,192,145917,1,8,0:0:0:0:
448,192,145917,1,0,0:0:0:0:
192,192,145992,1,8,0:0:0:0:
64,192,145992,1,0,0:0:0:0:
320,192,146067,1,8,0:0:0:0:
448,192,146067,1,0,0:0:0:0:
192,192,146142,1,8,0:0:0:0:
64,192,146142,1,0,0:0:0:0:
320,192,146217,1,8,0:0:0:0:
448,192,146217,1,0,0:0:0:0:
192,192,146292,1,8,0:0:0:0:
64,192,146292,1,0,0:0:0:0:
448,192,146367,1,8,0:0:0:0:
320,192,146404,1,8,0:0:0:0:
192,192,146442,1,8,0:0:0:0:
64,192,146479,1,8,0:0:0:0:
448,192,146517,1,8,0:0:0:0:
320,192,146554,1,8,0:0:0:0:
64,192,146592,1,8,0:0:0:0:
192,192,146629,1,8,0:0:0:0:
320,192,146667,1,8,0:0:0:0:
448,192,146704,1,8,0:0:0:0:
64,192,146742,1,8,0:0:0:0:
192,192,146779,1,8,0:0:0:0:
448,192,146817,1,8,0:0:0:0:
320,192,146854,1,8,0:0:0:0:
192,192,146892,1,8,0:0:0:0:
64,192,146929,1,8,0:0:0:0:
448,192,146967,1,0,0:0:0:0:
320,192,146967,1,8,0:0:0:0:
64,192,147117,1,8,0:0:0:0:
192,192,147117,1,0,0:0:0:0:
448,192,147192,1,0,0:0:0:0:
192,192,147267,1,0,0:0:0:0:
320,192,147267,1,2,0:0:0:0:
320,192,147417,1,0,0:0:0:0:
192,192,147492,1,0,0:0:0:0:
448,192,147492,1,0,0:0:0:0:
64,192,147567,1,0,0:0:0:0:
320,192,147642,1,8,0:0:0:0:
448,192,147642,1,0,0:0:0:0:
192,192,147717,1,8,0:0:0:0:
64,192,147717,1,0,0:0:0:0:
320,192,147792,1,8,0:0:0:0:
448,192,147792,1,0,0:0:0:0:
320,192,147867,1,8,0:0:0:0:
448,192,147867,1,4,0:0:0:0:
64,192,147867,1,0,0:0:0:0:
192,192,148167,1,8,0:0:0:0:
64,192,148167,1,0,0:0:0:0:
448,192,148167,1,0,0:0:0:0:
320,192,148317,1,8,0:0:0:0:
64,192,148317,1,0,0:0:0:0:
192,192,148392,1,0,0:0:0:0:
320,192,148467,1,8,0:0:0:0:
64,192,148467,1,0,0:0:0:0:
448,192,148467,1,0,0:0:0:0:
320,192,148617,1,8,0:0:0:0:
448,192,148617,1,0,0:0:0:0:
192,192,148617,1,0,0:0:0:0:
64,192,148767,1,0,0:0:0:0:
320,192,148767,1,8,0:0:0:0:
448,192,148767,1,0,0:0:0:0:
192,192,148842,1,0,0:0:0:0:
64,192,148917,1,8,0:0:0:0:
320,192,148917,1,0,0:0:0:0:
448,192,149067,1,0,0:0:0:0:
64,192,149067,1,0,0:0:0:0:
192,192,149067,1,8,0:0:0:0:
320,192,149217,1,8,0:0:0:0:
448,192,149217,1,0,0:0:0:0:
64,192,149217,1,0,0:0:0:0:
192,192,149367,1,8,0:0:0:0:
320,192,149367,1,0,0:0:0:0:
448,192,149367,1,0,0:0:0:0:
64,192,149517,1,0,0:0:0:0:
192,192,149517,1,8,0:0:0:0:
320,192,149592,1,0,0:0:0:0:
192,192,149667,1,0,0:0:0:0:
64,192,149667,1,8,0:0:0:0:
448,192,149667,1,0,0:0:0:0:
64,192,149817,1,0,0:0:0:0:
320,192,149817,1,8,0:0:0:0:
448,192,149817,1,0,0:0:0:0:
192,192,149967,1,8,0:0:0:0:
64,192,149967,1,0,0:0:0:0:
320,192,149967,1,0,0:0:0:0:
448,192,150042,1,0,0:0:0:0:
192,192,150117,1,0,0:0:0:0:
320,192,150117,1,8,0:0:0:0:
192,192,150267,1,8,0:0:0:0:
64,192,150267,1,0,0:0:0:0:
448,192,150267,1,0,0:0:0:0:
320,192,150417,1,0,0:0:0:0:
64,192,150417,1,0,0:0:0:0:
448,192,150417,1,8,0:0:0:0:
320,192,150567,1,8,0:0:0:0:
448,192,150567,1,0,0:0:0:0:
64,192,150567,1,0,0:0:0:0:
192,192,150717,1,8,0:0:0:0:
320,192,150717,1,0,0:0:0:0:
64,192,150792,1,0,0:0:0:0:
320,192,150867,1,0,0:0:0:0:
192,192,150867,1,8,0:0:0:0:
448,192,150867,1,0,0:0:0:0:
192,192,151017,1,8,0:0:0:0:
448,192,151017,1,0,0:0:0:0:
64,192,151017,1,0,0:0:0:0:
192,192,151167,1,8,0:0:0:0:
320,192,151167,1,0,0:0:0:0:
448,192,151167,1,0,0:0:0:0:
64,192,151242,1,0,0:0:0:0:
448,192,151317,1,0,0:0:0:0:
320,192,151317,1,8,0:0:0:0:
320,192,151467,1,0,0:0:0:0:
192,192,151467,1,8,0:0:0:0:
64,192,151467,1,0,0:0:0:0:
64,192,151617,1,8,0:0:0:0:
448,192,151617,1,0,0:0:0:0:
192,192,151617,1,0,0:0:0:0:
64,192,151767,1,0,0:0:0:0:
320,192,151767,1,8,0:0:0:0:
448,192,151767,1,0,0:0:0:0:
192,192,151917,1,8,0:0:0:0:
64,192,151917,1,0,0:0:0:0:
320,192,151992,1,0,0:0:0:0:
64,192,152067,1,0,0:0:0:0:
192,192,152067,1,8,0:0:0:0:
448,192,152067,1,0,0:0:0:0:
448,192,152217,1,0,0:0:0:0:
320,192,152217,1,8,0:0:0:0:
64,192,152367,1,0,0:0:0:0:
320,192,152367,1,8,0:0:0:0:
448,192,152442,1,0,0:0:0:0:
192,192,152442,1,8,0:0:0:0:
320,192,152517,1,8,0:0:0:0:
64,192,152517,1,0,0:0:0:0:
192,192,152592,1,8,0:0:0:0:
448,192,152592,1,0,0:0:0:0:
320,192,152667,1,8,0:0:0:0:
64,192,152667,1,0,0:0:0:0:
448,192,152817,1,8,0:0:0:0:
64,192,152817,1,0,0:0:0:0:
192,192,152892,1,0,0:0:0:0:
320,192,152892,1,8,0:0:0:0:
64,192,152967,1,0,0:0:0:0:
320,192,152967,1,4,0:0:0:0:
448,192,152967,1,8,0:0:0:0:
192,192,153117,1,8,0:0:0:0:
64,192,153117,1,0,0:0:0:0:
320,192,153192,1,0,0:0:0:0:
448,192,153267,1,0,0:0:0:0:
192,192,153267,1,8,0:0:0:0:
64,192,153267,1,0,0:0:0:0:
192,192,153417,1,0,0:0:0:0:
448,192,153417,1,0,0:0:0:0:
320,192,153417,1,8,0:0:0:0:
64,192,153567,1,0,0:0:0:0:
320,192,153567,1,8,0:0:0:0:
448,192,153567,1,0,0:0:0:0:
192,192,153642,1,0,0:0:0:0:
320,192,153717,1,8,0:0:0:0:
448,192,153717,1,0,0:0:0:0:
192,192,153867,1,8,0:0:0:0:
320,192,153867,1,0,0:0:0:0:
64,192,153867,1,0,0:0:0:0:
448,192,154017,1,0,0:0:0:0:
192,192,154017,1,8,0:0:0:0:
64,192,154017,1,0,0:0:0:0:
320,192,154167,1,8,0:0:0:0:
448,192,154167,1,0,0:0:0:0:
192,192,154167,1,0,0:0:0:0:
64,192,154317,1,0,0:0:0:0:
320,192,154317,1,8,0:0:0:0:
192,192,154392,1,0,0:0:0:0:
320,192,154467,1,8,0:0:0:0:
64,192,154467,1,0,0:0:0:0:
448,192,154467,1,0,0:0:0:0:
320,192,154617,1,8,0:0:0:0:
448,192,154617,1,0,0:0:0:0:
192,192,154617,1,0,0:0:0:0:
64,192,154767,1,0,0:0:0:0:
320,192,154767,1,8,0:0:0:0:
448,192,154767,1,0,0:0:0:0:
192,192,154842,1,0,0:0:0:0:
64,192,154917,1,8,0:0:0:0:
320,192,154917,1,0,0:0:0:0:
448,192,155067,1,0,0:0:0:0:
64,192,155067,1,0,0:0:0:0:
192,192,155067,1,8,0:0:0:0:
320,192,155217,1,8,0:0:0:0:
448,192,155217,1,0,0:0:0:0:
64,192,155217,1,0,0:0:0:0:
192,192,155367,1,8,0:0:0:0:
320,192,155367,1,0,0:0:0:0:
448,192,155367,1,0,0:0:0:0:
64,192,155517,1,0,0:0:0:0:
192,192,155517,1,8,0:0:0:0:
320,192,155592,1,0,0:0:0:0:
448,192,155667,1,0,0:0:0:0:
192,192,155667,1,8,0:0:0:0:
64,192,155667,1,0,0:0:0:0:
320,192,155817,1,8,0:0:0:0:
64,192,155817,1,0,0:0:0:0:
448,192,155817,1,0,0:0:0:0:
320,192,155967,1,8,0:0:0:0:
448,192,155967,1,0,0:0:0:0:
192,192,155967,1,0,0:0:0:0:
64,192,156042,1,0,0:0:0:0:
192,192,156117,1,8,0:0:0:0:
320,192,156117,1,0,0:0:0:0:
448,192,156267,1,0,0:0:0:0:
64,192,156267,1,0,0:0:0:0:
320,192,156267,1,8,0:0:0:0:
192,192,156417,1,0,0:0:0:0:
448,192,156417,1,0,0:0:0:0:
64,192,156417,1,8,0:0:0:0:
448,192,156567,1,0,0:0:0:0:
64,192,156567,128,0,156867:0:0:0:0:
192,192,156717,128,0,157017:0:0:0:0:
448,192,156792,1,0,0:0:0:0:
320,192,156867,128,0,157167:0:0:0:0:
448,192,157017,128,0,157167:0:0:0:0:
64,192,157017,1,0,0:0:0:0:
64,192,157167,1,0,0:0:0:0:
192,192,157167,1,8,0:0:0:0:
320,192,157242,1,8,0:0:0:0:
448,192,157242,1,0,0:0:0:0:
64,192,157317,1,0,0:0:0:0:
192,192,157317,1,8,0:0:0:0:
320,192,157392,1,8,0:0:0:0:
448,192,157392,1,0,0:0:0:0:
64,192,157467,1,0,0:0:0:0:
192,192,157467,1,8,0:0:0:0:
448,192,157467,1,4,0:0:0:0:
320,192,157617,1,0,0:0:0:0:
192,192,157617,1,0,0:0:0:0:
64,192,157767,1,0,0:0:0:0:
448,192,157767,1,0,0:0:0:0:
320,192,157767,1,8,0:0:0:0:
64,192,157917,1,0,0:0:0:0:
192,192,157917,1,8,0:0:0:0:
320,192,157992,1,0,0:0:0:0:
448,192,158067,1,0,0:0:0:0:
192,192,158067,1,8,0:0:0:0:
64,192,158067,1,0,0:0:0:0:
192,192,158217,1,0,0:0:0:0:
320,192,158217,1,8,0:0:0:0:
448,192,158217,1,0,0:0:0:0:
64,192,158367,1,0,0:0:0:0:
192,192,158367,1,8,0:0:0:0:
448,192,158367,1,0,0:0:0:0:
320,192,158442,1,0,0:0:0:0:
64,192,158517,1,8,0:0:0:0:
192,192,158517,1,0,0:0:0:0:
448,192,158667,1,0,0:0:0:0:
64,192,158667,1,0,0:0:0:0:
320,192,158667,1,8,0:0:0:0:
192,192,158817,1,8,0:0:0:0:
448,192,158817,1,0,0:0:0:0:
64,192,158817,1,0,0:0:0:0:
320,192,158967,1,8,0:0:0:0:
448,192,158967,1,0,0:0:0:0:
192,192,158967,1,0,0:0:0:0:
64,192,159117,1,0,0:0:0:0:
320,192,159117,1,8,0:0:0:0:
192,192,159192,1,0,0:0:0:0:
64,192,159267,1,8,0:0:0:0:
320,192,159267,1,0,0:0:0:0:
448,192,159267,1,0,0:0:0:0:
64,192,159417,1,0,0:0:0:0:
448,192,159417,1,0,0:0:0:0:
192,192,159417,1,8,0:0:0:0:
320,192,159567,1,8,0:0:0:0:
448,192,159567,1,0,0:0:0:0:
64,192,159567,1,0,0:0:0:0:
192,192,159642,1,0,0:0:0:0:
320,192,159717,1,8,0:0:0:0:
64,192,159717,1,0,0:0:0:0:
320,192,159867,1,8,0:0:0:0:
448,192,159867,1,0,0:0:0:0:
192,192,159867,1,0,0:0:0:0:
64,192,160017,1,0,0:0:0:0:
192,192,160017,1,8,0:0:0:0:
448,192,160017,1,0,0:0:0:0:
320,192,160167,1,8,0:0:0:0:
64,192,160167,1,0,0:0:0:0:
448,192,160167,1,0,0:0:0:0:
320,192,160317,1,8,0:0:0:0:
192,192,160317,1,0,0:0:0:0:
448,192,160392,5,0,0:0:0:0:
64,192,160467,1,0,0:0:0:0:
192,192,160467,1,8,0:0:0:0:
320,192,160467,1,0,0:0:0:0:
320,192,160617,1,8,0:0:0:0:
448,192,160617,1,0,0:0:0:0:
64,192,160617,1,0,0:0:0:0:
192,192,160767,1,0,0:0:0:0:
320,192,160767,1,8,0:0:0:0:
64,192,160767,1,0,0:0:0:0:
448,192,160842,1,0,0:0:0:0:
192,192,160917,1,0,0:0:0:0:
320,192,160917,1,8,0:0:0:0:
64,192,161067,1,0,0:0:0:0:
192,192,161067,1,8,0:0:0:0:
448,192,161067,1,0,0:0:0:0:
320,192,161217,1,8,0:0:0:0:
448,192,161217,1,0,0:0:0:0:
64,192,161217,1,0,0:0:0:0:
448,192,161367,1,0,0:0:0:0:
320,192,161367,1,0,0:0:0:0:
192,192,161367,1,8,0:0:0:0:
448,192,161517,5,8,0:0:0:0:
64,192,161517,1,0,0:0:0:0:
192,192,161592,1,0,0:0:0:0:
320,192,161592,1,8,0:0:0:0:
64,192,161667,1,0,0:0:0:0:
448,192,161667,1,8,0:0:0:0:
320,192,161742,1,8,0:0:0:0:
192,192,161742,1,0,0:0:0:0:
64,192,161817,1,0,0:0:0:0:
448,192,161817,1,8,0:0:0:0:
64,192,161967,1,0,0:0:0:0:
192,192,161967,1,8,0:0:0:0:
320,192,162042,1,0,0:0:0:0:
448,192,162042,1,0,0:0:0:0:
64,192,162117,1,8,0:0:0:0:
192,192,162154,1,8,0:0:0:0:
320,192,162192,1,8,0:0:0:0:
448,192,162229,1,8,0:0:0:0:
64,192,162267,1,8,0:0:0:0:
192,192,162304,1,8,0:0:0:0:
320,192,162342,1,8,0:0:0:0:
448,192,162342,1,0,0:0:0:0:
64,192,162417,1,0,0:0:0:0:
192,192,162417,1,8,0:0:0:0:
320,192,162454,1,8,0:0:0:0:
448,192,162492,1,8,0:0:0:0:
64,192,162492,1,0,0:0:0:0:
192,192,162529,1,8,0:0:0:0:
448,192,162567,1,8,0:0:0:0:
320,192,162567,1,4,0:0:0:0:
64,192,162717,1,0,0:0:0:0:
320,192,162717,1,8,0:0:0:0:
192,192,162792,1,0,0:0:0:0:
448,192,162867,1,0,0:0:0:0:
320,192,162867,1,8,0:0:0:0:
64,192,162867,1,0,0:0:0:0:
192,192,163017,1,8,0:0:0:0:
448,192,163017,1,0,0:0:0:0:
64,192,163017,1,0,0:0:0:0:
320,192,163167,1,8,0:0:0:0:
448,192,163167,1,0,0:0:0:0:
192,192,163167,1,0,0:0:0:0:
64,192,163242,1,0,0:0:0:0:
192,192,163317,1,8,0:0:0:0:
320,192,163317,1,0,0:0:0:0:
448,192,163467,1,0,0:0:0:0:
320,192,163467,1,8,0:0:0:0:
64,192,163467,1,0,0:0:0:0:
192,192,163617,1,8,0:0:0:0:
64,192,163617,1,0,0:0:0:0:
448,192,163617,1,0,0:0:0:0:
320,192,163767,1,8,0:0:0:0:
192,192,163767,1,0,0:0:0:0:
448,192,163767,1,0,0:0:0:0:
64,192,163917,1,0,0:0:0:0:
320,192,163917,1,8,0:0:0:0:
192,192,163992,1,0,0:0:0:0:
320,192,164067,1,8,0:0:0:0:
64,192,164067,1,0,0:0:0:0:
448,192,164067,1,0,0:0:0:0:
64,192,164217,1,8,0:0:0:0:
448,192,164217,1,0,0:0:0:0:
192,192,164217,1,0,0:0:0:0:
64,192,164367,1,0,0:0:0:0:
320,192,164367,1,8,0:0:0:0:
448,192,164367,1,0,0:0:0:0:
192,192,164442,1,0,0:0:0:0:
448,192,164517,1,8,0:0:0:0:
320,192,164517,1,0,0:0:0:0:
320,192,164667,1,0,0:0:0:0:
64,192,164667,1,0,0:0:0:0:
192,192,164667,1,8,0:0:0:0:
320,192,164817,1,8,0:0:0:0:
448,192,164817,1,0,0:0:0:0:
64,192,164817,1,0,0:0:0:0:
192,192,164967,1,8,0:0:0:0:
320,192,164967,1,0,0:0:0:0:
448,192,164967,1,0,0:0:0:0:
320,192,165117,1,8,0:0:0:0:
64,192,165117,1,0,0:0:0:0:
192,192,165192,1,0,0:0:0:0:
448,192,165192,1,8,0:0:0:0:
320,192,165267,1,8,0:0:0:0:
64,192,165267,1,0,0:0:0:0:
192,192,165417,1,8,0:0:0:0:
448,192,165417,1,0,0:0:0:0:
320,192,165492,1,0,0:0:0:0:
64,192,165492,1,8,0:0:0:0:
192,192,165567,1,8,0:0:0:0:
448,192,165567,1,0,0:0:0:0:
192,192,165717,1,8,0:0:0:0:
64,192,165717,1,0,0:0:0:0:
320,192,165792,1,8,0:0:0:0:
448,192,165792,1,0,0:0:0:0:
192,192,165867,1,8,0:0:0:0:
64,192,165867,1,0,0:0:0:0:
448,192,166017,1,8,0:0:0:0:
64,192,166017,1,0,0:0:0:0:
192,192,166092,1,0,0:0:0:0:
320,192,166092,1,8,0:0:0:0:
64,192,166167,1,0,0:0:0:0:
448,192,166167,1,8,0:0:0:0:
320,192,166317,5,0,0:0:0:0:
192,192,166317,1,8,0:0:0:0:
448,192,166392,1,0,0:0:0:0:
64,192,166392,1,8,0:0:0:0:
448,192,166617,1,8,0:0:0:0:
192,192,166617,1,8,0:0:0:0:
64,192,166617,1,0,0:0:0:0:
448,192,166767,1,0,0:0:0:0:
320,192,166767,1,8,0:0:0:0:
320,192,166842,1,8,0:0:0:0:
448,192,166842,1,0,0:0:0:0:
192,192,166917,1,8,0:0:0:0:
64,192,166917,1,0,0:0:0:0:
192,192,166992,1,8,0:0:0:0:
64,192,166992,1,0,0:0:0:0:
64,192,167067,1,4,0:0:0:0:
448,192,167067,1,0,0:0:0:0:
320,192,167067,1,2,0:0:0:0:
448,192,167367,5,0,0:0:0:0:
320,192,167367,1,8,0:0:0:0:
64,192,167367,1,0,0:0:0:0:
192,192,167517,1,0,0:0:0:0:
64,192,167667,1,0,0:0:0:0:
448,192,167667,1,2,0:0:0:0:
192,192,167667,1,0,0:0:0:0:
320,192,167817,1,0,0:0:0:0:
192,192,167892,1,0,0:0:0:0:
320,192,167967,1,0,0:0:0:0:
192,192,168042,1,0,0:0:0:0:
320,192,168117,1,0,0:0:0:0:
320,192,168267,1,2,0:0:0:0:
448,192,168267,1,0,0:0:0:0:
192,192,168267,1,0,0:0:0:0:
64,192,168417,1,0,0:0:0:0:
448,192,168492,1,0,0:0:0:0:
192,192,168567,1,0,0:0:0:0:
320,192,168642,1,0,0:0:0:0:
448,192,168717,1,0,0:0:0:0:
192,192,168867,1,2,0:0:0:0:
64,192,168867,1,0,0:0:0:0:
448,192,168867,1,0,0:0:0:0:
320,192,169017,1,0,0:0:0:0:
192,192,169092,1,0,0:0:0:0:
320,192,169167,1,0,0:0:0:0:
64,192,169242,1,0,0:0:0:0:
192,192,169317,1,0,0:0:0:0:
448,192,169467,1,2,0:0:0:0:
64,192,169467,1,0,0:0:0:0:
320,192,169467,1,0,0:0:0:0:
320,192,169617,1,0,0:0:0:0:
448,192,169692,1,0,0:0:0:0:
192,192,169767,1,0,0:0:0:0:
320,192,169842,1,0,0:0:0:0:
64,192,169917,1,0,0:0:0:0:
448,192,170067,1,0,0:0:0:0:
320,192,170067,1,2,0:0:0:0:
64,192,170067,1,0,0:0:0:0:
192,192,170217,1,0,0:0:0:0:
64,192,170292,1,0,0:0:0:0:
192,192,170367,1,0,0:0:0:0:
64,192,170442,1,0,0:0:0:0:
192,192,170517,1,0,0:0:0:0:
320,192,170667,1,2,0:0:0:0:
64,192,170667,1,0,0:0:0:0:
448,192,170667,1,0,0:0:0:0:
448,192,170817,1,0,0:0:0:0:
320,192,170892,1,0,0:0:0:0:
448,192,170967,1,0,0:0:0:0:
320,192,171042,1,0,0:0:0:0:
192,192,171117,1,0,0:0:0:0:
448,192,171267,1,2,0:0:0:0:
64,192,171267,1,0,0:0:0:0:
192,192,171267,1,0,0:0:0:0:
64,192,171417,1,0,0:0:0:0:
448,192,171492,1,0,0:0:0:0:
64,192,171567,1,0,0:0:0:0:
448,192,171642,1,0,0:0:0:0:
64,192,171717,1,0,0:0:0:0:
448,192,171792,1,0,0:0:0:0:
64,192,171867,1,2,0:0:0:0:
320,192,171867,1,0,0:0:0:0:
192,192,171867,1,0,0:0:0:0:
448,192,172017,1,0,0:0:0:0:
192,192,172092,1,0,0:0:0:0:
64,192,172167,1,0,0:0:0:0:
320,192,172242,1,0,0:0:0:0:
64,192,172317,1,0,0:0:0:0:
192,192,172467,1,2,0:0:0:0:
448,192,172467,1,0,0:0:0:0:
320,192,172467,1,0,0:0:0:0:
320,192,172617,1,0,0:0:0:0:
448,192,172692,1,0,0:0:0:0:
192,192,172767,1,0,0:0:0:0:
320,192,172842,1,0,0:0:0:0:
448,192,172917,1,0,0:0:0:0:
192,192,173067,1,2,0:0:0:0:
64,192,173067,1,0,0:0:0:0:
448,192,173067,1,0,0:0:0:0:
320,192,173142,1,0,0:0:0:0:
64,192,173217,1,0,0:0:0:0:
320,192,173292,1,0,0:0:0:0:
448,192,173367,1,0,0:0:0:0:
192,192,173442,1,0,0:0:0:0:
64,192,173517,1,0,0:0:0:0:
448,192,173667,1,0,0:0:0:0:
320,192,173667,1,2,0:0:0:0:
192,192,173667,1,0,0:0:0:0:
64,192,173742,1,0,0:0:0:0:
192,192,173817,1,0,0:0:0:0:
64,192,173892,1,0,0:0:0:0:
448,192,173967,1,0,0:0:0:0:
320,192,174042,1,0,0:0:0:0:
64,192,174117,1,0,0:0:0:0:
320,192,174267,1,0,0:0:0:0:
192,192,174267,1,2,0:0:0:0:
64,192,174267,1,0,0:0:0:0:
448,192,174342,1,0,0:0:0:0:
192,192,174417,1,0,0:0:0:0:
320,192,174417,1,0,0:0:0:0:
64,192,174492,1,0,0:0:0:0:
320,192,174567,1,0,0:0:0:0:
448,192,174567,1,0,0:0:0:0:
192,192,174717,1,0,0:0:0:0:
448,192,174867,1,0,0:0:0:0:
320,192,174867,1,2,0:0:0:0:
192,192,174867,1,0,0:0:0:0:
64,192,174942,1,0,0:0:0:0:
320,192,175017,1,0,0:0:0:0:
448,192,175017,1,0,0:0:0:0:
192,192,175092,1,0,0:0:0:0:
64,192,175167,1,0,0:0:0:0:
320,192,175242,1,0,0:0:0:0:
448,192,175317,1,0,0:0:0:0:
64,192,175467,1,0,0:0:0:0:
320,192,175467,1,2,0:0:0:0:
448,192,175467,1,0,0:0:0:0:
192,192,175542,1,0,0:0:0:0:
320,192,175617,1,0,0:0:0:0:
448,192,175767,1,0,0:0:0:0:
64,192,175767,1,0,0:0:0:0:
192,192,175767,128,8,176367:0:0:0:0:
64,192,176367,1,0,0:0:0:0:
448,192,176367,1,0,0:0:0:0:
320,192,176367,128,8,176667:0:0:0:0:
192,192,176667,1,8,0:0:0:0:
64,192,176667,1,4,0:0:0:0:
448,192,176667,1,0,0:0:0:0:
320,192,176967,128,0,177042:0:0:0:0:
448,192,176967,128,0,177042:0:0:0:0:
64,192,176967,1,8,0:0:0:0:
320,192,177117,1,8,0:0:0:0:
448,192,177117,1,0,0:0:0:0:
192,192,177192,128,0,177267:0:0:0:0:
64,192,177192,128,0,177267:0:0:0:0:
448,192,177267,1,0,0:0:0:0:
320,192,177267,1,8,0:0:0:0:
192,192,177417,128,0,177492:0:0:0:0:
64,192,177417,128,0,177492:0:0:0:0:
448,192,177417,1,8,0:0:0:0:
192,192,177567,1,0,0:0:0:0:
320,192,177567,1,8,0:0:0:0:
64,192,177642,128,0,177717:0:0:0:0:
448,192,177642,128,0,177717:0:0:0:0:
192,192,177717,1,8,0:0:0:0:
320,192,177717,1,0,0:0:0:0:
320,192,177867,128,0,177942:0:0:0:0:
448,192,177867,128,0,177942:0:0:0:0:
64,192,177867,1,8,0:0:0:0:
64,192,178017,128,0,178092:0:0:0:0:
320,192,178017,128,0,178092:0:0:0:0:
192,192,178017,1,8,0:0:0:0:
192,192,178167,128,0,178242:0:0:0:0:
64,192,178167,128,0,178242:0:0:0:0:
448,192,178167,1,8,0:0:0:0:
320,192,178317,1,8,0:0:0:0:
448,192,178317,1,0,0:0:0:0:
192,192,178392,128,0,178467:0:0:0:0:
64,192,178392,128,0,178467:0:0:0:0:
320,192,178467,1,8,0:0:0:0:
192,192,178617,128,0,178692:0:0:0:0:
448,192,178617,128,0,178692:0:0:0:0:
64,192,178617,1,8,0:0:0:0:
192,192,178767,1,0,0:0:0:0:
320,192,178767,1,8,0:0:0:0:
64,192,178842,128,0,178917:0:0:0:0:
448,192,178842,128,0,178917:0:0:0:0:
192,192,178917,1,8,0:0:0:0:
320,192,178917,1,0,0:0:0:0:
64,192,179067,128,0,179142:0:0:0:0:
192,192,179067,128,0,179142:0:0:0:0:
448,192,179067,1,8,0:0:0:0:
192,192,179217,128,0,179292:0:0:0:0:
320,192,179217,128,0,179292:0:0:0:0:
64,192,179217,1,8,0:0:0:0:
320,192,179367,128,0,179442:0:0:0:0:
448,192,179367,128,0,179442:0:0:0:0:
64,192,179367,1,8,0:0:0:0:
64,192,179517,1,8,0:0:0:0:
192,192,179517,1,0,0:0:0:0:
320,192,179592,128,0,179667:0:0:0:0:
448,192,179592,128,0,179667:0:0:0:0:
64,192,179667,1,8,0:0:0:0:
192,192,179667,1,0,0:0:0:0:
64,192,179817,128,0,179892:0:0:0:0:
192,192,179817,1,8,0:0:0:0:
448,192,179817,128,0,179892:0:0:0:0:
448,192,179967,1,0,0:0:0:0:
320,192,179967,1,8,0:0:0:0:
192,192,180042,128,0,180117:0:0:0:0:
64,192,180042,128,0,180117:0:0:0:0:
320,192,180117,1,8,0:0:0:0:
448,192,180117,1,0,0:0:0:0:
448,192,180267,128,0,180342:0:0:0:0:
320,192,180267,128,0,180342:0:0:0:0:
64,192,180267,1,8,0:0:0:0:
64,192,180417,128,0,180492:0:0:0:0:
448,192,180417,128,0,180492:0:0:0:0:
192,192,180417,1,8,0:0:0:0:
192,192,180567,128,0,180642:0:0:0:0:
64,192,180567,128,0,180642:0:0:0:0:
320,192,180567,1,8,0:0:0:0:
320,192,180717,1,8,0:0:0:0:
64,192,180717,1,0,0:0:0:0:
192,192,180792,128,0,180867:0:0:0:0:
448,192,180792,128,0,180867:0:0:0:0:
64,192,180867,1,0,0:0:0:0:
320,192,180867,1,8,0:0:0:0:
64,192,181017,128,0,181092:0:0:0:0:
448,192,181017,128,0,181092:0:0:0:0:
192,192,181017,1,8,0:0:0:0:
192,192,181167,1,0,0:0:0:0:
320,192,181167,1,8,0:0:0:0:
64,192,181242,128,0,181317:0:0:0:0:
448,192,181242,128,8,181317:0:0:0:0:
192,192,181317,1,8,0:0:0:0:
320,192,181317,1,0,0:0:0:0:
64,192,181392,1,0,0:0:0:0:
448,192,181392,1,8,0:0:0:0:
192,192,181467,128,8,181542:0:0:0:0:
320,192,181467,128,0,181542:0:0:0:0:
448,192,181617,128,0,181692:0:0:0:0:
320,192,181617,128,8,181692:0:0:0:0:
64,192,181692,1,0,0:0:0:0:
192,192,181692,1,8,0:0:0:0:
320,192,181767,128,8,181842:0:0:0:0:
448,192,181767,128,0,181842:0:0:0:0:
64,192,181767,1,4,0:0:0:0:
448,192,181917,1,8,0:0:0:0:
320,192,181917,1,0,0:0:0:0:
64,192,181992,128,0,182067:0:0:0:0:
192,192,181992,128,0,182067:0:0:0:0:
448,192,182067,1,0,0:0:0:0:
320,192,182067,1,8,0:0:0:0:
192,192,182217,128,0,182292:0:0:0:0:
64,192,182217,128,0,182292:0:0:0:0:
448,192,182217,1,8,0:0:0:0:
320,192,182367,1,8,0:0:0:0:
192,192,182367,1,0,0:0:0:0:
448,192,182442,128,0,182517:0:0:0:0:
64,192,182442,128,0,182517:0:0:0:0:
192,192,182517,1,8,0:0:0:0:
320,192,182517,1,0,0:0:0:0:
320,192,182667,128,0,182742:0:0:0:0:
192,192,182667,128,0,182742:0:0:0:0:
64,192,182667,1,8,0:0:0:0:
64,192,182817,128,0,182892:0:0:0:0:
192,192,182817,128,0,182892:0:0:0:0:
448,192,182817,1,8,0:0:0:0:
320,192,182967,128,0,183042:0:0:0:0:
448,192,182967,128,0,183042:0:0:0:0:
64,192,182967,1,8,0:0:0:0:
320,192,183117,1,8,0:0:0:0:
64,192,183117,1,0,0:0:0:0:
192,192,183192,128,0,183267:0:0:0:0:
448,192,183192,128,0,183267:0:0:0:0:
64,192,183267,1,0,0:0:0:0:
320,192,183267,1,8,0:0:0:0:
320,192,183417,128,0,183492:0:0:0:0:
64,192,183417,128,0,183492:0:0:0:0:
448,192,183417,1,8,0:0:0:0:
64,192,183567,1,0,0:0:0:0:
320,192,183567,1,8,0:0:0:0:
192,192,183642,128,0,183717:0:0:0:0:
448,192,183642,128,0,183717:0:0:0:0:
320,192,183717,1,8,0:0:0:0:
64,192,183717,1,0,0:0:0:0:
320,192,183867,128,0,183942:0:0:0:0:
448,192,183867,128,0,183942:0:0:0:0:
192,192,183867,1,8,0:0:0:0:
192,192,184017,128,0,184092:0:0:0:0:
64,192,184017,128,0,184092:0:0:0:0:
320,192,184017,1,8,0:0:0:0:
448,192,184167,128,0,184242:0:0:0:0:
64,192,184167,128,0,184242:0:0:0:0:
320,192,184167,1,8,0:0:0:0:
448,192,184317,1,8,0:0:0:0:
64,192,184317,1,0,0:0:0:0:
320,192,184392,128,0,184467:0:0:0:0:
192,192,184392,128,0,184467:0:0:0:0:
64,192,184467,1,8,0:0:0:0:
448,192,184467,1,0,0:0:0:0:
192,192,184617,128,0,184692:0:0:0:0:
320,192,184617,128,0,184692:0:0:0:0:
64,192,184617,1,8,0:0:0:0:
320,192,184767,1,0,0:0:0:0:
192,192,184767,1,8,0:0:0:0:
448,192,184842,128,0,184917:0:0:0:0:
64,192,184842,128,0,184917:0:0:0:0:
320,192,184917,1,8,0:0:0:0:
192,192,184917,1,0,0:0:0:0:
192,192,185067,128,0,185142:0:0:0:0:
64,192,185067,128,0,185142:0:0:0:0:
448,192,185067,1,8,0:0:0:0:
448,192,185217,128,0,185292:0:0:0:0:
192,192,185217,128,0,185292:0:0:0:0:
320,192,185217,1,8,0:0:0:0:
320,192,185367,128,0,185442:0:0:0:0:
448,192,185367,128,0,185442:0:0:0:0:
64,192,185367,1,8,0:0:0:0:
64,192,185517,128,0,185592:0:0:0:0:
192,192,185517,128,0,185592:0:0:0:0:
320,192,185592,128,0,185667:0:0:0:0:
448,192,185592,128,0,185667:0:0:0:0:
192,192,185667,1,8,0:0:0:0:
64,192,185667,1,0,0:0:0:0:
448,192,185817,128,0,185967:0:0:0:0:
64,192,185817,128,0,185967:0:0:0:0:
320,192,185817,128,0,185892:0:0:0:0:
192,192,185817,128,0,185892:0:0:0:0:
320,192,185967,1,8,0:0:0:0:
192,192,185967,1,0,0:0:0:0:
64,192,186042,1,0,0:0:0:0:
448,192,186042,1,8,0:0:0:0:
192,192,186117,1,0,0:0:0:0:
320,192,186117,1,8,0:0:0:0:
448,192,186192,1,8,0:0:0:0:
64,192,186192,1,0,0:0:0:0:
192,192,186267,1,0,0:0:0:0:
320,192,186267,1,8,0:0:0:0:
448,192,186267,1,4,0:0:0:0:
320,192,186567,128,0,186642:0:0:0:0:
448,192,186567,128,0,186642:0:0:0:0:
64,192,186567,1,8,0:0:0:0:
448,192,186717,1,8,0:0:0:0:
320,192,186717,1,0,0:0:0:0:
192,192,186792,128,0,186867:0:0:0:0:
64,192,186792,128,0,186867:0:0:0:0:
320,192,186867,1,8,0:0:0:0:
448,192,186867,1,0,0:0:0:0:
192,192,187017,128,0,187092:0:0:0:0:
64,192,187017,128,0,187092:0:0:0:0:
448,192,187017,1,8,0:0:0:0:
320,192,187167,1,8,0:0:0:0:
192,192,187167,1,0,0:0:0:0:
448,192,187242,128,0,187317:0:0:0:0:
64,192,187242,128,0,187317:0:0:0:0:
192,192,187317,1,8,0:0:0:0:
320,192,187317,1,0,0:0:0:0:
320,192,187467,128,0,187542:0:0:0:0:
192,192,187467,128,0,187542:0:0:0:0:
64,192,187467,1,8,0:0:0:0:
448,192,187617,128,0,187692:0:0:0:0:
320,192,187617,128,0,187692:0:0:0:0:
64,192,187617,1,8,0:0:0:0:
64,192,187767,128,0,187842:0:0:0:0:
192,192,187767,128,0,187842:0:0:0:0:
448,192,187767,1,8,0:0:0:0:
192,192,187917,1,8,0:0:0:0:
64,192,187917,1,0,0:0:0:0:
320,192,187992,128,0,188067:0:0:0:0:
448,192,187992,128,0,188067:0:0:0:0:
64,192,188067,1,0,0:0:0:0:
192,192,188067,1,8,0:0:0:0:
64,192,188217,128,0,188292:0:0:0:0:
448,192,188217,128,0,188292:0:0:0:0:
320,192,188217,1,8,0:0:0:0:
320,192,188367,1,8,0:0:0:0:
448,192,188367,1,0,0:0:0:0:
192,192,188442,128,0,188517:0:0:0:0:
64,192,188442,128,0,188517:0:0:0:0:
320,192,188517,1,8,0:0:0:0:
448,192,188517,1,0,0:0:0:0:
448,192,188667,128,0,188742:0:0:0:0:
320,192,188667,128,0,188742:0:0:0:0:
64,192,188667,1,8,0:0:0:0:
64,192,188817,128,0,188892:0:0:0:0:
192,192,188817,128,0,188892:0:0:0:0:
320,192,188817,1,8,0:0:0:0:
448,192,188967,128,0,189042:0:0:0:0:
64,192,188967,128,0,189042:0:0:0:0:
320,192,188967,1,8,0:0:0:0:
64,192,189117,1,8,0:0:0:0:
448,192,189117,1,0,0:0:0:0:
192,192,189192,128,0,189267:0:0:0:0:
320,192,189192,128,0,189267:0:0:0:0:
448,192,189267,1,0,0:0:0:0:
64,192,189267,1,8,0:0:0:0:
320,192,189417,128,0,189492:0:0:0:0:
192,192,189417,128,0,189492:0:0:0:0:
448,192,189417,1,8,0:0:0:0:
192,192,189567,1,0,0:0:0:0:
320,192,189567,1,8,0:0:0:0:
64,192,189642,128,0,189717:0:0:0:0:
448,192,189642,128,0,189717:0:0:0:0:
192,192,189717,1,8,0:0:0:0:
320,192,189717,1,0,0:0:0:0:
192,192,189867,128,0,189942:0:0:0:0:
320,192,189867,128,0,189942:0:0:0:0:
64,192,189867,1,8,0:0:0:0:
64,192,190017,128,0,190092:0:0:0:0:
192,192,190017,128,0,190092:0:0:0:0:
448,192,190017,1,8,0:0:0:0:
448,192,190167,128,0,190242:0:0:0:0:
320,192,190167,128,0,190242:0:0:0:0:
64,192,190167,1,8,0:0:0:0:
192,192,190317,1,8,0:0:0:0:
448,192,190317,1,0,0:0:0:0:
64,192,190392,128,8,190467:0:0:0:0:
320,192,190392,128,0,190467:0:0:0:0:
192,192,190467,1,0,0:0:0:0:
448,192,190467,1,8,0:0:0:0:
64,192,190542,1,0,0:0:0:0:
320,192,190542,1,8,0:0:0:0:
192,192,190617,128,8,190692:0:0:0:0:
448,192,190617,128,0,190692:0:0:0:0:
320,192,190767,1,8,0:0:0:0:
448,192,190767,1,0,0:0:0:0:
64,192,190842,1,0,0:0:0:0:
192,192,190842,1,8,0:0:0:0:
448,192,190917,1,8,0:0:0:0:
320,192,190954,1,8,0:0:0:0:
192,192,190992,1,8,0:0:0:0:
64,192,191029,1,8,0:0:0:0:
320,192,191067,1,8,0:0:0:0:
448,192,191104,1,8,0:0:0:0:
192,192,191142,1,0,0:0:0:0:
64,192,191142,1,8,0:0:0:0:
448,192,191217,1,8,0:0:0:0:
320,192,191217,1,0,0:0:0:0:
192,192,191254,1,8,0:0:0:0:
64,192,191292,1,8,0:0:0:0:
448,192,191292,1,0,0:0:0:0:
320,192,191329,1,8,0:0:0:0:
64,192,191367,1,4,0:0:0:0:
192,192,191367,1,8,0:0:0:0:
192,192,191517,1,0,0:0:0:0:
320,192,191517,1,8,0:0:0:0:
64,192,191592,1,0,0:0:0:0:
448,192,191592,1,8,0:0:0:0:
320,192,191667,1,0,0:0:0:0:
192,192,191742,1,0,0:0:0:0:
448,192,191742,1,8,0:0:0:0:
64,192,191817,1,8,0:0:0:0:
320,192,191817,1,0,0:0:0:0:
320,192,191967,1,8,0:0:0:0:
192,192,191967,1,0,0:0:0:0:
64,192,191967,1,0,0:0:0:0:
448,192,192042,1,8,0:0:0:0:
64,192,192117,1,0,0:0:0:0:
448,192,192192,1,0,0:0:0:0:
320,192,192192,1,8,0:0:0:0:
192,192,192267,1,8,0:0:0:0:
64,192,192267,1,0,0:0:0:0:
448,192,192417,1,0,0:0:0:0:
320,192,192417,1,8,0:0:0:0:
192,192,192417,1,0,0:0:0:0:
64,192,192567,1,0,0:0:0:0:
320,192,192567,1,8,0:0:0:0:
448,192,192567,1,0,0:0:0:0:
192,192,192717,1,0,0:0:0:0:
320,192,192717,1,8,0:0:0:0:
64,192,192717,1,0,0:0:0:0:
448,192,192792,1,8,0:0:0:0:
192,192,192867,1,0,0:0:0:0:
64,192,192942,1,0,0:0:0:0:
320,192,192942,1,8,0:0:0:0:
192,192,193017,1,8,0:0:0:0:
448,192,193017,1,0,0:0:0:0:
320,192,193167,1,8,0:0:0:0:
64,192,193167,1,0,0:0:0:0:
448,192,193242,1,8,0:0:0:0:
192,192,193242,1,0,0:0:0:0:
64,192,193317,1,0,0:0:0:0:
320,192,193392,1,8,0:0:0:0:
448,192,193392,1,0,0:0:0:0:
64,192,193467,1,8,0:0:0:0:
192,192,193504,1,8,0:0:0:0:
320,192,193542,1,8,0:0:0:0:
448,192,193579,1,8,0:0:0:0:
64,192,193617,1,0,0:0:0:0:
192,192,193617,1,8,0:0:0:0:
320,192,193654,1,8,0:0:0:0:
448,192,193692,1,8,0:0:0:0:
64,192,193692,1,0,0:0:0:0:
192,192,193729,1,8,0:0:0:0:
448,192,193767,1,8,0:0:0:0:
320,192,193767,1,4,0:0:0:0:
64,192,193917,1,0,0:0:0:0:
320,192,193917,1,8,0:0:0:0:
448,192,193992,1,0,0:0:0:0:
192,192,193992,1,8,0:0:0:0:
320,192,194067,1,0,0:0:0:0:
192,192,194142,1,8,0:0:0:0:
64,192,194142,1,0,0:0:0:0:
320,192,194217,1,0,0:0:0:0:
448,192,194217,1,8,0:0:0:0:
64,192,194367,1,8,0:0:0:0:
448,192,194367,1,0,0:0:0:0:
320,192,194442,1,8,0:0:0:0:
192,192,194442,1,0,0:0:0:0:
64,192,194517,1,0,0:0:0:0:
320,192,194592,1,8,0:0:0:0:
448,192,194592,1,0,0:0:0:0:
64,192,194667,1,8,0:0:0:0:
192,192,194667,1,0,0:0:0:0:
320,192,194817,1,8,0:0:0:0:
448,192,194817,1,0,0:0:0:0:
192,192,194817,1,0,0:0:0:0:
320,192,194967,1,8,0:0:0:0:
64,192,194967,1,0,0:0:0:0:
448,192,194967,1,0,0:0:0:0:
320,192,195117,1,8,0:0:0:0:
192,192,195117,1,0,0:0:0:0:
448,192,195192,1,8,0:0:0:0:
64,192,195192,1,0,0:0:0:0:
192,192,195267,1,0,0:0:0:0:
320,192,195417,1,8,0:0:0:0:
64,192,195417,1,0,0:0:0:0:
448,192,195417,1,0,0:0:0:0:
64,192,195567,1,0,0:0:0:0:
192,192,195567,1,8,0:0:0:0:
448,192,195642,1,0,0:0:0:0:
320,192,195642,1,8,0:0:0:0:
192,192,195717,1,8,0:0:0:0:
64,192,195717,1,0,0:0:0:0:
448,192,195792,1,0,0:0:0:0:
320,192,195792,1,8,0:0:0:0:
64,192,195867,1,0,0:0:0:0:
192,192,195867,1,8,0:0:0:0:
448,192,195867,1,4,0:0:0:0:
320,192,196017,128,0,196167:0:0:0:0:
64,192,196167,1,0,0:0:0:0:
448,192,196167,1,0,0:0:0:0:
192,192,196167,1,8,0:0:0:0:
320,192,196317,1,8,0:0:0:0:
448,192,196317,1,0,0:0:0:0:
64,192,196317,1,0,0:0:0:0:
192,192,196467,1,8,0:0:0:0:
448,192,196467,1,0,0:0:0:0:
64,192,196467,1,0,0:0:0:0:
320,192,196542,1,0,0:0:0:0:
192,192,196617,1,8,0:0:0:0:
64,192,196617,1,0,0:0:0:0:
320,192,196692,1,0,0:0:0:0:
448,192,196767,1,0,0:0:0:0:
192,192,196767,1,8,0:0:0:0:
64,192,196767,1,0,0:0:0:0:
320,192,196917,1,8,0:0:0:0:
448,192,196917,1,0,0:0:0:0:
192,192,196917,1,0,0:0:0:0:
64,192,197067,1,0,0:0:0:0:
320,192,197067,1,8,0:0:0:0:
448,192,197067,1,0,0:0:0:0:
192,192,197142,1,0,0:0:0:0:
320,192,197217,1,8,0:0:0:0:
448,192,197217,1,0,0:0:0:0:
64,192,197292,1,0,0:0:0:0:
192,192,197367,1,0,0:0:0:0:
320,192,197367,1,8,0:0:0:0:
448,192,197367,1,0,0:0:0:0:
64,192,197517,1,0,0:0:0:0:
192,192,197517,1,8,0:0:0:0:
320,192,197517,1,0,0:0:0:0:
64,192,197667,1,0,0:0:0:0:
192,192,197667,1,8,0:0:0:0:
448,192,197667,1,0,0:0:0:0:
320,192,197742,1,0,0:0:0:0:
192,192,197817,1,8,0:0:0:0:
64,192,197817,1,0,0:0:0:0:
320,192,197892,1,0,0:0:0:0:
192,192,197967,1,8,0:0:0:0:
64,192,197967,1,0,0:0:0:0:
448,192,197967,1,0,0:0:0:0:
448,192,198117,1,8,0:0:0:0:
192,192,198117,1,0,0:0:0:0:
320,192,198154,1,8,0:0:0:0:
64,192,198192,1,8,0:0:0:0:
192,192,198229,1,8,0:0:0:0:
320,192,198267,1,8,0:0:0:0:
448,192,198267,1,0,0:0:0:0:
64,192,198342,1,8,0:0:0:0:
192,192,198417,1,8,0:0:0:0:
448,192,198417,1,0,0:0:0:0:
320,192,198492,1,0,0:0:0:0:
64,192,198492,1,8,0:0:0:0:
192,192,198567,1,8,0:0:0:0:
448,192,198567,1,0,0:0:0:0:
64,192,198567,1,4,0:0:0:0:
320,192,198717,1,8,0:0:0:0:
448,192,198717,1,0,0:0:0:0:
192,192,198717,1,0,0:0:0:0:
64,192,198867,1,0,0:0:0:0:
320,192,198867,1,8,0:0:0:0:
448,192,198867,1,0,0:0:0:0:
192,192,198942,1,0,0:0:0:0:
64,192,199017,1,0,0:0:0:0:
320,192,199017,1,8,0:0:0:0:
448,192,199092,1,0,0:0:0:0:
320,192,199167,1,8,0:0:0:0:
192,192,199167,1,0,0:0:0:0:
64,192,199167,1,0,0:0:0:0:
448,192,199317,1,0,0:0:0:0:
320,192,199317,1,0,0:0:0:0:
192,192,199317,1,8,0:0:0:0:
64,192,199467,1,0,0:0:0:0:
448,192,199467,1,0,0:0:0:0:
192,192,199467,1,8,0:0:0:0:
320,192,199542,1,0,0:0:0:0:
192,192,199617,1,8,0:0:0:0:
64,192,199617,1,0,0:0:0:0:
448,192,199692,1,0,0:0:0:0:
192,192,199767,1,0,0:0:0:0:
64,192,199767,1,0,0:0:0:0:
320,192,199767,1,8,0:0:0:0:
448,192,199917,1,0,0:0:0:0:
320,192,199917,1,8,0:0:0:0:
64,192,199917,1,0,0:0:0:0:
192,192,200067,1,8,0:0:0:0:
320,192,200067,1,0,0:0:0:0:
448,192,200067,1,0,0:0:0:0:
64,192,200142,1,0,0:0:0:0:
192,192,200217,1,8,0:0:0:0:
448,192,200217,1,0,0:0:0:0:
320,192,200292,1,0,0:0:0:0:
448,192,200367,1,8,0:0:0:0:
64,192,200367,1,0,0:0:0:0:
192,192,200442,1,0,0:0:0:0:
320,192,200442,1,8,0:0:0:0:
64,192,200517,1,8,0:0:0:0:
192,192,200554,1,8,0:0:0:0:
320,192,200592,1,8,0:0:0:0:
448,192,200592,1,0,0:0:0:0:
64,192,200667,1,8,0:0:0:0:
192,192,200704,1,8,0:0:0:0:
320,192,200742,1,8,0:0:0:0:
448,192,200742,1,0,0:0:0:0:
192,192,200817,1,8,0:0:0:0:
64,192,200817,1,0,0:0:0:0:
320,192,200892,1,8,0:0:0:0:
448,192,200892,1,0,0:0:0:0:
192,192,200967,1,8,0:0:0:0:
64,192,200967,1,0,0:0:0:0:
448,192,200967,1,4,0:0:0:0:
192,192,201117,1,8,0:0:0:0:
64,192,201117,1,0,0:0:0:0:
320,192,201117,1,0,0:0:0:0:
448,192,201267,1,0,0:0:0:0:
320,192,201267,1,8,0:0:0:0:
64,192,201267,1,0,0:0:0:0:
192,192,201342,1,0,0:0:0:0:
320,192,201417,1,8,0:0:0:0:
448,192,201417,1,0,0:0:0:0:
64,192,201492,1,0,0:0:0:0:
192,192,201567,1,8,0:0:0:0:
448,192,201567,1,0,0:0:0:0:
320,192,201567,1,0,0:0:0:0:
64,192,201717,1,0,0:0:0:0:
192,192,201717,1,8,0:0:0:0:
448,192,201717,1,0,0:0:0:0:
320,192,201867,1,8,0:0:0:0:
64,192,201867,1,0,0:0:0:0:
192,192,201867,1,0,0:0:0:0:
448,192,201942,1,0,0:0:0:0:
320,192,202017,1,8,0:0:0:0:
64,192,202017,1,0,0:0:0:0:
192,192,202092,1,0,0:0:0:0:
320,192,202167,1,8,0:0:0:0:
448,192,202167,1,0,0:0:0:0:
64,192,202167,1,0,0:0:0:0:
192,192,202317,1,0,0:0:0:0:
320,192,202317,1,8,0:0:0:0:
448,192,202317,1,0,0:0:0:0:
64,192,202467,1,0,0:0:0:0:
192,192,202467,1,8,0:0:0:0:
448,192,202467,1,0,0:0:0:0:
320,192,202542,1,0,0:0:0:0:
64,192,202617,1,0,0:0:0:0:
192,192,202617,1,8,0:0:0:0:
320,192,202692,1,0,0:0:0:0:
448,192,202767,1,0,0:0:0:0:
192,192,202767,1,8,0:0:0:0:
64,192,202767,1,0,0:0:0:0:
320,192,202917,1,8,0:0:0:0:
192,192,202917,1,0,0:0:0:0:
448,192,202954,1,8,0:0:0:0:
64,192,202992,1,8,0:0:0:0:
192,192,203029,1,8,0:0:0:0:
320,192,203067,1,8,0:0:0:0:
448,192,203067,1,0,0:0:0:0:
64,192,203142,1,8,0:0:0:0:
192,192,203217,1,8,0:0:0:0:
320,192,203217,1,0,0:0:0:0:
448,192,203292,1,0,0:0:0:0:
64,192,203292,1,8,0:0:0:0:
192,192,203367,1,8,0:0:0:0:
320,192,203367,1,0,0:0:0:0:
448,192,203367,1,4,0:0:0:0:
64,192,203517,1,0,0:0:0:0:
192,192,203517,1,0,0:0:0:0:
320,192,203517,1,8,0:0:0:0:
448,192,203667,1,0,0:0:0:0:
64,192,203667,1,0,0:0:0:0:
192,192,203667,1,8,0:0:0:0:
320,192,203742,1,0,0:0:0:0:
448,192,203817,1,0,0:0:0:0:
64,192,203817,1,8,0:0:0:0:
320,192,203892,1,0,0:0:0:0:
192,192,203967,1,8,0:0:0:0:
64,192,203967,1,0,0:0:0:0:
448,192,203967,1,0,0:0:0:0:
320,192,204117,1,8,0:0:0:0:
448,192,204117,1,0,0:0:0:0:
192,192,204117,1,0,0:0:0:0:
64,192,204267,1,0,0:0:0:0:
192,192,204267,1,0,0:0:0:0:
320,192,204267,1,8,0:0:0:0:
448,192,204342,1,0,0:0:0:0:
64,192,204417,1,0,0:0:0:0:
320,192,204417,1,8,0:0:0:0:
192,192,204492,1,0,0:0:0:0:
448,192,204567,1,0,0:0:0:0:
320,192,204567,1,8,0:0:0:0:
64,192,204642,1,0,0:0:0:0:
192,192,204642,1,8,0:0:0:0:
320,192,204717,1,8,0:0:0:0:
448,192,204717,1,0,0:0:0:0:
64,192,204792,1,0,0:0:0:0:
192,192,204792,1,8,0:0:0:0:
448,192,204867,1,0,0:0:0:0:
320,192,204867,1,8,0:0:0:0:
64,192,204942,1,0,0:0:0:0:
192,192,204942,1,8,0:0:0:0:
448,192,205017,1,0,0:0:0:0:
320,192,205017,1,8,0:0:0:0:
192,192,205092,1,8,0:0:0:0:
64,192,205092,1,0,0:0:0:0:
448,192,205167,1,8,0:0:0:0:
320,192,205204,1,8,0:0:0:0:
192,192,205242,1,8,0:0:0:0:
64,192,205242,1,8,0:0:0:0:
448,192,205317,1,8,0:0:0:0:
320,192,205354,1,8,0:0:0:0:
192,192,205392,1,8,0:0:0:0:
64,192,205392,1,8,0:0:0:0:
448,192,205467,1,8,0:0:0:0:
320,192,205467,128,4,205542:0:0:0:0:
64,192,205542,128,0,205617:0:0:0:0:
192,192,205617,128,0,205692:0:0:0:0:
320,192,205692,128,0,205767:0:0:0:0:
64,192,205767,1,0,0:0:0:0:
192,192,205767,1,8,0:0:0:0:
448,192,205767,1,0,0:0:0:0:
320,192,205917,1,0,0:0:0:0:
64,192,205917,1,0,0:0:0:0:
448,192,206067,1,0,0:0:0:0:
320,192,206067,1,0,0:0:0:0:
192,192,206067,1,8,0:0:0:0:
64,192,206142,1,0,0:0:0:0:
320,192,206217,1,0,0:0:0:0:
448,192,206292,1,0,0:0:0:0:
192,192,206367,1,0,0:0:0:0:
320,192,206367,1,8,0:0:0:0:
64,192,206367,1,0,0:0:0:0:
448,192,206517,1,0,0:0:0:0:
192,192,206517,1,0,0:0:0:0:
64,192,206667,1,0,0:0:0:0:
448,192,206667,1,0,0:0:0:0:
192,192,206667,1,8,0:0:0:0:
320,192,206742,1,0,0:0:0:0:
192,192,206817,1,0,0:0:0:0:
320,192,206892,1,0,0:0:0:0:
448,192,206967,1,0,0:0:0:0:
192,192,206967,1,8,0:0:0:0:
64,192,206967,1,0,0:0:0:0:
320,192,207117,1,0,0:0:0:0:
448,192,207117,1,0,0:0:0:0:
64,192,207267,1,0,0:0:0:0:
320,192,207267,1,0,0:0:0:0:
192,192,207267,1,8,0:0:0:0:
448,192,207342,1,0,0:0:0:0:
64,192,207417,1,0,0:0:0:0:
192,192,207492,1,0,0:0:0:0:
448,192,207567,1,0,0:0:0:0:
320,192,207567,1,8,0:0:0:0:
64,192,207567,1,0,0:0:0:0:
192,192,207717,1,0,0:0:0:0:
320,192,207717,1,8,0:0:0:0:
448,192,207717,1,0,0:0:0:0:
192,192,207867,1,8,0:0:0:0:
64,192,207867,1,0,0:0:0:0:
320,192,207942,1,8,0:0:0:0:
448,192,207942,1,0,0:0:0:0:
64,192,208017,1,0,0:0:0:0:
320,192,208092,1,8,0:0:0:0:
448,192,208092,1,0,0:0:0:0:
448,192,208167,1,0,0:0:0:0:
192,192,208167,1,8,0:0:0:0:
320,192,208167,1,4,0:0:0:0:
64,192,208317,1,0,0:0:0:0:
192,192,208317,1,0,0:0:0:0:
64,192,208467,1,0,0:0:0:0:
448,192,208467,1,0,0:0:0:0:
320,192,208467,1,8,0:0:0:0:
192,192,208542,1,0,0:0:0:0:
320,192,208617,1,0,0:0:0:0:
448,192,208692,1,0,0:0:0:0:
320,192,208767,1,0,0:0:0:0:
192,192,208767,1,8,0:0:0:0:
64,192,208767,1,0,0:0:0:0:
448,192,208917,1,0,0:0:0:0:
192,192,208917,1,0,0:0:0:0:
64,192,209067,1,0,0:0:0:0:
448,192,209067,1,0,0:0:0:0:
320,192,209067,1,8,0:0:0:0:
192,192,209142,1,0,0:0:0:0:
64,192,209217,1,0,0:0:0:0:
320,192,209292,1,0,0:0:0:0:
448,192,209367,1,0,0:0:0:0:
64,192,209367,1,0,0:0:0:0:
192,192,209367,1,8,0:0:0:0:
320,192,209517,1,0,0:0:0:0:
448,192,209517,1,0,0:0:0:0:
192,192,209667,1,0,0:0:0:0:
320,192,209667,1,8,0:0:0:0:
448,192,209667,1,0,0:0:0:0:
64,192,209742,1,0,0:0:0:0:
192,192,209817,1,0,0:0:0:0:
448,192,209817,1,0,0:0:0:0:
320,192,209892,1,0,0:0:0:0:
64,192,209967,1,0,0:0:0:0:
192,192,209967,1,8,0:0:0:0:
448,192,210042,1,0,0:0:0:0:
320,192,210042,1,8,0:0:0:0:
64,192,210117,1,0,0:0:0:0:
192,192,210117,1,8,0:0:0:0:
448,192,210192,1,0,0:0:0:0:
320,192,210192,1,8,0:0:0:0:
64,192,210267,1,8,0:0:0:0:
192,192,210304,1,8,0:0:0:0:
320,192,210342,1,8,0:0:0:0:
448,192,210379,1,8,0:0:0:0:
64,192,210417,1,8,0:0:0:0:
192,192,210454,1,8,0:0:0:0:
320,192,210492,1,8,0:0:0:0:
448,192,210529,1,8,0:0:0:0:
192,192,210567,1,8,0:0:0:0:
64,192,210567,1,4,0:0:0:0:
320,192,210642,1,0,0:0:0:0:
448,192,210717,1,0,0:0:0:0:
64,192,210792,1,0,0:0:0:0:
320,192,210867,1,2,0:0:0:0:
448,192,210867,1,0,0:0:0:0:
192,192,210867,1,0,0:0:0:0:
64,192,210942,1,0,0:0:0:0:
448,192,211017,1,0,0:0:0:0:
320,192,211092,1,0,0:0:0:0:
64,192,211167,1,0,0:0:0:0:
192,192,211167,1,0,3:0:0:0:
448,192,211242,1,0,0:0:0:0:
192,192,211317,1,0,3:0:0:0:
64,192,211317,1,0,0:0:0:0:
320,192,211392,1,0,0:0:0:0:
448,192,211467,1,0,0:0:0:0:
64,192,211467,1,0,0:0:0:0:
192,192,211467,1,2,0:0:0:0:
320,192,211542,1,0,0:0:0:0:
64,192,211617,1,0,0:0:0:0:
192,192,211692,1,0,0:0:0:0:
320,192,211767,1,0,3:0:0:0:
448,192,211767,1,0,0:0:0:0:
64,192,211842,1,0,0:0:0:0:
320,192,211917,1,0,3:0:0:0:
448,192,211917,1,0,0:0:0:0:
192,192,211992,1,0,0:0:0:0:
64,192,212067,1,0,0:0:0:0:
448,192,212067,1,0,0:0:0:0:
320,192,212067,1,2,0:0:0:0:
192,192,212142,1,0,0:0:0:0:
320,192,212217,1,0,0:0:0:0:
448,192,212292,1,0,0:0:0:0:
192,192,212367,1,0,3:0:0:0:
64,192,212367,1,0,0:0:0:0:
320,192,212442,1,0,0:0:0:0:
64,192,212517,1,0,3:0:0:0:
192,192,212517,1,0,0:0:0:0:
448,192,212592,1,0,0:0:0:0:
64,192,212667,1,0,0:0:0:0:
192,192,212667,1,2,0:0:0:0:
320,192,212667,128,0,212742:0:0:0:0:
448,192,212742,128,0,212817:0:0:0:0:
64,192,212817,128,0,212892:0:0:0:0:
192,192,212892,128,0,212967:0:0:0:0:
448,192,212967,1,0,0:0:0:0:
320,192,212967,1,0,3:0:0:0:
64,192,213042,1,0,0:0:0:0:
448,192,213117,1,0,0:0:0:0:
320,192,213117,1,0,3:0:0:0:
192,192,213192,1,0,0:0:0:0:
320,192,213267,1,2,0:0:0:0:
448,192,213267,1,0,0:0:0:0:
64,192,213267,128,0,213342:0:0:0:0:
192,192,213342,128,0,213417:0:0:0:0:
320,192,213417,128,0,213492:0:0:0:0:
448,192,213492,128,0,213567:0:0:0:0:
64,192,213567,128,0,214167:0:0:0:0:
192,192,213567,1,0,3:0:0:0:
320,192,213567,1,0,0:0:0:0:
448,192,213642,1,0,0:0:0:0:
192,192,213717,1,0,3:0:0:0:
320,192,213717,1,0,0:0:0:0:
448,192,213792,1,0,0:0:0:0:
192,192,213867,128,0,213942:0:0:0:0:
448,192,213942,128,0,214017:0:0:0:0:
320,192,214017,128,0,214092:0:0:0:0:
192,192,214092,128,0,214167:0:0:0:0:
320,192,214167,1,0,0:0:0:0:
448,192,214242,1,0,0:0:0:0:
64,192,214317,1,0,0:0:0:0:
448,192,214392,1,0,0:0:0:0:
192,192,214467,1,0,0:0:0:0:
448,192,214542,1,0,0:0:0:0:
320,192,214617,1,0,0:0:0:0:
448,192,214692,1,0,0:0:0:0:
192,192,214767,1,0,0:0:0:0:
448,192,214842,1,0,0:0:0:0:
64,192,214917,1,0,0:0:0:0:
448,192,214992,1,0,0:0:0:0:
320,192,215067,1,0,0:0:0:0:
64,192,215067,1,0,0:0:0:0:
192,192,215067,1,8,0:0:0:0:
64,192,215367,1,4,0:0:0:0:
192,192,215367,1,0,0:0:0:0:
320,192,215367,128,0,215817:0:0:0:0:
448,192,215367,128,8,217767:0:0:0:0:
64,192,217242,128,4,218967:0:0:0:0:
