osu file format v14

[General]
AudioFilename: Grimm (Kobaryo's FTN-Remix).mp3
AudioLeadIn: 0
PreviewTime: 148167
Countdown: 0
SampleSet: Normal
StackLeniency: 0.7
Mode: 3
LetterboxInBreaks: 0
SpecialStyle: 0
WidescreenStoryboard: 0

[Editor]
DistanceSpacing: 1.4
BeatDivisor: 4
GridSize: 4
TimelineZoom: 1.8

[Metadata]
Title:Grimm (Kobaryo's FTN-Remix)
TitleUnicode:Grimm (Kobaryo's FTИ-Remix)
Artist:RoughSketch feat.Aikapin
ArtistUnicode:RoughSketch feat.あいかぴん
Creator:CHARGE
Version:Easy
Source:
Tags:hanamushi distorted children speedcore hardcore electro burst hardstyle 花蟲 laughingcomet
BeatmapID:1272429
BeatmapSetID:597690

[Difficulty]
HPDrainRate:7
CircleSize:4
OverallDifficulty:7
ApproachRate:5
SliderMultiplier:1.4
SliderTickRate:1

[Events]
//Background and Video events
0,0,"grimm_logo.png",0,0
//Break Periods
//Storyboard Layer 0 (Background)
//Storyboard Layer 1 (Fail)
//Storyboard Layer 2 (Pass)
//Storyboard Layer 3 (Foreground)
//Storyboard Sound Samples

[TimingPoints]
567,300,4,1,1,50,1,0
28167,-100,4,1,1,50,0,1
47367,-100,4,1,1,50,0,0
148167,-100,4,1,1,50,0,1
167367,-100,4,1,1,50,0,0
176967,-100,4,1,1,50,0,1
195867,-100,4,1,1,50,0,0
196167,-100,4,1,1,50,0,1
205767,-100,4,1,1,50,0,0

[HitObjects]
192,192,567,5,0,0:0:0:0:
448,192,867,5,0,0:0:0:0:
320,192,1767,1,0,0:0:0:0:
64,192,2067,1,0,0:0:0:0:
192,192,2967,1,0,0:0:0:0:
448,192,3267,1,0,0:0:0:0:
64,192,4167,1,0,0:0:0:0:
320,192,4467,1,0,0:0:0:0:
192,192,4767,1,0,0:0:0:0:
448,192,5067,1,0,0:0:0:0:
192,192,5367,1,0,0:0:0:0:
64,192,5667,1,0,0:0:0:0:
320,192,6567,1,0,0:0:0:0:
64,192,6867,1,0,0:0:0:0:
192,192,7767,1,0,0:0:0:0:
448,192,8067,1,0,0:0:0:0:
320,192,8967,1,0,0:0:0:0:
64,192,9267,1,0,0:0:0:0:
448,192,9567,1,0,0:0:0:0:
192,192,9867,1,0,0:0:0:0:
448,192,10167,1,0,0:0:0:0:
64,192,10167,1,0,0:0:0:0:
320,192,11367,1,0,0:0:0:0:
448,192,11367,1,0,0:0:0:0:
64,192,12567,1,0,0:0:0:0:
448,192,12567,1,0,0:0:0:0:
192,192,13767,1,0,0:0:0:0:
64,192,13767,1,0,0:0:0:0:
448,192,14367,1,0,0:0:0:0:
320,192,14367,1,0,0:0:0:0:
64,192,14967,1,0,0:0:0:0:
448,192,14967,1,0,0:0:0:0:
192,192,16167,1,0,0:0:0:0:
320,192,16167,1,0,0:0:0:0:
64,192,17367,1,0,0:0:0:0:
320,192,17367,1,0,0:0:0:0:
448,192,18567,1,0,0:0:0:0:
64,192,18567,1,0,0:0:0:0:
192,192,19167,1,0,0:0:0:0:
320,192,19167,1,0,0:0:0:0:
448,192,19767,128,0,20967:0:0:0:0:
64,192,20967,128,0,23367:0:0:0:0:
192,192,23367,128,0,26967:0:0:0:0:
448,192,26967,128,8,27267:0:0:0:0:
320,192,27267,128,8,27567:0:0:0:0:
64,192,27567,128,8,27867:0:0:0:0:
192,192,27867,1,12,0:0:0:0:
448,192,28167,1,8,0:0:0:0:
320,192,28467,1,8,0:0:0:0:
192,192,28767,1,8,0:0:0:0:
64,192,29067,1,8,0:0:0:0:
320,192,29367,1,8,0:0:0:0:
64,192,29667,1,8,0:0:0:0:
192,192,29967,1,8,0:0:0:0:
320,192,30267,1,8,0:0:0:0:
448,192,30417,1,8,0:0:0:0:
192,192,30567,1,12,0:0:0:0:
448,192,30867,1,8,0:0:0:0:
64,192,31167,1,8,0:0:0:0:
320,192,31467,1,8,0:0:0:0:
192,192,31767,1,8,0:0:0:0:
448,192,32067,1,8,0:0:0:0:
64,192,32367,1,8,0:0:0:0:
320,192,32667,1,8,0:0:0:0:
192,192,32817,1,8,0:0:0:0:
320,192,32967,1,12,0:0:0:0:
448,192,33267,1,8,0:0:0:0:
64,192,33567,1,8,0:0:0:0:
320,192,33867,1,8,0:0:0:0:
192,192,34167,1,8,0:0:0:0:
448,192,34467,1,8,0:0:0:0:
64,192,34767,1,8,0:0:0:0:
192,192,35067,1,8,0:0:0:0:
448,192,35217,1,8,0:0:0:0:
320,192,35367,1,12,0:0:0:0:
64,192,35667,1,8,0:0:0:0:
448,192,35967,1,8,0:0:0:0:
192,192,36267,1,8,0:0:0:0:
64,192,36567,128,8,36867:0:0:0:0:
192,192,36867,128,8,37167:0:0:0:0:
320,192,37167,128,8,37467:0:0:0:0:
64,192,37317,128,0,37467:0:0:0:0:
448,192,37467,1,2,0:0:0:0:
64,192,37767,1,12,0:0:0:0:
320,192,38067,1,8,0:0:0:0:
192,192,38367,1,8,0:0:0:0:
448,192,38667,1,8,0:0:0:0:
320,192,38967,1,8,0:0:0:0:
64,192,39267,1,8,0:0:0:0:
192,192,39567,1,8,0:0:0:0:
320,192,39867,1,8,0:0:0:0:
448,192,40017,1,8,0:0:0:0:
192,192,40167,1,12,0:0:0:0:
320,192,40467,1,8,0:0:0:0:
448,192,40767,1,8,0:0:0:0:
64,192,41067,1,8,0:0:0:0:
320,192,41367,1,8,0:0:0:0:
192,192,41667,1,8,0:0:0:0:
448,192,41967,1,8,0:0:0:0:
192,192,42267,1,8,0:0:0:0:
320,192,42417,1,8,0:0:0:0:
64,192,42567,1,12,0:0:0:0:
448,192,42867,1,8,0:0:0:0:
320,192,43167,1,8,0:0:0:0:
192,192,43467,1,8,0:0:0:0:
448,192,43767,1,8,0:0:0:0:
320,192,44067,1,8,0:0:0:0:
64,192,44367,1,8,0:0:0:0:
320,192,44667,1,8,0:0:0:0:
448,192,44817,1,8,0:0:0:0:
64,192,44967,1,12,0:0:0:0:
320,192,45267,1,8,0:0:0:0:
192,192,45567,1,8,0:0:0:0:
448,192,45867,1,8,0:0:0:0:
64,192,46167,128,8,46467:0:0:0:0:
448,192,46467,128,8,46767:0:0:0:0:
192,192,46767,128,8,47067:0:0:0:0:
64,192,47067,1,6,0:0:0:0:
320,192,47367,1,8,0:0:0:0:
320,192,47817,1,8,0:0:0:0:
192,192,48267,1,0,0:0:0:0:
320,192,48417,1,0,0:0:0:0:
448,192,48567,1,0,0:0:0:0:
64,192,48867,1,2,0:0:0:0:
320,192,49467,1,2,0:0:0:0:
448,192,49767,1,8,0:0:0:0:
64,192,49917,1,0,0:0:0:0:
448,192,50217,1,8,0:0:0:0:
320,192,50667,1,0,0:0:0:0:
64,192,50817,1,0,0:0:0:0:
192,192,50967,1,0,0:0:0:0:
448,192,51267,1,2,0:0:0:0:
320,192,51867,1,2,0:0:0:0:
64,192,52167,1,8,0:0:0:0:
64,192,52617,1,8,0:0:0:0:
448,192,53067,1,0,0:0:0:0:
320,192,53217,1,0,0:0:0:0:
192,192,53367,1,0,0:0:0:0:
64,192,53667,1,2,0:0:0:0:
448,192,54267,1,2,0:0:0:0:
320,192,54567,1,8,0:0:0:0:
192,192,54717,1,0,0:0:0:0:
320,192,55017,1,8,0:0:0:0:
192,192,55467,1,0,0:0:0:0:
320,192,55617,1,0,0:0:0:0:
448,192,55767,1,0,0:0:0:0:
320,192,56067,1,0,0:0:0:0:
192,192,56367,1,0,0:0:0:0:
64,192,56667,1,12,0:0:0:0:
448,192,56967,1,8,0:0:0:0:
192,192,57267,1,8,0:0:0:0:
320,192,57567,128,8,57717:0:0:0:0:
64,192,57867,1,8,0:0:0:0:
192,192,58167,128,8,58317:0:0:0:0:
448,192,58467,128,8,58617:0:0:0:0:
320,192,58767,1,8,0:0:0:0:
64,192,59067,1,8,0:0:0:0:
192,192,59367,1,8,0:0:0:0:
448,192,59667,1,8,0:0:0:0:
320,192,59967,128,8,60117:0:0:0:0:
192,192,60267,1,8,0:0:0:0:
64,192,60567,128,8,60717:0:0:0:0:
448,192,60867,128,8,61017:0:0:0:0:
192,192,61167,1,8,0:0:0:0:
320,192,61317,1,8,0:0:0:0:
448,192,61467,1,8,0:0:0:0:
192,192,61617,1,8,0:0:0:0:
64,192,61767,1,12,0:0:0:0:
320,192,62067,1,8,0:0:0:0:
192,192,62367,128,8,62517:0:0:0:0:
448,192,62667,1,8,0:0:0:0:
320,192,62967,128,8,63117:0:0:0:0:
64,192,63267,128,8,63417:0:0:0:0:
192,192,63567,1,8,0:0:0:0:
448,192,63867,128,8,64017:0:0:0:0:
320,192,64167,1,8,0:0:0:0:
64,192,64467,1,8,0:0:0:0:
192,192,64767,128,8,64917:0:0:0:0:
320,192,65067,1,8,0:0:0:0:
64,192,65367,1,8,0:0:0:0:
192,192,65517,1,8,0:0:0:0:
320,192,65667,1,8,0:0:0:0:
64,192,65817,128,0,65967:0:0:0:0:
448,192,65967,1,8,0:0:0:0:
320,192,66117,1,8,0:0:0:0:
192,192,66267,1,4,0:0:0:0:
448,192,66567,1,8,0:0:0:0:
320,192,66867,1,2,0:0:0:0:
64,192,67167,1,8,0:0:0:0:
192,192,67317,1,2,0:0:0:0:
448,192,67617,1,8,0:0:0:0:
320,192,67767,1,2,0:0:0:0:
192,192,68067,1,8,0:0:0:0:
64,192,68217,1,2,0:0:0:0:
192,192,68517,1,8,0:0:0:0:
448,192,68667,1,2,0:0:0:0:
320,192,68967,1,8,0:0:0:0:
64,192,69267,1,10,0:0:0:0:
192,192,69567,1,8,0:0:0:0:
448,192,69717,1,2,0:0:0:0:
320,192,70017,1,8,0:0:0:0:
64,192,70167,1,2,0:0:0:0:
192,192,70467,1,8,0:0:0:0:
320,192,70617,1,2,0:0:0:0:
448,192,70917,1,8,0:0:0:0:
192,192,71067,128,2,71367:0:0:0:0:
448,192,71517,1,12,0:0:0:0:
320,192,71667,1,10,0:0:0:0:
64,192,71967,1,8,0:0:0:0:
192,192,72117,1,2,0:0:0:0:
448,192,72417,1,8,0:0:0:0:
64,192,72567,1,2,0:0:0:0:
320,192,72867,1,8,0:0:0:0:
192,192,73017,1,2,0:0:0:0:
448,192,73317,1,8,0:0:0:0:
320,192,73467,1,2,0:0:0:0:
64,192,73767,1,8,0:0:0:0:
192,192,74067,1,2,0:0:0:0:
448,192,74367,1,8,0:0:0:0:
320,192,74517,1,2,0:0:0:0:
64,192,74817,1,8,0:0:0:0:
448,192,74967,1,10,0:0:0:0:
192,192,75167,1,8,0:0:0:0:
320,192,75367,1,8,0:0:0:0:
64,192,75567,1,10,0:0:0:0:
448,192,75767,1,8,0:0:0:0:
64,192,75967,1,10,0:0:0:0:
448,192,76167,1,8,0:0:0:0:
192,192,76167,128,4,76617:0:0:0:0:
320,192,78567,128,0,80967:0:0:0:0:
64,192,80967,1,0,0:0:0:50:thunder_strike.wav
320,192,81417,1,0,0:0:0:0:
192,192,81867,1,0,0:0:0:0:
448,192,82167,1,0,0:0:0:0:
64,192,82617,1,0,0:0:0:0:
448,192,83067,1,0,0:0:0:0:
192,192,83367,1,0,0:0:0:0:
320,192,83817,1,0,0:0:0:0:
192,192,84267,1,0,0:0:0:0:
448,192,84567,1,0,0:0:0:0:
64,192,85017,1,0,0:0:0:0:
192,192,85767,1,0,0:0:0:0:
320,192,86217,1,0,0:0:0:0:
320,192,86667,1,0,0:0:0:0:
64,192,86967,1,0,0:0:0:0:
448,192,87417,1,0,0:0:0:0:
448,192,87867,1,0,0:0:0:0:
192,192,88167,1,0,0:0:0:0:
320,192,88617,1,0,0:0:0:0:
320,192,89067,1,0,0:0:0:0:
64,192,89367,1,0,0:0:0:0:
448,192,89817,128,0,90567:0:0:0:0:
192,192,90267,1,0,0:0:0:0:
320,192,90567,1,4,0:0:0:0:
64,192,91017,1,0,0:0:0:0:
448,192,91467,1,0,0:0:0:0:
192,192,91767,1,0,0:0:0:0:
448,192,92217,1,0,0:0:0:0:
320,192,92667,1,0,0:0:0:0:
64,192,92967,1,0,0:0:0:0:
448,192,93417,1,0,0:0:0:0:
192,192,93867,1,0,0:0:0:0:
320,192,94167,1,0,0:0:0:0:
64,192,94617,1,0,0:0:0:0:
448,192,95367,1,0,0:0:0:0:
320,192,95817,1,0,0:0:0:0:
64,192,96267,1,0,0:0:0:0:
448,192,96567,1,0,0:0:0:0:
192,192,97017,1,0,0:0:0:0:
320,192,97467,1,0,0:0:0:0:
64,192,97767,1,0,0:0:0:0:
448,192,98217,1,0,0:0:0:0:
192,192,98667,1,0,0:0:0:0:
320,192,98967,1,0,0:0:0:0:
64,192,99417,1,0,0:0:0:0:
448,192,100167,128,0,101367:0:0:0:0:
64,192,101367,1,0,0:0:0:0:
192,192,101817,1,0,0:0:0:0:
320,192,102567,128,0,103767:0:0:0:0:
448,192,103767,1,0,0:0:0:0:
64,192,104067,1,0,0:0:0:0:
64,192,104367,1,0,0:0:0:0:
448,192,104667,1,0,0:0:0:0:
448,192,104967,128,0,106167:0:0:0:0:
192,192,105267,1,0,0:0:0:0:
64,192,106167,1,0,0:0:0:0:
320,192,106617,1,0,0:0:0:0:
192,192,107367,128,0,108567:0:0:0:0:
448,192,108567,1,0,0:0:0:0:
320,192,108867,1,0,0:0:0:0:
320,192,109167,1,0,0:0:0:0:
192,192,109467,1,0,0:0:0:0:
192,192,109767,1,4,0:0:0:0:
320,192,110217,1,0,3:0:0:0:
64,192,110367,1,2,0:0:0:0:
448,192,110667,1,0,3:0:0:0:
64,192,110967,1,0,3:0:0:0:
320,192,111417,1,0,0:0:0:0:
448,192,111567,1,2,0:0:0:0:
192,192,111867,1,0,3:0:0:0:
448,192,112167,1,0,3:0:0:0:
320,192,112617,1,0,3:0:0:0:
192,192,112767,1,2,0:0:0:0:
64,192,113067,1,0,3:0:0:0:
192,192,113367,1,0,0:0:0:0:
448,192,113817,1,0,0:0:0:0:
64,192,113967,1,2,0:0:0:0:
320,192,114267,1,0,3:0:0:0:
192,192,114567,1,0,3:0:0:0:
192,192,115017,1,0,3:0:0:0:
320,192,115167,1,2,0:0:0:0:
448,192,115467,1,0,3:0:0:0:
192,192,115767,1,0,0:0:0:0:
320,192,116217,1,0,0:0:0:0:
448,192,116367,1,2,0:0:0:0:
64,192,116667,1,0,3:0:0:0:
448,192,116967,1,0,3:0:0:0:
192,192,117417,1,0,3:0:0:0:
64,192,117567,1,2,0:0:0:0:
320,192,117867,1,0,3:0:0:0:
448,192,118167,1,0,0:0:0:0:
64,192,118617,1,0,0:0:0:0:
320,192,118767,1,2,0:0:0:0:
192,192,119067,1,0,3:0:0:0:
448,192,119367,128,0,120567:3:0:0:0:
320,192,119367,128,0,120567:0:0:0:0:
64,192,119967,1,2,0:0:0:0:
64,192,120567,1,0,3:0:0:0:
192,192,121017,1,0,0:0:0:0:
320,192,121167,1,2,0:0:0:0:
448,192,121467,1,0,3:0:0:0:
64,192,121767,128,0,122967:3:0:0:0:
192,192,121767,128,0,122967:0:0:0:0:
448,192,122367,1,2,0:0:0:0:
320,192,122967,1,0,0:0:0:0:
448,192,123267,1,0,3:0:0:0:
192,192,123567,1,2,0:0:0:0:
320,192,123867,1,0,3:0:0:0:
64,192,124167,128,0,125367:3:0:0:0:
448,192,124167,128,0,125367:0:0:0:0:
192,192,124767,1,2,0:0:0:0:
320,192,125367,1,0,3:0:0:0:
192,192,125817,1,0,0:0:0:0:
64,192,125967,1,2,0:0:0:0:
448,192,126267,1,0,3:0:0:0:
64,192,126567,128,0,127467:3:0:0:0:
320,192,127167,1,2,0:0:0:0:
448,192,127467,1,0,3:0:0:0:
192,192,127767,1,4,0:0:0:0:
448,192,128667,1,0,0:0:0:0:
320,192,128967,1,8,0:0:0:0:
64,192,129192,1,0,0:0:0:0:
64,192,129417,1,0,0:0:0:0:
320,192,129642,1,0,0:0:0:0:
192,192,129867,1,0,0:0:0:0:
448,192,130167,1,0,0:0:0:0:
320,192,130392,1,0,0:0:0:0:
192,192,130617,1,0,0:0:0:0:
448,192,130842,1,0,0:0:0:0:
64,192,131067,1,0,0:0:0:0:
192,192,131367,1,0,0:0:0:0:
320,192,131592,1,0,0:0:0:0:
320,192,131817,1,0,0:0:0:0:
64,192,132042,1,0,0:0:0:0:
448,192,132267,1,0,0:0:0:0:
64,192,132567,1,0,0:0:0:0:
320,192,132792,1,0,0:0:0:0:
64,192,133017,1,0,0:0:0:0:
192,192,133242,1,0,0:0:0:0:
448,192,133467,1,0,0:0:0:0:
192,192,133767,1,0,0:0:0:0:
320,192,133992,1,0,0:0:0:0:
320,192,134217,1,0,0:0:0:0:
192,192,134442,1,0,0:0:0:0:
64,192,134667,1,0,0:0:0:0:
448,192,134967,1,0,0:0:0:0:
320,192,135192,1,0,0:0:0:0:
192,192,135417,1,0,0:0:0:0:
64,192,135642,1,0,0:0:0:0:
448,192,135867,1,0,0:0:0:0:
320,192,136167,1,0,0:0:0:0:
64,192,136392,1,0,0:0:0:0:
64,192,136617,1,0,0:0:0:0:
448,192,136842,1,0,0:0:0:0:
192,192,137067,1,0,0:0:0:0:
448,192,137367,1,0,0:0:0:0:
64,192,137592,1,0,0:0:0:0:
192,192,137817,1,0,0:0:0:0:
320,192,137967,128,0,138567:0:0:0:0:
448,192,137967,128,0,138267:0:0:0:0:
64,192,138567,1,8,0:0:0:0:
448,192,138567,1,4,0:0:0:0:
192,192,138867,1,2,0:0:0:0:
320,192,139467,1,2,0:0:0:0:
64,192,139767,1,8,0:0:0:0:
448,192,139767,1,0,0:0:0:0:
192,192,140067,1,2,0:0:0:0:
320,192,140667,1,2,0:0:0:0:
64,192,140967,1,8,0:0:0:0:
448,192,140967,1,0,0:0:0:0:
192,192,141267,1,2,0:0:0:0:
64,192,141567,1,8,0:0:0:0:
448,192,141567,1,0,0:0:0:0:
320,192,141867,1,2,0:0:0:0:
64,192,142167,1,8,0:0:0:0:
448,192,142167,1,0,0:0:0:0:
64,192,142467,1,8,0:0:0:0:
448,192,142767,1,8,0:0:0:0:
64,192,142767,1,0,0:0:0:0:
192,192,143367,1,8,0:0:0:0:
64,192,143367,1,0,0:0:0:0:
320,192,143667,1,8,0:0:0:0:
448,192,143967,1,8,0:0:0:0:
192,192,144267,1,8,0:0:0:0:
64,192,144567,1,8,0:0:0:0:
64,192,144867,1,8,0:0:0:0:
320,192,145167,1,8,0:0:0:0:
320,192,145467,1,8,0:0:0:0:
64,192,145767,128,8,146967:0:0:0:0:
448,192,146367,128,8,146967:0:0:0:0:
192,192,146967,1,8,0:0:0:0:
64,192,147267,1,2,0:0:0:0:
320,192,147567,128,0,147867:0:0:0:0:
448,192,147567,128,0,147867:0:0:0:0:
192,192,147867,1,12,0:0:0:0:
64,192,148167,1,8,0:0:0:0:
192,192,148392,1,0,0:0:0:0:
192,192,148617,1,8,0:0:0:0:
448,192,148842,1,0,0:0:0:0:
320,192,149067,1,8,0:0:0:0:
64,192,149367,1,8,0:0:0:0:
448,192,149592,1,0,0:0:0:0:
448,192,149817,1,8,0:0:0:0:
192,192,150042,1,0,0:0:0:0:
320,192,150267,1,8,0:0:0:0:
64,192,150567,1,8,0:0:0:0:
448,192,150792,1,0,0:0:0:0:
448,192,151017,1,8,0:0:0:0:
192,192,151242,1,0,0:0:0:0:
320,192,151467,1,8,0:0:0:0:
448,192,151767,1,8,0:0:0:0:
64,192,151992,1,0,0:0:0:0:
320,192,152217,1,8,0:0:0:0:
192,192,152367,128,8,152667:0:0:0:0:
448,192,152667,1,8,0:0:0:0:
64,192,152967,1,12,0:0:0:0:
448,192,153192,1,0,0:0:0:0:
448,192,153417,1,8,0:0:0:0:
192,192,153642,1,0,0:0:0:0:
320,192,153867,1,8,0:0:0:0:
64,192,154167,1,8,0:0:0:0:
192,192,154392,1,0,0:0:0:0:
192,192,154617,1,8,0:0:0:0:
448,192,154842,1,0,0:0:0:0:
320,192,155067,1,8,0:0:0:0:
64,192,155367,1,8,0:0:0:0:
448,192,155592,1,0,0:0:0:0:
448,192,155817,1,8,0:0:0:0:
192,192,156042,1,0,0:0:0:0:
448,192,156267,1,8,0:0:0:0:
320,192,156567,1,0,0:0:0:0:
192,192,156867,1,0,0:0:0:0:
64,192,157167,128,8,157467:0:0:0:0:
448,192,157467,1,8,0:0:0:0:
320,192,157467,1,4,0:0:0:0:
192,192,157767,1,8,0:0:0:0:
448,192,157992,1,0,0:0:0:0:
448,192,158217,1,8,0:0:0:0:
64,192,158442,1,0,0:0:0:0:
320,192,158667,1,8,0:0:0:0:
192,192,158967,1,8,0:0:0:0:
64,192,159192,1,0,0:0:0:0:
64,192,159417,1,8,0:0:0:0:
320,192,159642,1,0,0:0:0:0:
448,192,159867,1,8,0:0:0:0:
192,192,160167,1,8,0:0:0:0:
320,192,160392,1,0,0:0:0:0:
320,192,160617,1,8,0:0:0:0:
448,192,160842,1,0,0:0:0:0:
64,192,161067,1,8,0:0:0:0:
192,192,161367,1,8,0:0:0:0:
448,192,161592,1,8,0:0:0:0:
320,192,161817,1,8,0:0:0:0:
64,192,161967,128,8,162267:0:0:0:0:
448,192,162267,128,8,162567:0:0:0:0:
192,192,162567,1,12,0:0:0:0:
64,192,162792,1,0,0:0:0:0:
64,192,163017,1,8,0:0:0:0:
320,192,163242,1,0,0:0:0:0:
192,192,163467,1,8,0:0:0:0:
448,192,163767,1,8,0:0:0:0:
320,192,163992,1,0,0:0:0:0:
64,192,164217,1,8,0:0:0:0:
192,192,164442,1,0,0:0:0:0:
448,192,164667,1,8,0:0:0:0:
320,192,164967,1,8,0:0:0:0:
64,192,165192,1,8,0:0:0:0:
64,192,165417,1,8,0:0:0:0:
448,192,165642,1,0,0:0:0:0:
192,192,165867,1,8,0:0:0:0:
448,192,166167,1,8,0:0:0:0:
64,192,166392,1,8,0:0:0:0:
192,192,166617,1,8,0:0:0:0:
448,192,166767,128,8,167067:0:0:0:0:
64,192,166917,1,8,0:0:0:0:
192,192,167067,1,6,0:0:0:0:
320,192,167367,5,8,0:0:0:0:
64,192,167667,1,2,0:0:0:0:
64,192,168267,1,2,0:0:0:0:
192,192,168567,1,0,0:0:0:0:
448,192,168867,1,2,0:0:0:0:
448,192,169467,1,2,0:0:0:0:
320,192,169767,1,0,0:0:0:0:
192,192,170067,1,2,0:0:0:0:
192,192,170667,1,2,0:0:0:0:
320,192,170967,1,0,0:0:0:0:
64,192,171267,1,2,0:0:0:0:
64,192,171867,1,2,0:0:0:0:
192,192,172167,1,0,0:0:0:0:
448,192,172467,1,2,0:0:0:0:
448,192,173067,1,2,0:0:0:0:
64,192,173367,1,0,0:0:0:0:
320,192,173667,1,2,0:0:0:0:
320,192,174267,1,2,0:0:0:0:
64,192,174567,1,0,0:0:0:0:
448,192,175017,1,0,0:0:0:0:
320,192,175467,1,2,0:0:0:0:
192,192,175767,128,8,176367:0:0:0:0:
448,192,176367,128,8,176667:0:0:0:0:
320,192,176667,1,12,0:0:0:0:
64,192,176967,1,8,0:0:0:0:
320,192,177192,1,0,0:0:0:0:
320,192,177417,1,8,0:0:0:0:
192,192,177642,1,0,0:0:0:0:
448,192,177867,1,8,0:0:0:0:
64,192,178167,1,8,0:0:0:0:
320,192,178392,1,0,0:0:0:0:
192,192,178617,1,8,0:0:0:0:
448,192,178842,1,0,0:0:0:0:
320,192,179067,1,8,0:0:0:0:
64,192,179367,1,8,0:0:0:0:
192,192,179592,1,0,0:0:0:0:
192,192,179817,1,8,0:0:0:0:
448,192,180042,1,0,0:0:0:0:
64,192,180267,1,8,0:0:0:0:
320,192,180567,1,8,0:0:0:0:
192,192,180792,1,0,0:0:0:0:
448,192,181017,1,8,0:0:0:0:
64,192,181167,1,8,0:0:0:0:
192,192,181317,1,8,0:0:0:0:
320,192,181467,1,8,0:0:0:0:
448,192,181617,1,8,0:0:0:0:
64,192,181767,1,12,0:0:0:0:
320,192,181992,1,0,0:0:0:0:
320,192,182217,1,8,0:0:0:0:
64,192,182442,1,0,0:0:0:0:
192,192,182667,1,8,0:0:0:0:
448,192,182967,1,8,0:0:0:0:
320,192,183192,1,0,0:0:0:0:
64,192,183417,1,8,0:0:0:0:
192,192,183642,1,0,0:0:0:0:
448,192,183867,1,8,0:0:0:0:
320,192,184167,1,8,0:0:0:0:
64,192,184392,1,0,0:0:0:0:
64,192,184617,1,8,0:0:0:0:
448,192,184842,1,0,0:0:0:0:
192,192,185067,1,8,0:0:0:0:
320,192,185367,1,8,0:0:0:0:
192,192,185667,1,8,0:0:0:0:
64,192,185967,128,8,186267:0:0:0:0:
448,192,186267,1,12,0:0:0:0:
192,192,186567,1,8,0:0:0:0:
448,192,186792,1,0,0:0:0:0:
448,192,187017,1,8,0:0:0:0:
64,192,187242,1,0,0:0:0:0:
320,192,187467,1,8,0:0:0:0:
448,192,187767,1,8,0:0:0:0:
320,192,187992,1,0,0:0:0:0:
64,192,188217,1,8,0:0:0:0:
448,192,188442,1,0,0:0:0:0:
192,192,188667,1,8,0:0:0:0:
320,192,188967,1,8,0:0:0:0:
64,192,189192,1,0,0:0:0:0:
64,192,189417,1,8,0:0:0:0:
192,192,189642,1,0,0:0:0:0:
448,192,189867,1,8,0:0:0:0:
320,192,190167,1,8,0:0:0:0:
192,192,190392,1,8,0:0:0:0:
64,192,190617,1,8,0:0:0:0:
448,192,190767,128,8,191067:0:0:0:0:
64,192,191067,128,8,191367:0:0:0:0:
320,192,191367,1,12,0:0:0:0:
192,192,191592,1,8,0:0:0:0:
192,192,191817,1,8,0:0:0:0:
448,192,192042,1,8,0:0:0:0:
320,192,192267,1,8,0:0:0:0:
64,192,192567,1,8,0:0:0:0:
192,192,192792,1,8,0:0:0:0:
448,192,193017,1,8,0:0:0:0:
320,192,193242,1,8,0:0:0:0:
64,192,193467,128,8,193767:0:0:0:0:
192,192,193767,1,12,0:0:0:0:
448,192,193992,1,8,0:0:0:0:
448,192,194217,1,8,0:0:0:0:
320,192,194442,1,8,0:0:0:0:
64,192,194667,1,8,0:0:0:0:
192,192,194967,1,8,0:0:0:0:
320,192,195192,1,8,0:0:0:0:
64,192,195417,1,8,0:0:0:0:
192,192,195567,128,8,195867:0:0:0:0:
320,192,195867,1,12,0:0:0:0:
448,192,196167,1,8,0:0:0:0:
192,192,196467,1,8,0:0:0:0:
320,192,196767,1,8,0:0:0:0:
64,192,197067,1,8,0:0:0:0:
448,192,197367,1,8,0:0:0:0:
320,192,197667,1,8,0:0:0:0:
64,192,197967,1,8,0:0:0:0:
192,192,198267,1,8,0:0:0:0:
320,192,198417,1,8,0:0:0:0:
64,192,198567,1,12,0:0:0:0:
448,192,198867,1,8,0:0:0:0:
192,192,199167,1,8,0:0:0:0:
320,192,199467,1,8,0:0:0:0:
64,192,199767,1,8,0:0:0:0:
192,192,200067,1,8,0:0:0:0:
448,192,200367,1,8,0:0:0:0:
64,192,200667,1,8,0:0:0:0:
320,192,200817,1,8,0:0:0:0:
192,192,200967,1,12,0:0:0:0:
448,192,201267,1,8,0:0:0:0:
64,192,201567,1,8,0:0:0:0:
192,192,201867,1,8,0:0:0:0:
448,192,202167,1,8,0:0:0:0:
320,192,202467,1,8,0:0:0:0:
64,192,202767,1,8,0:0:0:0:
192,192,203067,1,8,0:0:0:0:
448,192,203217,1,8,0:0:0:0:
320,192,203367,1,12,0:0:0:0:
64,192,203667,1,8,0:0:0:0:
448,192,203967,1,8,0:0:0:0:
192,192,204267,1,8,0:0:0:0:
64,192,204567,1,8,0:0:0:0:
64,192,204867,1,8,0:0:0:0:
64,192,205167,128,8,205467:0:0:0:0:
192,192,205467,1,8,0:0:0:0:
320,192,205467,1,4,0:0:0:0:
448,192,205767,1,8,0:0:0:0:
64,192,206067,1,8,0:0:0:0:
448,192,206367,1,8,0:0:0:0:
64,192,206667,1,8,0:0:0:0:
448,192,206967,1,8,0:0:0:0:
64,192,207267,1,8,0:0:0:0:
448,192,207567,1,8,0:0:0:0:
320,192,207717,1,8,0:0:0:0:
192,192,207867,1,8,0:0:0:0:
64,192,208167,1,8,0:0:0:0:
448,192,208467,1,8,0:0:0:0:
64,192,208767,1,8,0:0:0:0:
448,192,209067,1,8,0:0:0:0:
64,192,209367,1,8,0:0:0:0:
448,192,209667,1,8,0:0:0:0:
192,192,209967,1,8,0:0:0:0:
320,192,210117,1,8,0:0:0:0:
64,192,210267,128,8,210567:0:0:0:0:
192,192,210567,128,12,214167:0:0:0:0:
448,192,210867,1,2,0:0:0:0:
448,192,211467,1,2,0:0:0:0:
448,192,212067,1,2,0:0:0:0:
448,192,212667,1,2,0:0:0:0:
448,192,213267,1,2,0:0:0:0:
448,192,213867,1,0,0:0:0:0:
320,192,214167,1,0,0:0:0:0:
64,192,214467,1,0,0:0:0:0:
448,192,214767,1,0,0:0:0:0:
192,192,215067,1,8,0:0:0:0:
448,192,215367,128,4,217242:0:0:0:0:
64,192,215367,1,8,0:0:0:0:
320,192,217242,128,4,218967:0:0:0:0:
