osu file format v14

[General]
AudioFilename: audio.mp3
AudioLeadIn: 0
PreviewTime: 226571
Countdown: 0
SampleSet: Soft
StackLeniency: 0.6
Mode: 0
LetterboxInBreaks: 0
WidescreenStoryboard: 0

[Editor]
Bookmarks: 1648,16579,28579,45630,58767,82767,94767,119069,127221,150487,165057,170695,181989,193284,198949,210243,226698,251741,260089,280188,304188,318911
DistanceSpacing: 0.4
BeatDivisor: 8
GridSize: 32
TimelineZoom: 5.423996

[Metadata]
Title:Booths of Fighters (Camellia's "Barrage of Flurries" Remix)
TitleUnicode:Booths of Fighters (Camellia's "Barrage of Flurries" Remix)
Artist:RoughSketch feat. DD "Nakata" Metal
ArtistUnicode:RoughSketch feat.DD"ナカタ"Metal
Creator:LowComboFC
Version:Enter the Booth
Source:SOUND VOLTEX II -infinite infection-
Tags:spinners cametek kamelcamellia かめりあ notebook records forgotten gears NBCD-029 dubcore speedcore pumpcore trap drumstep psytrance sdvx 2 den0saur lcfc konami コナミ bemani
BeatmapID:1542373
BeatmapSetID:730808

[Difficulty]
HPDrainRate:5
CircleSize:4.2
OverallDifficulty:8.7
ApproachRate:9.6
SliderMultiplier:2
SliderTickRate:1

[Events]
//Background and Video events
0,0,"bg.jpg",0,0
//Break Periods
2,199149,209734
//Storyboard Layer 0 (Background)
//Storyboard Layer 1 (Fail)
//Storyboard Layer 2 (Pass)
//Storyboard Layer 3 (Foreground)
//Storyboard Sound Samples

[TimingPoints]
1648,740.740740740741,4,2,10,75,1,0
6092,483.870967741935,4,2,10,75,1,0
9962,447.761194029851,4,2,10,75,1,0
11753,419.58041958042,4,2,10,75,1,0
13431,402.684563758389,4,2,10,75,1,0
15041,384.615384615385,4,2,1,75,1,0
16579,375,4,2,10,75,1,0
16579,-50,4,2,10,75,0,0
16672,-50,4,2,3,75,0,0
17329,-100,4,2,3,75,0,0
19579,-50,4,2,10,75,0,0
19672,-50,4,2,3,75,0,0
19766,-57.1428571428571,4,2,3,75,0,0
19954,-66.6666666666667,4,2,3,75,0,0
20329,-100,4,2,3,75,0,0
21266,-66.6666666666667,4,2,3,75,0,0
21829,-66.6666666666667,4,2,3,75,0,0
22579,-50,4,2,10,75,0,0
22672,-50,4,2,3,75,0,0
23329,-100,4,2,3,75,0,0
25579,-50,4,2,10,75,0,0
25672,-50,4,2,3,75,0,0
25766,-57.1428571428571,4,2,3,75,0,0
25954,-66.6666666666667,4,2,3,75,0,0
26329,-100,4,2,3,75,0,0
26516,-80,4,2,3,75,0,0
26704,-66.6666666666667,4,2,3,75,0,0
26891,-57.1428571428571,4,2,3,75,0,0
27079,-100,4,2,3,65,0,0
27454,-80,4,2,1,65,0,0
27829,-66.6666666666667,4,2,1,65,0,0
28579,532.859680284192,4,2,3,75,1,0
29111,-100,4,2,3,40,0,0
36238,-100,4,2,3,41,0,0
36438,-100,4,2,3,42,0,0
36638,-100,4,2,3,43,0,0
36838,-100,4,2,3,44,0,0
36904,-100,4,2,3,45,0,0
36971,-100,4,2,3,46,0,0
37104,-100,4,2,2,50,0,0
41367,-100,4,2,2,55,0,0
44031,-66.6666666666667,4,2,1,60,0,0
44564,-66.6666666666667,4,2,3,70,0,0
45364,-50,4,2,1,55,0,0
45630,530.973451327434,4,2,1,70,1,0
46691,504.201680672269,4,2,1,70,1,0
47699,472.44094488189,4,2,1,70,1,0
48643,441.176470588235,4,2,1,70,1,0
49525,428.571428571429,4,2,1,70,1,0
51239,382.165605095541,4,2,1,70,1,0
52767,375,4,2,1,70,1,0
58392,-200,4,2,2,85,0,0
58767,-66.6666666666667,4,2,1,70,0,0
64392,-200,4,2,5,70,0,0
64485,-200,4,2,1,5,0,0
64579,-200,4,2,1,70,0,0
64673,-200,4,2,1,5,0,0
64767,-200,4,2,1,70,0,0
65142,-66.6666666666667,4,2,1,70,0,0
69267,-200,4,2,1,70,0,0
70767,-66.6666666666667,4,2,1,70,0,0
75267,-66.6666666666667,4,2,4,70,0,0
76392,-200,4,2,5,70,0,0
76485,-200,4,2,1,5,0,0
76579,-200,4,2,1,70,0,0
76673,-200,4,2,1,5,0,0
76767,-66.6666666666667,4,2,1,70,0,0
79767,-200,4,2,5,80,0,0
80892,-200,4,2,1,80,0,0
81267,-100,4,2,1,65,0,0
81313,-100,4,2,1,5,0,0
81454,-100,4,2,1,75,0,0
81501,-100,4,2,1,5,0,0
81642,-100,4,2,1,75,0,0
81688,-100,4,2,1,5,0,0
81735,-100,4,2,1,75,0,0
81782,-100,4,2,1,5,0,0
81829,-100,4,2,1,75,0,0
81876,-100,4,2,1,5,0,0
81923,-100,4,2,1,75,0,0
81970,-100,4,2,1,5,0,0
82017,-100,4,2,1,70,0,0
82110,-100,4,2,1,5,0,0
82204,-100,4,2,1,75,0,0
82298,-100,4,2,1,5,0,0
82392,-100,4,2,1,75,0,0
82485,-100,4,2,1,5,0,0
82579,-100,4,2,1,75,0,0
82673,-100,4,2,1,5,0,0
82767,-66.6666666666667,4,2,4,60,0,0
88017,-100,4,2,1,60,0,0
94767,-66.6666666666667,4,2,3,80,0,0
96267,-50,4,2,3,80,0,0
97767,-100,4,2,3,80,0,0
98329,-50,4,2,3,80,0,0
99267,-66.6666666666667,4,2,3,80,0,0
100767,-66.6666666666667,4,2,3,80,0,0
102267,-50,4,2,3,80,0,0
103767,-100,4,2,3,80,0,0
104329,-50,4,2,3,80,0,0
105267,-200,4,2,3,85,0,0
106767,-66.6666666666667,4,2,3,80,0,0
108267,-50,4,2,3,80,0,0
109767,-100,4,2,3,80,0,0
110329,-50,4,2,3,80,0,0
111267,-66.6666666666667,4,2,3,80,0,0
115767,400,4,2,1,80,1,0
117367,425.531914893617,4,2,5,80,1,0
119069,454.545454545455,4,2,1,80,1,0
119978,-100,4,2,1,30,0,0
120887,465.116279069767,4,2,1,34,1,0
121817,500,4,2,1,38,1,0
122817,530.973451327434,4,2,1,55,1,0
124940,555.555555555556,4,2,1,68,1,0
125217,-100,4,2,1,66,0,0
125287,-100,4,2,1,65,0,0
125356,-100,4,2,1,64,0,0
125426,-100,4,2,1,63,0,0
125495,-100,4,2,1,60,0,0
125565,-100,4,2,1,56,0,0
125634,-100,4,2,1,52,0,0
125703,-100,4,2,1,48,0,0
125773,-100,4,2,1,43,0,0
125842,-100,4,2,1,38,0,0
125912,-100,4,2,1,34,0,0
126051,585.365853658537,4,2,1,80,1,0
127221,600,4,2,1,85,1,0
127221,-50,4,2,1,85,0,0
144021,705.882352941176,4,2,1,85,1,0
144726,857.142857142857,4,2,1,70,1,0
145154,991.735537190083,4,2,1,50,1,0
145649,483.870967741935,4,2,1,50,1,0
150245,-100,4,2,1,20,0,0
150487,521.739130434783,4,2,1,75,1,0
151008,-100,4,2,1,40,0,0
152573,512.820512820513,4,2,1,40,1,0
154624,504.201680672269,4,2,1,40,1,0
156640,495.867768595041,4,2,1,40,1,0
157631,454.545454545455,4,2,1,50,1,0
158540,-100,4,2,1,70,0,0
160358,434.782608695652,4,2,1,70,1,0
161227,422.535211267606,4,2,1,70,1,0
162072,387.096774193548,4,2,1,70,1,0
163620,359.281437125748,4,2,1,80,1,0
163979,-100,4,2,1,75,0,0
164158,-100,4,2,1,70,0,0
164338,-100,4,2,1,60,0,0
164563,-100,4,2,1,50,0,0
164697,-100,4,2,1,40,0,0
164787,-100,4,2,1,36,0,0
164877,-100,4,2,1,33,0,0
164967,-100,4,2,1,30,0,0
165057,-100,4,2,1,65,0,0
165775,-83.3333333333333,4,2,1,70,0,0
166494,350.877192982456,4,2,1,75,1,0
166494,-71.4285714285714,4,2,1,75,0,0
167195,-62.5,4,2,1,80,0,0
167897,346.820809248555,4,2,1,85,1,0
169302,352.941176470588,4,2,1,90,1,0
170537,-50,4,2,1,85,0,1
180596,-200,4,2,1,60,0,0
181302,-50,4,2,1,85,0,1
182007,-66.6666666666667,4,2,1,75,0,0
186243,-50,4,2,1,75,0,0
187302,-200,4,2,1,100,0,0
187654,-66.6666666666667,4,2,1,75,0,0
190478,-50,4,2,1,85,0,0
190831,-200,4,2,1,75,0,0
191184,-50,4,2,1,85,0,0
191537,-200,4,2,1,75,0,0
191890,-100,4,2,1,75,0,0
192596,-66.6666666666667,4,2,1,75,0,0
192949,-50,4,2,1,75,0,0
193302,-50,4,2,1,85,0,0
198949,-100,4,2,10,75,0,0
213066,-100,4,2,2,40,0,0
214478,387.096774193548,4,2,2,45,1,0
216026,-100,4,2,2,50,0,0
217574,413.793103448276,4,2,2,55,1,0
219229,428.571428571429,4,2,1,60,1,0
220943,454.545454545455,4,2,1,70,1,0
222761,476.190476190476,4,2,1,80,1,0
224665,508.474576271186,4,2,1,80,1,0
226698,260.869565217391,4,2,1,85,1,1
226698,-80,4,2,1,85,0,1
234524,-200,4,2,1,70,0,0
235045,-200,4,2,1,55,0,0
235306,-80,4,2,1,85,0,1
238306,-80,4,2,4,85,0,1
239219,-200,4,2,1,70,0,0
239480,-50,4,2,1,85,0,0
239741,-200,4,2,1,70,0,0
240002,-50,4,2,1,70,0,0
240263,-200,4,2,1,70,0,0
240524,-50,4,2,1,85,0,0
240784,-200,4,2,1,70,0,0
241045,-50,4,2,1,85,0,0
241306,-200,4,2,5,70,0,0
242350,-100,4,2,1,60,0,0
242415,-100,4,2,1,5,0,0
242480,-100,4,2,1,60,0,0
242545,-100,4,2,1,5,0,0
242611,-80,4,2,1,60,0,0
242676,-80,4,2,1,5,0,0
242741,-80,4,2,1,60,0,0
242806,-80,4,2,1,5,0,0
242871,-66.6666666666667,4,2,1,60,0,0
242937,-66.6666666666667,4,2,1,5,0,0
243002,-66.6666666666667,4,2,1,60,0,0
243068,-66.6666666666667,4,2,1,5,0,0
243132,-100,4,2,1,70,0,0
243393,-80,4,2,1,85,0,1
249654,-133.333333333333,4,2,3,80,0,1
251741,-80,4,2,4,60,0,0
252784,-80,4,2,4,80,0,0
254089,-80,4,2,4,60,0,0
254871,-80,4,2,1,80,0,0
255915,-80,4,2,4,85,0,1
258002,-80,4,2,1,85,0,1
259045,-200,4,2,1,90,0,0
260089,257.510729613734,4,2,1,80,1,0
260346,-100,4,2,1,40,0,0
261119,252.100840336134,4,2,1,42,1,0
262127,242.914979757085,4,2,1,44,1,0
264070,239.043824701195,4,2,1,48,1,0
265026,224.719101123595,4,2,1,50,1,0
266823,222.222222222222,4,2,1,50,1,0
267711,215.05376344086,4,2,1,52,1,0
269431,208.333333333333,4,2,1,56,1,0
270264,203.389830508475,4,2,1,58,1,0
271077,200,4,2,1,60,1,0
272677,190.47619047619,4,2,1,63,1,0
273438,187.5,4,2,1,67,1,0
274188,-100,4,2,1,70,0,0
278688,375,4,2,5,70,1,0
279813,-50,4,2,1,60,0,0
280188,-200,4,2,1,85,0,0
280563,-66.6666666666667,4,2,1,85,0,0
280938,-200,4,2,1,85,0,0
281313,-66.6666666666667,4,2,1,85,0,0
281688,-200,4,2,1,85,0,0
282063,-66.6666666666667,4,2,1,85,0,0
282438,-200,4,2,1,85,0,0
282813,-50,4,2,1,85,0,0
283188,-200,4,2,1,85,0,0
283563,-66.6666666666667,4,2,1,85,0,0
283938,-200,4,2,1,85,0,0
284313,-66.6666666666667,4,2,1,85,0,0
285813,-200,4,2,5,70,0,0
285906,-200,4,2,1,5,0,0
286000,-200,4,2,1,70,0,0
286094,-200,4,2,1,5,0,0
286188,-200,4,2,1,85,0,0
286563,-66.6666666666667,4,2,1,85,0,0
286938,-200,4,2,1,85,0,0
287313,-66.6666666666667,4,2,1,85,0,0
287688,-200,4,2,1,85,0,0
288063,-66.6666666666667,4,2,1,85,0,0
288438,-200,4,2,1,85,0,0
288813,-50,4,2,1,85,0,0
289188,-200,4,2,1,85,0,0
289563,-66.6666666666667,4,2,1,85,0,0
289938,-200,4,2,1,85,0,0
290313,-66.6666666666667,4,2,1,85,0,0
290688,-200,4,2,1,70,0,0
292188,-200,4,2,1,85,0,0
292563,-50,4,2,3,85,0,0
292938,-200,4,2,1,85,0,0
293313,-50,4,2,3,85,0,0
293688,-200,4,2,1,85,0,0
294063,-50,4,2,3,85,0,0
294438,-200,4,2,1,85,0,0
294813,-40,4,2,3,85,0,0
295188,-200,4,2,1,85,0,0
295563,-50,4,2,3,85,0,0
295938,-200,4,2,1,85,0,0
296313,-50,4,2,3,85,0,0
296688,-66.6666666666667,4,2,4,85,0,0
297813,-200,4,2,5,70,0,0
297906,-200,4,2,1,5,0,0
298000,-200,4,2,1,70,0,0
298094,-200,4,2,1,5,0,0
298188,-200,4,2,1,80,0,0
298563,-50,4,2,3,85,0,0
298844,-50,4,2,1,85,0,0
299219,-50,4,2,3,85,0,0
299500,-50,4,2,1,85,0,0
299688,-200,4,2,1,80,0,0
300063,-50,4,2,3,85,0,0
300344,-50,4,2,1,85,0,0
300719,-50,4,2,3,85,0,0
301000,-50,4,2,1,85,0,0
301563,-200,4,2,1,70,0,0
301938,-50,4,2,1,85,0,0
302313,-200,4,2,1,70,0,0
302688,-100,4,2,1,75,0,0
302734,-100,4,2,1,5,0,0
302875,-100,4,2,1,75,0,0
302922,-100,4,2,1,5,0,0
303063,-100,4,2,1,75,0,0
303109,-100,4,2,1,5,0,0
303156,-100,4,2,1,75,0,0
303203,-100,4,2,1,5,0,0
303250,-100,4,2,1,75,0,0
303297,-100,4,2,1,5,0,0
303344,-100,4,2,1,75,0,0
303391,-100,4,2,1,5,0,0
303438,-100,4,2,1,75,0,0
303531,-100,4,2,1,5,0,0
303625,-100,4,2,1,75,0,0
303719,-100,4,2,1,5,0,0
303813,-100,4,2,1,75,0,0
303906,-100,4,2,1,5,0,0
304000,-100,4,2,1,75,0,0
304094,-100,4,2,1,5,0,0
304188,387.096774193548,4,2,10,75,1,0
305736,413.793103448276,4,2,10,75,1,0
307391,434.782608695652,4,2,10,75,1,0
308260,472.44094488189,4,2,10,75,1,0
310149,500,4,2,10,75,1,0
311149,521.739130434783,4,2,10,75,1,0
312192,545.454545454546,4,2,10,75,1,0
313282,571.428571428571,4,2,10,75,1,0
314424,600,4,2,10,75,1,0
315024,666.666666666667,4,2,10,75,1,0
315690,805.369127516779,4,2,10,75,1,0
318710,-100,4,2,10,5,0,0
318911,-100,4,2,10,50,0,0

[Colours]
Combo1 : 255,255,128
Combo2 : 152,201,209
Combo3 : 104,165,215
Combo4 : 115,204,177
Combo5 : 120,134,199
Combo6 : 255,191,191
Combo7 : 255,43,43
Combo8 : 255,170,85

[HitObjects]
256,192,1648,5,4,1:3:0:0:
256,192,1833,12,4,6092,0:3:0:0:
256,192,6212,12,4,9962,0:3:0:0:
256,192,10073,12,4,13431,0:3:0:0:
256,192,13531,12,0,15617,0:0:0:0:
80,87,15810,22,0,L|73:64,1,25,0|0,3:0|0:0,0:0:0:0:
185,170,16002,2,0,L|225:177,1,25,0|0,3:0|0:0,0:0:0:0:
61,219,16194,2,0,L|42:238,1,25,0|0,3:0|0:0,0:0:0:0:
54,211,16291,2,0,L|29:219,1,25,0|0,3:0|0:0,0:0:0:0:
51,200,16387,2,0,L|26:194,1,25,0|0,3:0|0:0,0:0:0:0:
54,189,16483,2,0,L|34:171,1,25
62,181,16579,38,0,B|163:203|163:203|196:234|196:234|336:260|336:260|313:144,1,400,4|0,1:3|0:0,0:0:0:0:
315,153,17141,1,0,0:0:0:0:
482,48,17329,86,0,P|478:96|427:127,1,100,8|0,0:0|0:0,0:0:0:0:
356,88,17610,1,0,0:0:0:0:
349,78,17704,2,0,P|353:30|404:-1,1,100
461,216,18079,86,0,B|358:193|383:278|273:254,1,200,0|0,1:0|0:0,0:0:0:0:
273,254,18641,1,0,0:0:0:0:
63,123,18829,1,8,0:0:0:0:
59,110,18922,2,0,P|108:115|156:128,1,100
209,186,19204,2,0,P|257:173|306:167,1,100
497,70,19579,54,0,B|456:42|456:42|407:55,1,100,4|0,1:3|0:0,0:0:0:0:
400,136,19766,6,0,B|442:124|442:124|478:149,1,87.500000834465
488,247,19954,6,0,B|427:205|427:205|354:226,1,150.000005722046
148,339,20329,54,0,P|195:348|235:321,1,100,8|0,0:0|0:0,0:0:0:0:
264,230,20610,1,0,0:0:0:0:
269,247,20704,2,0,P|309:274|356:264,1,100
450,75,21079,85,0,1:0:0:0:
231,23,21266,70,0,P|231:61|239:97,1,75.0000028610231
157,99,21454,2,0,L|143:25,1,75.0000028610231
60,52,21641,2,0,P|73:88|77:125,1,75.0000028610231
171,176,21829,69,8,0:0:0:0:
321,70,22016,54,0,P|320:107|309:150,1,75.0000028610231
394,145,22204,2,0,L|407:71,1,75.0000028610231
491,99,22391,2,0,P|478:134|473:178,1,75.0000028610231
381,222,22579,86,0,B|281:239|281:239|261:262|261:262|158:282|158:282|223:346|223:346|293:333,1,400,4|0,1:3|0:0,0:0:0:0:
293,333,23141,1,0,0:0:0:0:
215,191,23329,54,0,P|180:156|131:156,1,100,8|0,0:0|0:0,0:0:0:0:
86,220,23610,1,0,0:0:0:0:
100,229,23704,2,0,P|65:263|16:263,1,100
77,42,24079,22,0,P|156:16|226:100,1,200,0|0,1:0|0:0,0:0:0:0:
225,94,24641,1,0,0:0:0:0:
205,282,24829,1,8,0:0:0:0:
190,271,24922,2,0,P|178:241|177:165,1,100
245,106,25204,2,0,P|257:136|258:212,1,100
142,349,25579,22,0,B|74:358|74:358|49:338,1,100,4|0,1:3|0:0,0:0:0:0:
16,257,25766,6,0,B|75:264|75:264|96:247,1,87.500000834465
142,165,25954,6,0,B|40:178|40:178|3:148,1,150.000005722046,2|2,0:3|0:3,0:0:0:0:
217,29,26329,22,0,L|265:39,1,50,8|0,0:0|0:0,0:0:0:0:
358,102,26516,22,0,L|296:114,1,62.5
186,187,26704,86,0,L|259:202,1,75.0000028610231
400,298,26891,22,0,L|287:321,1,87.500000834465
142,349,27079,85,0,1:0:0:0:
86,291,27266,2,0,L|92:251,2,33.3333333333333,0|0|0,3:0|3:0|3:0,0:0:0:0:
222,361,27454,21,0,0:0:0:0:
179,228,27641,2,0,L|185:185,2,41.6666666666667,0|0|0,3:0|3:0|3:0,0:0:0:0:
302,373,27829,85,0,0:0:0:0:
297,353,27922,2,0,L|310:265,1,75.0000028610231,0|0,0:0|3:0,0:0:0:0:
337,75,28110,38,0,B|279:66|239:24|239:24|266:209,1,300.000011444092,0|0,3:0|0:0,0:0:0:0:
308,278,28579,53,6,1:2:0:0:
389,291,29111,1,0,0:0:0:0:
470,304,29644,1,0,0:0:0:0:
308,278,30177,1,0,0:0:0:0:
146,252,30710,21,2,0:0:0:0:
75,291,31243,1,0,0:0:0:0:
84,370,31776,1,0,0:0:0:0:
155,331,32309,1,0,0:0:0:0:
107,181,32841,85,2,0:0:0:0:
123,102,33374,1,0,0:0:0:0:
203,75,33907,1,0,0:0:0:0:
187,154,34440,1,0,0:0:0:0:
27,208,34973,21,2,0:0:0:0:
231,242,35506,1,0,0:0:0:0:
435,276,36039,6,0,L|445:242,6,25
400,185,36571,2,0,L|390:151,6,25
458,114,37104,85,2,0:0:0:0:
260,170,37371,2,0,L|184:153,1,75,0|0,1:0|0:0,0:0:0:0:
174,140,37637,2,0,P|141:203|181:262,1,150,8|0,0:0|1:0,0:0:0:0:
268,270,38170,2,0,L|255:337,1,50,0|0,0:0|1:0,0:0:0:0:
128,326,38436,2,0,L|141:393,1,50,0|0,0:0|1:0,0:0:0:0:
338,384,38703,2,0,L|368:227,1,150,8|0,0:0|1:0,0:0:0:0:
329,163,39236,21,2,1:2:0:0:
462,62,39502,2,0,P|457:110|431:136,1,75,0|0,1:0|0:0,0:0:0:0:
416,134,39769,2,0,P|368:80|290:79,1,150,8|0,0:0|1:0,0:0:0:0:
243,147,40301,2,0,L|193:141,1,50,0|0,0:0|1:0,0:0:0:0:
95,216,40568,2,0,L|144:210,1,50,0|0,1:0|1:0,0:0:0:0:
208,54,40834,2,0,L|39:71,1,150,8|0,0:0|0:0,0:0:0:0:
2,129,41367,85,2,1:2:0:0:
243,147,41634,2,0,L|234:229,1,75,0|0,1:0|0:0,0:0:0:0:
217,235,41900,2,0,P|272:284|344:276,1,150,8|0,0:0|1:0,0:0:0:0:
357,198,42433,2,0,L|406:191,1,50,0|0,0:0|1:0,0:0:0:0:
423,111,42699,2,0,L|373:117,1,50,0|0,0:0|1:0,0:0:0:0:
344,276,42966,2,0,L|499:255,1,150,8|0,0:0|1:0,0:0:0:0:
448,337,43499,22,0,L|423:340,6,25,2|0|0|0|0|0|0,1:2|0:0|0:0|0:0|0:0|0:0|0:0,0:0:0:0:
345,351,44031,6,0,B|311:295|251:302|251:302|218:358|156:350,1,225.000008583069
170,259,44564,69,0,1:0:0:0:
170,259,45364,38,0,B|175:197|175:197|169:182|169:182|177:110,1,150
151,38,45630,102,0,P|202:90|274:80,1,150,4|0,1:0|0:0,0:0:0:0:
228,15,46160,1,2,0:0:0:0:
301,159,46293,1,2,0:0:0:0:
314,153,46559,86,0,P|301:201|296:250,1,97,2|2,0:0|0:0,0:0:0:0:
296,247,47195,1,0,0:0:0:0:
225,280,47321,1,2,0:0:0:0:
176,339,47447,2,0,P|195:354|220:358,1,50,2|0,0:0|0:0,0:0:0:0:
359,291,47699,22,0,P|418:241|497:262,1,150,2|0,0:2|0:0,0:0:0:0:
439,328,48171,1,2,0:0:0:0:
296,358,48289,1,2,0:0:0:0:
307,345,48525,86,0,P|261:341|204:319,1,97,2|2,0:0|0:0,0:0:0:0:
213,324,48973,2,0,P|246:316|269:300,1,50,2|0,0:0|0:0,0:0:0:0:
293,236,49194,1,2,0:0:0:0:
146,275,49304,2,0,P|113:267|90:251,1,50,2|0,0:0|0:0,0:0:0:0:
35,136,49525,22,0,P|63:104|169:106,1,150,2|0,0:2|0:0,0:0:0:0:
160,114,49900,1,2,0:0:0:0:
156,125,49953,1,2,0:2:0:0:
23,212,50060,1,2,0:0:0:0:
34,225,50275,86,0,P|25:277|34:327,1,100,2|2,0:0|0:0,0:0:0:0:
32,323,50810,1,0,0:0:0:0:
98,359,50917,1,2,0:0:0:0:
147,301,51025,2,0,P|171:283|205:278,1,50,2|0,0:0|0:0,0:0:0:0:
271,366,51239,22,0,P|271:293|329:250,1,150,2|0,0:2|0:0,0:0:0:0:
338,259,51573,1,2,0:0:0:0:
346,267,51621,1,2,0:2:0:0:
192,199,51716,1,2,0:0:0:0:
183,187,51907,86,0,P|210:185|278:156,1,100,2|2,0:0|0:0,0:0:0:0:
276,157,52289,2,0,P|305:163|330:178,1,50,2|0,0:0|0:0,0:0:0:0:
338,259,52481,1,2,0:0:0:0:
393,120,52576,2,0,P|415:108|439:104,1,50,2|0,0:0|0:0,0:0:0:0:
512,164,52767,21,4,1:2:0:0:
479,258,52954,1,0,1:0:0:0:
364,355,53142,1,0,1:0:0:0:
166,325,53329,2,0,L|129:336,3,25,8|8|8|8,1:2|3:2|3:2|3:2,0:0:0:0:
232,366,53517,85,0,1:0:0:0:
288,284,53704,1,0,1:0:0:0:
172,187,53892,21,0,1:0:0:0:
251,126,53985,1,0,0:0:0:0:
329,64,54079,2,0,L|333:39,3,25,8|8|8|8,1:2|3:2|3:2|3:2,0:0:0:0:
374,151,54267,85,0,1:0:0:0:
287,200,54454,1,0,1:0:0:0:
170,105,54642,1,0,1:0:0:0:
69,277,54829,2,0,L|75:301,3,25,8|8|8|8,1:2|3:2|3:2|3:2,0:0:0:0:
12,220,55017,21,0,1:0:0:0:
108,193,55204,1,0,1:0:0:0:
202,310,55392,85,8,1:2:0:0:
300,325,55485,1,8,0:2:0:0:
398,341,55579,2,0,L|428:331,3,25,0|0|0|0,1:2|3:0|3:0|3:0,0:0:0:0:
363,249,55767,21,8,1:2:0:0:
433,225,55860,1,8,1:2:0:0:
498,261,55954,2,0,L|504:293,3,25,0|0|0|0,3:0|3:0|3:0|3:0,0:0:0:0:
384,160,56142,85,8,1:2:0:0:
296,129,56235,1,8,1:2:0:0:
215,174,56329,2,0,L|207:214,3,25,8|0|0|0,3:2|3:0|3:0|3:0,0:0:0:0:
222,86,56517,21,8,3:2:0:0:
204,82,56563,1,0,3:0:0:0:
186,80,56610,1,0,3:0:0:0:
167,82,56657,1,0,3:0:0:0:
150,85,56704,1,8,3:2:0:0:
133,92,56751,1,0,3:0:0:0:
117,100,56798,1,0,3:0:0:0:
102,111,56845,1,0,3:0:0:0:
89,123,56892,2,0,L|97:163,6,25,8|0|0|0|0|0|0,3:2|3:0|3:0|3:0|3:0|3:0|3:0,0:0:0:0:
27,71,57267,85,0,1:0:0:0:
27,71,58204,21,0,1:0:0:0:
47,217,58392,2,0,P|50:188|71:141,1,75,8|0,0:0|0:0,0:0:0:0:
27,71,58767,38,0,P|72:124|147:105,1,150.000005722046,4|0,1:2|0:0,0:0:0:0:
186,33,59048,1,0,0:0:0:0:
179,19,59142,1,0,1:0:0:0:
136,202,59329,2,0,P|160:228|210:233,1,75.0000028610231,2|0,0:0|0:0,0:0:0:0:
275,284,59517,2,0,P|205:266|158:319,1,150.000005722046,2|0,1:2|0:0,0:0:0:0:
236,358,59798,1,2,0:0:0:0:
222,373,59892,2,0,L|73:349,1,150.000005722046,2|0,1:2|0:0,0:0:0:0:
9,208,60267,6,0,L|158:184,1,150.000005722046,2|0,1:2|0:0,0:0:0:0:
221,129,60548,1,2,0:0:0:0:
226,115,60642,1,2,1:2:0:0:
64,101,60829,1,0,0:0:0:0:
145,260,61017,2,0,L|294:284,1,150.000005722046,2|0,1:2|0:0,0:0:0:0:
357,339,61298,1,2,0:0:0:0:
362,353,61392,2,0,L|288:366,1,75.0000028610231,2|0,1:2|0:0,0:0:0:0:
200,367,61579,1,0,0:0:0:0:
291,193,61767,102,0,P|343:143|414:157,1,150.000005722046,0|0,1:0|0:0,0:0:0:0:
435,239,62048,1,0,0:0:0:0:
430,253,62142,1,0,1:0:0:0:
238,253,62329,2,0,P|215:223|213:178,1,75.0000028610231,2|0,0:0|0:0,0:0:0:0:
283,76,62517,2,0,P|212:90|159:40,1,150.000005722046,2|0,1:2|0:0,0:0:0:0:
89,11,62798,1,2,0:0:0:0:
81,22,62892,2,0,L|105:171,1,150.000005722046,2|0,1:2|0:0,0:0:0:0:
267,341,63267,6,0,L|291:192,1,150.000005722046,2|0,1:2|0:0,0:0:0:0:
340,131,63548,1,2,0:0:0:0:
351,121,63642,2,0,P|396:124|423:140,1,75.0000028610231,2|0,1:2|0:0,0:0:0:0:
458,207,63829,1,0,0:0:0:0:
283,76,64017,2,0,P|238:79|211:95,1,75.0000028610231,2|0,1:2|0:0,0:0:0:0:
176,162,64204,1,0,0:0:0:0:
356,284,64392,6,0,L|360:256,1,25,0|0,1:0|0:0,0:0:0:0:
370,279,64579,2,0,L|374:251,1,25
269,169,64767,86,0,B|274:196|274:196|272:208|272:208|279:219|279:219|283:240,1,75,0|0,1:0|0:0,1:0:0:0:
275,266,65142,1,0,1:0:0:0:
116,352,65329,6,0,P|93:322|91:286,1,75.0000028610231,2|0,0:0|0:0,0:0:0:0:
191,208,65517,2,0,P|118:211|72:155,1,150.000005722046,2|0,1:2|0:0,0:0:0:0:
73,73,65798,1,2,0:0:0:0:
60,84,65892,2,0,L|32:239,1,150.000005722046,2|0,1:2|0:0,0:0:0:0:
247,369,66267,102,0,L|220:221,1,150.000005722046,2|0,1:2|0:0,0:0:0:0:
250,146,66548,1,2,0:2:0:0:
256,132,66642,1,2,1:2:0:0:
387,271,66829,1,0,0:0:0:0:
404,67,67017,2,0,L|256:40,1,150.000005722046,2|0,1:2|0:0,0:0:0:0:
181,70,67298,1,2,0:0:0:0:
167,76,67392,2,0,L|181:157,1,75.0000028610231,2|0,1:2|0:0,0:0:0:0:
306,207,67579,1,0,0:0:0:0:
167,337,67767,6,0,P|95:346|45:294,1,150.000005722046,0|0,1:0|0:0,0:0:0:0:
81,220,68048,1,0,0:0:0:0:
87,206,68142,1,0,1:0:0:0:
297,289,68329,2,0,P|283:323|251:342,1,75.0000028610231,2|0,0:0|0:0,0:0:0:0:
214,259,68517,102,0,P|232:188|186:132,1,150.000005722046,2|0,1:2|0:0,0:0:0:0:
137,66,68798,1,2,0:0:0:0:
148,51,68892,2,0,L|308:66,1,150.000005722046,2|0,1:2|0:0,0:0:0:0:
411,156,69267,54,0,B|398:297|398:297|282:309|282:309|328:228,1,350,0|0,3:0|0:0,0:0:0:0:
512,39,70767,70,0,B|462:92|462:92|387:78,1,150.000005722046,4|0,1:2|0:0,0:0:0:0:
314,37,71048,1,0,0:0:0:0:
303,49,71142,2,0,P|301:85|289:132,1,75.0000028610231,8|0,1:2|0:0,0:0:0:0:
328,230,71329,2,0,P|319:193|317:156,1,75.0000028610231
438,13,71517,1,0,1:0:0:0:
241,183,71704,1,0,0:0:0:0:
227,176,71798,1,0,0:0:0:0:
201,106,71892,2,0,B|121:122|121:122|84:168|84:168|1:183,1,225.000008583069,8|0,1:2|0:0,0:0:0:0:
44,102,72267,102,0,P|88:162|89:236,1,150.000005722046,0|0,1:0|0:0,0:0:0:0:
53,326,72548,1,0,0:0:0:0:
39,340,72642,2,0,P|68:272|132:234,1,150.000005722046,8|0,1:2|0:0,0:0:0:0:
409,312,73017,2,0,P|335:319|271:283,1,150.000005722046,0|0,1:0|0:0,0:0:0:0:
211,207,73298,1,0,0:0:0:0:
205,187,73392,2,0,P|234:212|250:245,1,75.0000028610231,8|0,1:2|0:0,0:0:0:0:
250,321,73579,1,0,0:0:0:0:
123,203,73767,6,0,B|101:158|101:158|142:54,1,150.000005722046,0|0,1:0|0:0,0:0:0:0:
214,35,74048,1,0,0:0:0:0:
209,20,74142,2,0,P|165:35|133:33,1,75.0000028610231,8|0,1:2|0:0,0:0:0:0:
6,101,74329,2,0,P|43:101|78:114,1,75.0000028610231
179,285,74517,1,0,1:0:0:0:
0,374,74704,1,0,0:0:0:0:
4,359,74798,1,0,0:0:0:0:
30,287,74892,2,0,P|64:273|102:273,1,75.0000028610231,8|0,1:2|0:0,0:0:0:0:
230,345,75079,85,0,3:0:0:0:
224,353,75142,1,0,3:0:0:0:
215,358,75204,1,0,3:0:0:0:
205,361,75267,6,0,L|228:193,1,150.000005722046,8|0,0:0|0:0,0:0:0:0:
111,101,75548,2,0,P|141:167|212:181,1,150.000005722046,8|0,0:0|0:0,0:0:0:0:
299,263,75829,2,0,P|370:269|418:215,1,150.000005722046,8|0,0:0|0:0,0:0:0:0:
479,158,76110,1,8,0:0:0:0:
489,147,76204,2,0,P|486:115|447:84,1,75.0000028610231
259,86,76392,22,0,L|268:123,1,25,0|0,1:0|0:0,0:0:0:0:
247,98,76579,2,0,L|256:135,1,25
339,193,76767,102,0,B|374:158|374:158|387:58,1,150.000005722046,4|0,1:2|0:0,0:0:0:0:
250,2,77048,1,0,0:0:0:0:
241,13,77142,2,0,L|258:85,1,75.0000028610231,8|0,1:2|0:0,0:0:0:0:
229,170,77329,2,0,L|246:97,1,75.0000028610231
104,1,77517,1,0,1:0:0:0:
18,197,77704,1,0,0:0:0:0:
23,210,77798,1,0,0:0:0:0:
86,252,77892,2,0,P|124:159|30:122,1,225.000008583069,8|0,1:2|0:0,0:0:0:0:
6,295,78267,102,0,B|67:341|67:341|138:323,1,150.000005722046,0|0,1:0|0:0,0:0:0:0:
202,275,78548,1,0,0:0:0:0:
191,262,78642,2,0,B|262:244|262:244|323:290,1,150.000005722046,8|0,1:2|0:0,0:0:0:0:
506,89,79017,2,0,B|445:43|445:43|373:60,1,150.000005722046,0|0,1:0|0:0,0:0:0:0:
310,109,79298,1,0,0:0:0:0:
321,122,79392,2,0,B|249:139|249:139|188:93,1,150.000005722046,8|0,1:2|0:0,0:0:0:0:
421,157,79767,21,4,1:2:0:0:
421,157,80142,2,0,L|431:235,1,75
313,356,80517,21,0,1:2:0:0:
313,356,80892,2,0,B|321:325|321:325|318:319|318:319|327:283,1,75,0|0,3:0|0:0,0:0:0:0:
205,157,81267,86,0,L|200:123,1,25,0|0,1:0|0:0,0:0:0:0:
311,165,81454,2,0,L|343:178,1,25,0|0,3:0|0:0,0:0:0:0:
251,253,81642,2,0,L|224:274,1,25,0|0,3:0|0:0,0:0:0:0:
240,251,81735,2,0,L|210:268,1,25,0|0,3:0|0:0,0:0:0:0:
230,248,81829,2,0,L|197:259,1,25,0|0,3:0|0:0,0:0:0:0:
221,242,81923,2,0,L|187:248,1,25
212,236,82017,22,0,L|145:242,1,50,2|0,0:0|0:0,0:0:0:0:
97,284,82204,2,0,L|48:289,1,50,2|0,0:0|0:0,0:0:0:0:
8,205,82392,86,0,L|75:211,1,50,2|0,0:0|0:0,0:0:0:0:
176,323,82579,2,0,L|225:327,1,50,2|0,0:0|0:0,0:0:0:0:
398,240,82767,6,0,B|444:196|444:196|415:97|415:97|358:83,1,225.000008583069,4|0,1:2|0:0,0:0:0:0:
352,169,83142,1,8,0:0:0:0:
274,158,83517,1,8,0:0:0:0:
196,147,83892,1,8,0:0:0:0:
191,132,83985,1,8,0:0:0:0:
354,311,84173,1,8,0:0:0:0:
349,326,84267,22,0,B|292:296|292:296|452:275,1,225.000008583069,4|0,1:2|0:0,0:0:0:0:
507,329,84642,1,8,0:0:0:0:
466,202,85017,1,8,0:0:0:0:
425,75,85392,85,8,0:0:0:0:
298,116,85579,1,8,0:0:0:0:
171,157,85767,22,0,B|92:148|92:148|106:0,1,225.000008583069,4|0,1:2|1:0,0:0:0:0:
177,76,86142,1,8,0:0:0:0:
25,189,86517,1,8,0:0:0:0:
198,264,86892,1,8,0:0:0:0:
212,259,86985,1,8,0:0:0:0:
340,110,87173,1,8,0:0:0:0:
326,105,87267,86,0,B|311:189|311:189|281:228|281:228|301:317,1,225.000008583069,4|0,1:2|0:0,0:0:0:0:
361,370,87642,1,8,0:0:0:0:
215,150,87923,1,8,0:0:0:0:
201,145,88017,21,8,0:0:0:0:
130,160,88110,2,0,L|105:156,2,25,0|0|0,3:0|3:0|3:0,0:0:0:0:
203,68,88298,85,0,0:0:0:0:
132,83,88391,2,0,L|107:79,2,25,0|0|0,3:0|3:0|3:0,0:0:0:0:
269,101,88579,1,0,3:0:0:0:
285,179,88673,1,0,3:0:0:0:
348,231,88767,21,4,1:2:0:0:
380,136,88954,1,0,1:0:0:0:
428,278,89142,1,0,1:0:0:0:
493,89,89329,2,0,L|487:60,2,25,8|8|8,1:2|3:2|3:2,0:0:0:0:
457,160,89517,85,0,1:0:0:0:
417,68,89704,1,0,1:0:0:0:
270,32,89892,21,0,1:0:0:0:
184,84,89985,1,0,1:0:0:0:
100,136,90079,2,0,L|105:160,2,25,8|8|8,1:2|3:2|3:2,0:0:0:0:
32,100,90267,85,0,1:0:0:0:
10,197,90454,1,0,1:0:0:0:
135,278,90642,1,0,1:0:0:0:
184,84,90829,2,0,L|178:59,2,25,8|8|8,1:2|3:2|3:2,0:0:0:0:
223,148,91017,21,0,1:0:0:0:
304,90,91204,1,0,1:0:0:0:
391,212,91392,85,8,1:2:0:0:
435,122,91485,1,8,1:2:0:0:
480,33,91579,2,0,L|474:8,2,25,0|0|0,1:2|3:2|3:2,0:0:0:0:
376,77,91767,21,8,1:2:0:0:
304,90,91860,1,8,0:2:0:0:
232,103,91954,2,0,L|207:97,2,25,0|0|0,3:0|3:2|3:2,0:0:0:0:
301,196,92142,85,8,1:2:0:0:
391,212,92235,1,8,1:2:0:0:
481,228,92329,2,0,L|505:222,2,25,8|0|0,3:2|3:0|3:0,0:0:0:0:
453,300,92517,21,8,3:2:0:0:
437,315,92563,1,0,3:3:0:0:
419,328,92610,1,0,3:3:0:0:
399,339,92657,1,0,3:3:0:0:
379,347,92704,1,8,3:2:0:0:
357,352,92751,1,0,3:3:0:0:
335,354,92798,1,0,3:3:0:0:
313,353,92845,1,0,3:3:0:0:
291,349,92892,2,0,L|296:324,6,25,8|0|0|0|0|0|0,3:2|3:0|3:0|3:0|3:0|3:0|3:0,0:0:0:0:
220,322,93267,85,0,1:0:0:0:
220,322,94767,54,0,B|186:166|186:166|307:131|307:131|266:228,1,375.000014305115,4|0,1:0|0:0,0:0:0:0:
272,213,95329,6,0,L|346:221,1,75.0000028610231,2|0,0:0|0:0,0:0:0:0:
497,237,95517,1,10,0:0:0:0:
489,231,95704,102,0,P|452:225|421:245,1,75.0000028610231
377,374,95892,2,0,L|363:300,1,75.0000028610231,2|0,0:0|0:0,0:0:0:0:
438,109,96079,2,0,P|408:130|400:166,1,75.0000028610231
474,332,96267,5,0,1:0:0:0:
484,326,96454,102,0,B|441:318|441:318|433:323|433:323|386:315,1,100,2|0,0:0|0:0,0:0:0:0:
292,345,96642,2,0,B|249:337|249:337|241:342|241:342|194:334,1,100,2|0,0:0|0:0,0:0:0:0:
99,363,96829,1,0,3:0:0:0:
92,354,96923,1,0,3:0:0:0:
91,344,97017,5,8,3:2:0:0:
123,307,97110,1,0,3:0:0:0:
134,259,97204,1,0,3:0:0:0:
121,211,97298,1,0,3:0:0:0:
90,175,97392,1,0,3:0:0:0:
77,127,97486,1,0,3:0:0:0:
88,78,97580,1,0,3:0:0:0:
120,41,97673,1,0,3:0:0:0:
198,23,97767,101,0,1:0:0:0:
204,31,97954,6,0,P|201:67|181:93,1,50
265,116,98142,2,0,P|244:145|214:158,1,50
46,236,98329,101,2,0:3:0:0:
121,211,98423,2,0,B|160:219|160:219|168:215|168:215|176:223|176:223|214:232,1,100,2|8,0:3|0:0,0:0:0:0:
383,275,98610,1,2,0:3:0:0:
444,229,98704,1,2,0:3:0:0:
489,293,98798,1,2,0:3:0:0:
462,221,98892,6,0,B|469:156|469:156|450:121,1,100,2|0,0:3|0:0,0:0:0:0:
302,147,99079,2,0,B|295:212|295:212|313:246,1,100,2|0,0:3|0:0,0:0:0:0:
425,353,99267,101,0,1:0:0:0:
419,360,99454,6,0,P|381:358|351:338,1,75.0000028610231
175,218,99642,2,0,P|194:186|227:170,1,75.0000028610231
419,77,99829,2,0,P|436:109|433:146,1,75.0000028610231
340,222,100017,101,8,0:0:0:0:
332,226,100204,6,0,L|345:126,1,75.0000028610231
266,27,100392,2,0,L|275:101,1,75.0000028610231
192,288,100579,2,0,L|205:188,1,75.0000028610231
77,9,100767,102,0,B|31:82|31:82|180:65|180:65|164:142|164:142|104:150,1,375.000014305115,4|0,1:2|0:0,0:0:0:0:
105,150,101329,2,0,L|95:224,1,75.0000028610231,2|0,0:0|0:0,0:0:0:0:
76,371,101517,1,10,0:0:0:0:
68,364,101704,6,0,P|108:359|131:333,1,75.0000028610231
60,78,101892,2,0,L|69:152,1,75.0000028610231,2|0,0:0|0:0,0:0:0:0:
229,300,102079,2,0,P|204:267|170:260,1,75.0000028610231
15,303,102267,101,0,1:0:0:0:
11,294,102454,6,0,B|42:254|42:254|91:259,1,100,2|0,0:0|0:0,0:0:0:0:
183,159,102642,2,0,B|229:139|229:139|269:168,1,100,2|0,0:0|0:0,0:0:0:0:
336,344,102829,1,0,3:0:0:0:
329,336,102923,1,0,3:0:0:0:
326,326,103017,101,8,3:2:0:0:
367,297,103110,1,0,3:0:0:0:
381,250,103204,1,0,3:0:0:0:
362,205,103298,1,0,3:0:0:0:
319,179,103392,1,0,3:0:0:0:
279,151,103485,1,0,3:0:0:0:
265,104,103579,1,0,3:0:0:0:
283,58,103673,1,0,3:0:0:0:
355,22,103767,5,0,1:0:0:0:
366,25,103954,102,0,P|376:55|370:87,1,50
456,81,104142,2,0,P|449:112|428:137,1,50
227,211,104329,5,2,0:3:0:0:
162,163,104423,2,0,P|179:120|224:130,1,100,2|8,0:3|0:0,0:0:0:0:
288,263,104610,1,2,0:3:0:0:
349,309,104704,1,2,0:3:0:0:
394,245,104798,1,2,0:3:0:0:
367,317,104892,102,0,B|389:342|389:342|455:350,1,100,2|0,0:3|0:0,0:0:0:0:
418,169,105079,2,0,B|396:144|396:144|329:135,1,100,2|0,0:3|0:0,0:0:0:0:
154,243,105267,38,0,P|143:103|48:206,1,350,4|0,1:2|0:0,0:0:0:0:
118,176,106767,86,0,B|255:193|255:193|292:175|292:175|326:201|326:201|481:217,1,375.000014305115,4|0,1:0|0:0,0:0:0:0:
478,216,107329,2,0,L|466:137,1,75.0000028610231,2|0,0:0|0:0,0:0:0:0:
448,2,107517,1,10,0:0:0:0:
453,11,107704,102,0,P|435:36|384:37,1,75.0000028610231
295,150,107892,2,0,L|308:76,1,75.0000028610231,2|0,0:0|0:0,0:0:0:0:
162,117,108079,2,0,P|173:151|206:166,1,75.0000028610231
398,131,108267,5,0,1:0:0:0:
390,136,108454,102,0,B|376:159|376:159|391:246,1,100,2|0,0:0|0:0,0:0:0:0:
210,252,108642,2,0,B|224:275|224:275|209:362,1,100,2|0,0:0|0:0,0:0:0:0:
401,351,108829,1,0,3:0:0:0:
408,344,108923,1,0,3:0:0:0:
408,333,109017,5,8,3:2:0:0:
388,287,109110,1,0,3:0:0:0:
347,260,109204,1,0,3:0:0:0:
297,260,109298,1,0,3:0:0:0:
258,281,109392,1,0,3:0:0:0:
209,281,109486,1,0,3:0:0:0:
168,254,109580,1,0,3:0:0:0:
148,209,109673,1,0,3:0:0:0:
164,130,109767,101,0,1:0:0:0:
173,124,109954,6,0,P|184:102|182:73,1,50
263,76,110142,2,0,P|261:51|245:27,1,50
15,89,110329,101,2,0:3:0:0:
2,164,110423,2,0,B|10:207|10:207|5:215|5:215|13:262,1,100,2|8,0:3|0:0,0:0:0:0:
148,327,110610,1,2,0:3:0:0:
209,281,110704,1,2,0:3:0:0:
254,345,110798,1,2,0:3:0:0:
227,273,110892,6,0,B|235:234|235:234|231:226|231:226|239:218|239:218|248:180,1,100,2|0,0:3|0:0,0:0:0:0:
90,76,111079,2,0,B|99:114|99:114|107:122|107:122|103:130|103:130|111:169,1,100,2|0,0:3|0:0,0:0:0:0:
28,347,111267,101,0,1:0:0:0:
30,355,111454,6,0,P|66:359|99:342,1,75.0000028610231
127,184,111642,2,0,P|163:179|196:196,1,75.0000028610231
223,355,111829,2,0,P|259:359|292:342,1,75.0000028610231
319,184,112017,101,8,0:0:0:0:
326,189,112204,6,0,L|337:111,1,75.0000028610231
293,5,112392,2,0,L|219:34,1,75.0000028610231
151,126,112579,2,0,L|213:174,1,75.0000028610231
403,271,112767,102,0,B|468:218|468:218|435:80,1,225.000008583069,4|0,1:2|0:0,0:0:0:0:
435,80,113142,1,8,0:0:0:0:
326,189,113329,6,0,P|289:193|250:172,1,75.0000028610231,6|0,1:2|0:0,0:0:0:0:
223,32,113517,2,0,P|186:28|147:49,1,75.0000028610231,2|0,0:0|0:0,0:0:0:0:
59,164,113704,1,8,0:0:0:0:
58,173,113892,102,0,L|132:167,1,75.0000028610231,6|0,1:2|0:0,0:0:0:0:
349,103,114079,2,0,L|274:97,1,75.0000028610231,2|0,0:0|0:0,0:0:0:0:
162,286,114267,6,0,B|220:333|220:333|231:183,1,225.000008583069,4|0,1:2|0:0,0:0:0:0:
231,183,114642,1,8,0:0:0:0:
141,15,114829,102,0,L|146:89,1,75.0000028610231,6|0,1:2|0:0,0:0:0:0:
52,247,115017,2,0,L|57:172,1,75.0000028610231,2|0,0:0|0:0,0:0:0:0:
6,71,115204,1,8,0:0:0:0:
0,64,115392,6,0,P|31:45|67:52,1,75.0000028610231,6|0,1:2|0:0,0:0:0:0:
148,177,115579,2,0,P|179:195|215:188,1,75.0000028610231,2|0,0:0|0:0,0:0:0:0:
274,97,115767,37,4,1:2:0:0:
220,44,115867,2,0,L|217:10,2,25,8|8|8,0:2|3:2|0:2,0:0:0:0:
336,139,116067,1,0,1:0:0:0:
390,86,116167,2,0,L|393:52,2,25,8|8|8,0:2|3:2|0:2,0:0:0:0:
410,161,116367,1,4,1:2:0:0:
424,234,116467,1,8,0:0:0:0:
438,307,116567,21,4,1:2:0:0:
373,341,116667,2,0,L|339:338,2,25,8|8|8,0:2|3:2|0:2,0:0:0:0:
303,282,116867,1,0,1:0:0:0:
238,248,116967,2,0,L|204:251,2,25,8|8|8,0:2|3:2|0:2,0:0:0:0:
161,305,117167,1,4,1:2:0:0:
87,297,117267,1,8,0:0:0:0:
13,289,117367,85,0,1:0:0:0:
256,192,117473,12,4,119069,3:2:0:0:
78,332,119978,21,0,3:0:0:0:
152,324,120887,1,0,3:0:0:0:
226,316,121817,1,0,3:0:0:0:
300,308,122817,86,0,P|302:282|306:258,1,50,0|0,1:0|1:0,0:0:0:0:
383,292,123082,2,0,P|385:266|389:242,1,50,0|0,1:0|1:0,0:0:0:0:
297,168,123347,22,0,P|294:142|290:118,1,50,0|0,1:0|1:0,0:0:0:0:
214,152,123613,2,0,P|211:126|207:102,1,50,0|0,1:0|1:0,0:0:0:0:
300,28,123878,85,0,1:0:0:0:
383,12,124011,1,0,1:0:0:0:
508,99,124144,21,0,1:0:0:0:
425,83,124277,1,0,1:0:0:0:
289,186,124409,85,0,1:0:0:0:
372,170,124542,1,0,1:0:0:0:
501,309,124675,21,0,1:0:0:0:
418,293,124808,1,0,1:0:0:0:
246,354,124940,85,0,1:0:0:0:
232,355,125009,1,0,1:0:0:0:
220,355,125078,1,0,1:0:0:0:
208,355,125148,1,0,1:0:0:0:
195,352,125217,1,0,1:0:0:0:
184,349,125287,1,0,1:0:0:0:
172,343,125356,1,0,1:0:0:0:
162,337,125426,1,0,1:0:0:0:
152,329,125495,2,0,L|146:293,6,25,0|0|0|0|0|0|0,1:0|1:0|1:0|1:0|1:0|1:0|1:0,0:0:0:0:
194,237,126051,6,0,P|122:138|81:253,1,300,0|0,1:0|0:0,0:0:0:0:
81,252,127221,6,0,P|119:161|121:61,1,200,4|0,1:0|0:0,0:0:0:0:
45,21,127671,1,2,0:3:0:0:
204,153,127821,2,0,P|253:143|299:124,1,100,0|0,1:0|0:0,0:0:0:0:
43,105,128121,2,0,P|23:151|14:200,1,100,2|0,0:3|0:0,0:0:0:0:
152,373,128421,86,0,P|117:280|112:181,1,200,0|0,1:0|0:0,0:0:0:0:
136,91,128871,1,2,0:3:0:0:
211,202,129021,2,0,P|246:108|251:9,1,200,0|2,1:0|0:3,0:0:0:0:
290,324,129621,22,0,P|358:255|454:267,1,200,0|0,1:0|0:0,0:0:0:0:
491,344,130071,1,2,0:3:0:0:
346,220,130221,2,0,P|333:186|331:110,1,100,0|0,1:0|0:0,0:0:0:0:
470,0,130521,2,0,P|486:47|488:97,1,100,2|0,0:3|0:0,0:0:0:0:
426,163,130821,86,0,P|341:110|243:92,1,200,0|0,1:0|0:0,0:0:0:0:
159,120,131271,1,2,0:3:0:0:
70,303,131421,2,0,P|134:227|221:180,1,200,0|2,1:0|0:3,0:0:0:0:
418,348,132021,22,0,P|323:350|282:265,1,200,0|0,1:0|0:0,0:0:0:0:
352,209,132471,1,2,0:3:0:0:
201,333,132621,2,0,P|151:325|107:302,1,100,0|0,1:0|0:0,0:0:0:0:
34,163,132921,2,0,P|83:155|127:132,1,100,2|0,0:3|0:0,0:0:0:0:
252,41,133221,86,0,P|159:66|92:0,1,200,0|0,1:0|0:0,0:0:0:0:
263,125,133671,1,2,0:3:0:0:
328,78,133821,2,0,P|395:145|369:237,1,200,0|2,1:0|0:3,0:0:0:0:
201,333,134421,21,0,1:0:0:0:
4,150,134721,2,0,P|34:126|97:117,1,100,0|2,0:0|0:3,0:0:0:0:
191,248,135021,2,0,P|155:234|115:183,1,100,0|0,1:0|0:0,0:0:0:0:
183,38,135321,2,0,P|188:75|165:135,1,100,2|0,0:3|0:0,0:0:0:0:
30,271,135621,85,0,1:0:0:0:
305,245,135921,2,0,P|319:195|329:148,1,100,0|2,0:0|0:3,0:0:0:0:
183,38,136221,2,0,P|218:75|254:107,1,100,0|0,1:0|0:0,0:0:0:0:
423,35,136521,2,0,P|372:46|326:61,1,100,2|0,0:3|0:0,0:0:0:0:
212,204,136821,21,4,1:2:0:0:
215,213,136896,1,0,0:0:0:0:
219,222,136971,1,0,0:0:0:0:
191,300,137121,1,4,3:0:0:0:
67,263,137271,1,0,0:0:0:0:
60,238,137346,1,0,0:0:0:0:
53,213,137421,2,0,P|83:181|139:167,1,100,8|0,0:0|0:0,0:0:0:0:
355,335,137721,2,2,P|321:298|273:286,1,100,4|0,1:0|0:0,1:0:0:0:
127,354,138021,85,0,0:0:0:0:
223,371,138171,1,0,0:0:0:0:
305,210,138321,2,2,P|293:161|258:127,1,100,0|0,1:0|0:0,1:0:0:0:
106,69,138621,2,2,P|93:217|18:345,1,300,8|0,0:0|0:0,1:0:0:0:
8,211,139221,22,0,P|93:161|191:148,1,200,0|0,1:0|0:0,0:0:0:0:
389,169,139671,1,0,0:0:0:0:
396,144,139746,1,0,0:0:0:0:
403,119,139821,2,0,P|373:87|317:73,1,100,8|0,0:0|0:0,0:0:0:0:
223,258,140121,2,2,P|265:248|305:206,1,100,0|0,1:0|0:0,1:0:0:0:
241,18,140421,85,0,0:0:0:0:
320,72,140571,1,0,0:0:0:0:
303,208,140721,2,2,P|254:196|220:161,1,100,0|0,1:0|0:0,1:0:0:0:
467,66,141021,2,2,P|476:209|354:283,1,300,8|0,0:0|0:0,1:0:0:0:
223,258,141621,22,0,P|193:297|189:346,1,100,0|0,1:0|0:0,0:0:0:0:
283,332,141846,2,0,P|263:286|223:258,1,100
222,248,142071,1,0,0:0:0:0:
220,238,142146,1,0,0:0:0:0:
219,228,142221,2,0,P|263:207|312:213,1,100,8|0,0:0|0:0,0:0:0:0:
459,348,142521,2,2,P|414:368|365:362,1,100,0|0,1:0|0:0,1:0:0:0:
447,145,142821,85,0,0:0:0:0:
511,221,142971,1,0,0:0:0:0:
372,287,143121,2,2,P|331:258|312:213,1,100,0|0,1:0|0:0,1:0:0:0:
430,47,143421,2,2,P|297:115|148:129,1,300,8|0,0:0|0:0,1:0:0:0:
68,78,144021,21,0,1:0:0:0:
256,192,144109,12,0,145649,3:0:0:0:
256,192,145769,12,0,150245,0:0:0:0:
223,228,150487,69,6,1:2:0:0:
302,248,151008,1,0,0:0:0:0:
381,268,151530,1,0,0:0:0:0:
223,228,152052,1,0,0:0:0:0:
65,188,152573,21,2,0:0:0:0:
90,264,153085,1,0,0:0:0:0:
145,207,153598,1,0,0:0:0:0:
120,131,154111,1,0,0:0:0:0:
284,90,154624,85,2,0:0:0:0:
259,166,155128,1,0,0:0:0:0:
204,109,155632,1,0,0:0:0:0:
229,33,156136,1,0,0:0:0:0:
406,74,156640,21,2,0:0:0:0:
394,150,157135,1,0,0:0:0:0:
263,217,157631,85,2,0:0:0:0:
282,322,158085,1,0,0:0:0:0:
163,122,158540,5,6,1:2:0:0:
222,42,158767,1,0,1:0:0:0:
371,27,158994,1,0,1:0:0:0:
472,199,159221,2,0,L|466:228,2,25,8|8|8,1:2|3:2|3:2,0:0:0:0:
449,120,159449,21,0,1:0:0:0:
354,152,159676,1,0,1:0:0:0:
212,201,159903,1,0,1:0:0:0:
23,134,160131,2,0,L|29:105,2,25,8|8|8,1:2|3:2|3:2,0:0:0:0:
42,226,160358,85,2,1:2:0:0:
68,322,160575,1,0,1:0:0:0:
180,223,160792,1,0,1:0:0:0:
326,359,161010,2,0,L|355:353,2,25,8|8|8,1:2|3:2|3:2,0:0:0:0:
250,325,161227,21,0,1:0:0:0:
335,273,161438,1,0,1:0:0:0:
234,161,161649,1,0,1:0:0:0:
410,67,161860,2,0,L|434:72,2,25,8|8|8,1:2|3:2|3:2,0:0:0:0:
329,18,162072,85,10,1:2:0:0:
265,60,162168,1,8,0:0:0:0:
195,34,162265,2,0,L|189:58,2,25,0|0|0,0:2|0:0|0:0,0:0:0:0:
67,141,162459,21,8,0:0:0:0:
147,193,162555,1,8,0:0:0:0:
234,161,162652,2,0,L|240:191,2,25,0|0|0,0:2|0:0|0:0,0:0:0:0:
337,252,162846,85,8,0:0:0:0:
237,317,162942,1,8,0:0:0:0:
128,277,163039,2,0,L|120:315,2,25,0|0|0,0:2|0:0|0:0,0:0:0:0:
67,141,163233,21,8,0:0:0:0:
147,193,163329,1,8,0:0:0:0:
234,161,163426,2,0,L|240:191,2,25,0|0|0,0:2|0:0|0:0,0:0:0:0:
195,34,163620,86,0,L|189:58,30,25,10|0|0|0|0|0|0|0|0|0|0|0|0|0|0|0|0|0|0|0|0|0|0|0|0|0|0|0|0|0|0,0:0|0:0|0:0|0:0|0:0|0:0|0:0|0:0|0:0|0:0|0:0|0:0|0:0|0:0|0:0|0:0|0:0|0:0|0:0|0:0|0:0|0:0|0:0|0:0|0:0|0:0|0:0|0:0|0:0|0:0|0:0,0:0:0:0:
262,85,165057,22,0,L|327:75,1,50,2|0,0:0|0:0,0:0:0:0:
386,37,165236,2,0,L|396:102,1,50,2|0,0:0|0:0,0:0:0:0:
434,161,165416,2,0,L|369:171,1,50,2|0,0:0|0:0,0:0:0:0:
310,209,165596,2,0,L|300:144,1,50,2|0,0:0|0:0,0:0:0:0:
256,74,165775,86,0,L|315:65,1,59.9999981689454,2|0,0:0|0:0,0:0:0:0:
397,31,165955,2,0,L|405:90,1,59.9999981689454,2|0,0:0|0:0,0:0:0:0:
440,172,166134,2,0,L|380:180,1,59.9999981689454,2|0,0:0|0:0,0:0:0:0:
299,215,166314,2,0,L|290:155,1,59.9999981689454,2|0,0:0|0:0,0:0:0:0:
193,117,166494,22,0,L|116:127,1,69.9999978637696,2|0,0:0|0:0,0:0:0:0:
44,102,166669,2,0,L|54:179,1,69.9999978637696,2|0,0:0|0:0,0:0:0:0:
29,251,166844,2,0,L|106:241,1,69.9999978637696,2|0,0:0|0:0,0:0:0:0:
178,266,167020,2,0,L|168:189,1,69.9999978637696,2|0,0:0|0:0,0:0:0:0:
199,101,167195,86,0,L|113:112,1,80,2|0,0:0|0:0,0:0:0:0:
28,96,167371,2,0,L|39:182,1,80,2|0,0:0|0:0,0:0:0:0:
23,267,167546,2,0,L|109:256,1,80,2|0,0:0|0:0,0:0:0:0:
194,272,167722,2,0,L|183:186,1,80,2|0,0:0|0:0,0:0:0:0:
267,166,167897,21,2,0:0:0:0:
279,195,167983,1,2,0:0:0:0:
308,210,168070,1,2,0:0:0:0:
340,201,168157,1,2,0:0:0:0:
395,142,168243,85,2,0:0:0:0:
441,128,168330,1,2,0:0:0:0:
485,149,168417,1,2,0:0:0:0:
505,194,168503,1,2,0:0:0:0:
429,214,168590,21,2,3:2:0:0:
414,225,168633,1,0,3:2:0:0:
401,239,168676,1,2,3:2:0:0:
391,255,168720,1,0,3:2:0:0:
384,272,168763,1,2,3:2:0:0:
381,291,168806,1,0,3:2:0:0:
381,309,168850,1,2,3:2:0:0:
384,328,168893,1,0,3:2:0:0:
390,345,168937,2,0,L|432:350,6,25,2|0|2|0|2|0|2,3:2|3:2|3:2|3:2|3:2|3:2|3:2,0:2:0:0:
315,366,169302,85,0,1:0:0:0:
315,366,170537,38,2,B|310:304|310:304|316:289|316:289|308:217,1,150,0|0,0:0|0:0,1:0:0:0:
387,192,170713,6,0,B|329:206|298:160|298:160|266:113|212:127,1,200,6|0,1:2|0:0,0:0:0:0:
150,200,170978,1,0,0:0:0:0:
143,214,171066,2,0,P|184:227|237:195,1,100,0|0,1:0|0:0,0:0:0:0:
275,53,171243,2,0,L|329:46,1,50,2|0,0:0|0:0,0:0:0:0:
277,33,171331,2,0,L|331:26,1,50,2|0,0:0|0:0,0:0:0:0:
200,44,171419,101,2,1:2:0:0:
191,116,171507,1,2,0:0:0:0:
233,177,171595,1,2,0:0:0:0:
304,194,171683,1,0,0:0:0:0:
369,159,171772,2,0,P|411:183|423:230,1,100,2|0,1:2|0:0,0:0:0:0:
260,358,171949,2,0,P|260:309|294:274,1,100,2|0,0:2|0:0,0:0:0:0:
444,180,172125,6,0,P|445:275|364:326,1,200,2|0,1:2|0:0,0:0:0:0:
207,249,172390,1,0,0:0:0:0:
192,260,172478,2,0,P|192:308|226:343,1,100,0|0,1:0|0:0,0:0:0:0:
371,232,172654,2,0,L|364:281,1,50,2|0,0:0|0:0,0:0:0:0:
351,234,172742,2,0,L|344:283,1,50,2|0,0:0|0:0,0:0:0:0:
281,205,172831,101,2,1:2:0:0:
243,143,172919,1,2,0:0:0:0:
259,72,173007,1,2,0:0:0:0:
320,31,173095,1,0,0:0:0:0:
392,45,173184,6,0,P|400:82|422:109,1,50,2|0,1:2|0:0,0:0:0:0:
414,70,173272,2,0,P|427:105|454:127,1,50,2|0,0:0|0:0,0:0:0:0:
443,84,173360,2,0,P|462:116|492:134,1,50,2|0,0:0|0:0,0:0:0:0:
477,85,173449,2,0,P|501:113|534:125,1,50,2|0,0:0|0:0,0:0:0:0:
460,12,173537,102,0,P|403:93|398:191,1,200,2|0,1:2|0:0,0:0:0:0:
464,230,173802,1,0,0:0:0:0:
478,223,173890,2,0,P|491:264|459:317,1,100,0|0,1:0|0:0,0:0:0:0:
276,350,174066,2,0,L|227:343,1,50,2|0,0:0|0:0,0:0:0:0:
274,330,174154,2,0,L|225:323,1,50,2|0,0:0|0:0,0:0:0:0:
321,265,174243,5,2,1:2:0:0:
266,216,174331,1,2,0:0:0:0:
193,219,174419,1,2,0:0:0:0:
144,273,174507,1,0,0:0:0:0:
146,346,174596,2,0,P|99:358|57:334,1,100,2|0,1:2|0:0,0:0:0:0:
2,204,174772,2,0,P|14:156|57:132,1,100,2|0,0:2|0:0,0:0:0:0:
215,136,174949,102,0,B|255:191|255:191|185:207|126:160,1,200,2|0,1:2|0:0,0:0:0:0:
78,18,175213,1,0,0:0:0:0:
86,5,175302,2,0,P|120:39|120:88,1,100,0|0,1:0|0:0,0:0:0:0:
52,276,175478,2,0,L|-2:283,1,50,2|0,0:0|0:0,0:0:0:0:
50,296,175566,2,0,L|-4:303,1,50,2|0,0:0|0:0,0:0:0:0:
95,358,175654,5,2,1:2:0:0:
165,340,175742,1,2,0:0:0:0:
205,278,175830,1,2,0:0:0:0:
191,206,175918,1,2,0:0:0:0:
131,163,176007,102,0,P|99:164|76:151,1,50,2|0,1:2|0:0,0:0:0:0:
104,142,176096,2,0,P|75:126|62:104,1,50,2|0,0:0|0:0,0:0:0:0:
92,112,176184,2,0,P|75:84|74:58,1,50,2|0,0:0|0:0,0:0:0:0:
97,79,176272,2,0,P|96:47|109:24,1,50,2|0,0:0|0:0,0:0:0:0:
170,70,176360,6,0,B|228:84|259:38|259:38|291:-9|345:5,1,200,6|0,1:2|0:0,0:0:0:0:
367,149,176625,1,0,0:0:0:0:
359,162,176714,2,0,P|325:128|325:79,1,100,0|0,1:0|0:0,0:0:0:0:
446,123,176890,2,0,L|495:129,1,50,2|0,0:0|0:0,0:0:0:0:
448,143,176978,2,0,L|497:149,1,50,2|0,0:0|0:0,0:0:0:0:
420,212,177066,101,2,1:2:0:0:
464,270,177154,1,2,0:0:0:0:
448,341,177242,1,2,0:0:0:0:
384,374,177330,1,0,0:0:0:0:
316,346,177419,2,0,P|282:312|282:263,1,100,2|0,1:2|0:0,0:0:0:0:
325,78,177596,2,0,P|312:124|270:148,1,100,2|0,0:0|0:0,0:0:0:0:
73,67,177772,5,2,1:2:0:0:
92,58,177860,2,0,P|81:97|60:111,1,50,2|0,3:2|3:0,0:0:0:0:
137,78,177949,2,0,P|107:106|82:107,1,50,2|0,3:2|3:0,0:0:0:0:
182,135,178037,2,0,P|142:144|120:133,1,50,2|0,3:2|3:0,0:0:0:0:
172,216,178125,102,0,P|118:191|74:60,1,200,2|0,1:2|1:0,0:0:0:0:
140,4,178390,1,0,1:0:0:0:
239,81,178478,21,8,1:2:0:0:
325,78,178596,5,8,1:2:0:0:
388,23,178713,101,8,1:2:0:0:
393,120,178831,5,0,1:2:0:0:
440,161,178948,101,0,1:2:0:0:
501,162,179066,5,0,1:2:0:0:
468,92,179184,86,0,P|410:171|404:270,1,200,2|0,1:2|0:0,0:0:0:0:
460,329,179449,1,0,0:0:0:0:
467,342,179537,2,0,P|418:342|383:308,1,100,0|0,1:0|0:0,0:0:0:0:
226,243,179713,2,0,L|177:237,1,50,2|0,3:2|3:0,0:0:0:0:
224,223,179801,2,0,L|175:217,1,50,2|0,3:2|3:0,0:0:0:0:
302,226,179890,101,2,1:2:0:0:
304,299,179978,1,2,0:0:0:0:
256,354,180066,1,2,0:0:0:0:
183,362,180154,1,0,3:0:0:0:
125,318,180242,21,2,1:2:0:0:
44,355,180360,5,2,3:2:0:0:
100,291,180478,101,2,3:2:0:0:
18,327,180596,6,0,L|36:179,1,150,2|0,1:0|0:0,0:0:0:0:
125,70,181302,86,0,P|133:118|166:161,1,100,2|0,1:2|0:0,0:0:0:0:
316,94,181478,2,0,P|308:46|275:3,1,100,2|0,1:2|0:0,0:0:0:0:
231,79,181654,102,0,P|201:118|193:167,1,100,2|0,1:2|0:0,0:0:0:0:
346,232,181831,2,0,P|375:192|383:143,1,100,2|0,1:2|0:0,0:0:0:0:
259,225,182007,22,2,L|275:374,1,150.000005722046,4|0,1:0|0:0,1:0:0:0:
399,342,182272,1,0,0:0:0:0:
384,355,182360,2,0,L|234:338,1,150.000005722046,2|0,1:2|0:0,0:0:0:0:
131,326,182625,1,2,0:0:0:0:
146,322,182713,86,0,P|167:291|176:255,1,75.0000028610231,2|0,1:2|0:0,0:0:0:0:
99,140,182890,1,0,0:0:0:0:
84,136,182978,1,0,0:0:0:0:
35,74,183066,1,2,1:2:0:0:
79,42,183154,1,2,0:0:0:0:
135,38,183242,1,2,0:0:0:0:
184,63,183330,1,2,0:0:0:0:
212,111,183419,22,0,P|242:132|278:141,1,75.0000028610231,2|0,1:2|0:0,0:0:0:0:
435,88,183596,1,0,0:0:0:0:
425,72,183684,1,0,0:0:0:0:
364,117,183772,2,0,L|342:275,1,150.000005722046,2|0,1:2|0:0,0:0:0:0:
355,359,184037,1,0,0:0:0:0:
420,312,184125,85,0,1:0:0:0:
429,298,184213,2,0,L|271:320,1,150.000005722046,2|0,0:0|0:0,0:0:0:0:
119,306,184478,2,0,L|277:284,1,150.000005722046,0|2,1:0|0:0,0:0:0:0:
278,141,184743,1,0,0:0:0:0:
267,127,184831,22,0,P|196:121|151:178,1,150.000005722046,2|0,1:2|0:0,0:0:0:0:
135,310,185096,1,0,0:0:0:0:
124,323,185184,2,0,P|52:329|7:272,1,150.000005722046,2|0,1:2|0:0,0:0:0:0:
47,189,185449,1,2,0:0:0:0:
58,202,185537,86,0,L|47:113,1,75.0000028610231,2|0,1:2|0:0,0:0:0:0:
201,62,185713,1,0,0:0:0:0:
190,75,185802,1,0,0:0:0:0:
136,131,185890,1,2,1:2:0:0:
162,180,185978,1,2,0:0:0:0:
208,211,186066,1,2,0:0:0:0:
264,214,186154,1,2,0:0:0:0:
314,189,186243,6,0,P|347:154|396:150,1,100,10|0,3:2|0:0,0:0:0:0:
461,213,186419,1,0,3:0:0:0:
402,164,186507,2,0,P|388:117|409:72,1,100,10|0,3:2|0:0,0:0:0:0:
495,48,186684,1,0,3:0:0:0:
423,75,186772,2,0,P|375:63|347:23,1,100,8|0,3:2|0:0,0:0:0:0:
199,8,186949,1,2,3:2:0:0:
268,39,187037,2,0,P|281:86|260:130,1,100,10|2,3:2|0:0,0:0:0:0:
223,285,187214,1,2,3:2:0:0:
154,254,187302,22,0,L|162:169,1,75,0|0,1:0|0:0,0:0:0:0:
72,142,187654,102,0,B|48:192|48:192|71:283,1,150.000005722046,4|0,1:0|0:0,0:0:0:0:
31,360,187919,1,0,0:0:0:0:
26,350,188007,2,0,L|104:361,1,75.0000028610231,2|0,1:2|0:0,0:0:0:0:
263,304,188184,2,0,L|300:309,2,37.5000014305115,2|0|0,3:2|3:0|3:0,0:0:0:0:
176,371,188360,86,0,L|187:293,1,75.0000028610231,2|0,1:2|0:0,0:0:0:0:
94,96,188537,1,0,0:0:0:0:
116,146,188625,1,0,0:0:0:0:
161,179,188713,1,2,1:2:0:0:
217,185,188801,1,0,0:0:0:0:
267,162,188890,2,0,L|272:124,2,37.5000014305115,0|0|0,3:0|3:0|3:0,0:0:0:0:
287,48,189066,22,0,P|348:7|419:24,1,150.000005722046,0|2,1:0|0:0,0:0:0:0:
468,106,189331,1,0,0:0:0:0:
459,97,189419,2,0,P|441:120|439:171,1,75.0000028610231,2|0,1:2|0:0,0:0:0:0:
494,325,189596,2,0,L|488:362,2,37.5000014305115,2|0|0,3:2|3:0|3:0,0:0:0:0:
466,257,189772,86,0,P|443:239|392:237,1,75.0000028610231,0|0,1:0|0:0,0:0:0:0:
292,299,189949,1,0,0:0:0:0:
252,338,190037,1,0,0:0:0:0:
201,361,190125,1,2,1:2:0:0:
145,363,190213,1,2,0:0:0:0:
92,344,190302,2,0,L|97:306,2,37.5000014305115,2|0|0,3:2|3:0|3:0,0:0:0:0:
185,262,190478,6,0,P|109:166|82:294,1,300,4|0,1:0|0:0,0:0:0:0:
121,236,190831,22,0,L|114:318,1,75,0|0,3:0|0:0,0:0:0:0:
257,308,191184,86,0,B|269:202|269:202|199:158|199:158|210:47,1,300,4|0,1:0|0:0,0:0:0:0:
282,99,191537,22,0,B|306:126|306:126|343:115,1,75,0|0,3:0|0:0,0:0:0:0:
367,39,191890,22,0,L|359:-5,14,25,2|0|0|0|0|0|0|0|0|0|0|0|0|0|0,1:2|0:0|0:0|0:0|0:0|0:0|0:0|0:0|0:0|0:0|0:0|0:0|0:0|0:0|0:0,0:0:0:0:
463,67,192596,22,0,L|455:106,2,37.5000014305115,2|0|0,0:0|0:0|0:0,0:0:0:0:
462,180,192772,2,0,L|454:219,2,37.5000014305115,2|0|0,0:0|0:0|0:0,0:0:0:0:
461,293,192949,86,0,L|451:341,6,50,2|0|0|0|0|0|0,0:0|0:0|0:0|0:0|0:0|0:0|0:0,0:0:0:0:
387,261,193302,21,4,1:0:0:0:
256,192,193390,12,4,198949,0:3:0:0:
256,192,210243,85,0,3:0:0:0:
256,192,210331,12,0,212890,0:0:0:0:
256,192,213066,21,2,1:3:0:0:
104,226,213772,1,2,3:3:0:0:
408,158,214478,85,0,1:0:0:0:
408,158,214671,1,0,1:0:0:0:
404,238,214865,21,0,1:0:0:0:
404,238,215058,1,0,1:0:0:0:
361,306,215252,85,0,1:0:0:0:
361,306,215445,1,0,1:0:0:0:
290,344,215639,21,0,1:0:0:0:
290,344,215832,1,0,1:0:0:0:
104,226,216026,85,2,1:3:0:0:
107,145,216219,1,0,1:0:0:0:
150,77,216413,1,0,1:0:0:0:
221,40,216607,1,0,1:0:0:0:
97,217,216800,21,2,3:3:0:0:
100,136,216994,1,0,1:0:0:0:
143,68,217187,1,0,1:0:0:0:
214,31,217381,1,0,1:0:0:0:
294,32,217574,86,0,P|333:64|382:70,1,100,0|0,1:0|1:0,0:0:0:0:
415,230,217987,2,0,P|383:269|377:318,1,100,0|0,1:0|1:0,0:0:0:0:
217,351,218401,2,0,P|178:319|129:313,1,100,0|0,1:0|1:0,0:0:0:0:
96,153,218815,2,0,P|128:114|134:65,1,100,0|0,1:0|1:0,0:0:0:0:
256,192,219229,21,4,1:0:0:0:
256,192,219336,1,0,1:0:0:0:
256,112,219443,85,0,1:0:0:0:
256,104,219550,1,0,1:0:0:0:
325,152,219657,21,0,1:0:0:0:
332,148,219764,1,0,1:0:0:0:
325,232,219871,85,0,1:0:0:0:
332,236,219978,1,0,1:0:0:0:
256,272,220086,21,0,1:0:0:0:
256,280,220193,1,0,1:0:0:0:
186,232,220300,85,0,1:0:0:0:
179,236,220407,1,0,1:0:0:0:
186,151,220514,21,0,1:0:0:0:
179,148,220621,1,0,1:0:0:0:
256,192,220729,85,0,1:0:0:0:
256,192,220836,1,0,1:0:0:0:
324,68,220943,21,0,1:0:0:0:
328,61,221056,1,0,1:0:0:0:
397,188,221170,85,0,1:0:0:0:
405,188,221283,1,0,1:0:0:0:
329,312,221397,21,0,1:0:0:0:
333,319,221510,1,0,1:0:0:0:
188,316,221624,85,0,1:0:0:0:
184,323,221738,1,0,1:0:0:0:
114,195,221852,21,0,1:0:0:0:
106,195,221965,1,0,1:0:0:0:
182,71,222079,85,0,1:0:0:0:
178,64,222193,1,0,1:0:0:0:
256,192,222306,21,0,1:0:0:0:
243,262,222420,1,0,1:0:0:0:
107,328,222533,85,0,1:0:0:0:
88,214,222647,1,0,1:0:0:0:
182,71,222761,21,0,3:0:0:0:
167,91,222820,1,0,3:0:0:0:
149,108,222880,1,0,3:0:0:0:
129,122,222939,1,0,3:0:0:0:
106,133,222999,1,0,3:0:0:0:
82,140,223058,1,0,3:0:0:0:
58,143,223118,1,0,3:0:0:0:
33,143,223177,1,0,3:0:0:0:
8,138,223237,2,0,L|14:106,6,25,0|0|0|0|0|0|0,3:0|3:0|3:0|3:0|3:0|3:0|3:0,0:0:0:0:
2,227,223713,85,0,3:0:0:0:
19,252,223772,1,0,3:0:0:0:
42,273,223832,1,0,3:0:0:0:
68,290,223891,1,0,3:0:0:0:
95,304,223951,1,0,3:0:0:0:
125,313,224010,1,0,3:0:0:0:
157,317,224070,1,0,3:0:0:0:
188,315,224129,1,0,3:0:0:0:
218,310,224189,2,0,L|211:269,6,25,0|0|0|0|0|0|0,3:0|3:0|3:0|3:0|3:0|3:0|3:0,0:0:0:0:
283,353,224665,21,0,0:1:0:0:
283,353,226444,2,0,P|286:324|307:277,1,75
372,254,226698,6,0,P|402:208|348:99,1,187.5,6|0,1:2|0:0,0:0:0:0:
279,124,226958,2,0,P|216:124|158:104,1,125,10|0,0:0|0:0,0:0:0:0:
0,57,227219,2,0,P|58:36|120:36,1,125,2|0,1:2|0:0,0:0:0:0:
260,212,227480,1,10,0:0:0:0:
260,212,227545,1,2,0:0:0:0:
260,212,227611,1,2,0:0:0:0:
102,300,227741,38,0,P|87:204|79:101,1,187.5,2|0,1:2|0:0,0:0:0:0:
120,36,228002,2,0,L|102:163,1,125,10|0,0:0|0:0,0:0:0:0:
364,367,228263,2,0,L|346:243,1,125,2|0,1:2|0:0,0:0:0:0:
238,141,228524,1,10,0:0:0:0:
238,141,228654,1,0,0:0:0:0:
438,309,228784,70,0,B|340:298|385:379|270:367,1,187.5,2|0,1:2|0:0,0:0:0:0:
192,333,229045,2,0,P|184:272|224:226,1,125,10|0,1:2|0:0,0:0:0:0:
410,176,229306,2,0,P|361:213|301:202,1,125,2|0,1:2|0:0,0:0:0:0:
165,66,229567,1,10,0:0:0:0:
165,66,229632,1,2,0:0:0:0:
165,66,229698,1,2,0:0:0:0:
224,226,229828,38,0,P|230:315|154:362,1,187.5,2|0,1:2|0:0,0:0:0:0:
156,276,230089,2,0,L|17:295,1,125,10|0,0:0|0:0,0:0:0:0:
68,129,230350,1,2,1:2:0:0:
105,80,230415,1,2,0:0:0:0:
165,66,230480,1,2,0:0:0:0:
220,92,230545,1,2,0:0:0:0:
248,147,230611,1,10,0:0:0:0:
281,179,230676,1,0,0:0:0:0:
325,194,230741,1,2,0:0:0:0:
371,187,230806,1,0,0:0:0:0:
409,160,230871,70,0,P|457:240|460:333,1,187.5,2|0,1:0|0:0,0:0:0:0:
386,362,231132,2,0,P|338:324|277:315,1,125,10|0,0:2|0:0,0:0:0:0:
60,347,231393,2,0,P|117:324|155:275,1,125,2|0,1:2|0:0,0:0:0:0:
105,80,231654,1,10,0:0:0:0:
105,80,231719,1,2,0:0:0:0:
105,80,231784,1,2,0:0:0:0:
236,243,231915,38,0,L|421:217,1,187.5,2|0,1:2|0:0,0:0:0:0:
491,167,232176,2,0,P|444:126|412:72,1,125,10|0,0:0|0:0,0:0:0:0:
266,1,232437,2,0,P|254:63|223:116,1,125,2|0,1:2|0:0,0:0:0:0:
12,126,232698,1,10,0:0:0:0:
12,126,232828,1,0,0:0:0:0:
236,243,232958,70,0,P|143:234|57:195,1,187.5,2|0,1:2|0:0,0:0:0:0:
12,126,233219,2,0,L|142:111,1,125,10|0,0:0|0:0,0:0:0:0:
263,337,233480,1,2,1:2:0:0:
151,266,233611,1,0,0:0:0:0:
213,158,233741,1,10,0:0:0:0:
213,158,233806,1,2,0:0:0:0:
213,158,233871,1,2,0:0:0:0:
459,147,234002,38,0,P|406:134|320:227,1,187.5,2|0,1:2|0:0,0:0:0:0:
364,310,234263,2,0,P|314:234|225:237,1,187.5,10|0,0:2|0:0,0:0:0:0:
151,266,234524,6,0,P|135:261|123:249,2,33.3333333333333,2|2|2,1:2|0:0|0:0,0:0:0:0:
88,182,234784,22,0,P|106:154|137:142,1,66.6666666666667,2|0,1:2|0:0,0:0:0:0:
213,158,235045,86,0,P|216:129|237:82,1,75,0|0,3:0|0:0,0:0:0:0:
262,14,235306,54,0,P|221:58|161:53,1,125,14|0,1:2|0:0,0:0:0:0:
0,0,235567,2,0,P|58:12|84:67,1,125,2|0,1:2|0:0,0:0:0:0:
47,251,235828,1,10,0:0:0:0:
47,251,235893,1,2,0:0:0:0:
47,251,235958,1,2,0:0:0:0:
256,378,236089,38,0,P|274:324|279:174,1,187.5,2|0,1:2|0:0,0:0:0:0:
213,158,236350,2,0,P|152:172|90:173,1,125,10|0,0:2|0:0,0:0:0:0:
365,274,236611,2,0,P|425:288|487:289,1,125,2|0,1:2|0:0,0:0:0:0:
138,343,236871,1,10,0:0:0:0:
138,343,237002,1,0,0:0:0:0:
44,100,237132,70,0,B|142:89|97:170|212:158,1,187.5,2|0,1:2|0:0,0:0:0:0:
269,103,237393,2,0,P|254:163|253:225,1,125,10|0,0:0|0:0,0:0:0:0:
448,376,237654,2,0,P|462:315|463:253,1,125,2|0,1:2|0:0,0:0:0:0:
345,55,237915,1,10,0:0:0:0:
345,55,237980,1,2,0:0:0:0:
345,55,238045,1,2,0:0:0:0:
308,297,238176,37,2,1:2:0:0:
365,165,238306,2,0,L|179:192,1,187.5,8|0,0:0|0:0,0:0:0:0:
138,260,238567,1,2,1:2:0:0:
5,126,238698,70,0,B|58:90|58:90|115:112,1,125,10|0,0:0|0:0,0:0:0:0:
138,260,238893,2,0,B|84:295|84:295|27:273,1,125,10|0,0:0|0:0,0:0:0:0:
40,198,239089,2,0,L|103:189,1,62.5,10|0,0:0|0:0,0:0:0:0:
284,162,239219,38,0,P|299:136|292:100,1,50,0|0,1:0|0:0,0:0:0:0:
298,116,239480,86,0,P|209:202|328:237,1,300,10|0,0:0|0:0,0:0:0:0:
370,180,239741,22,0,P|394:181|415:194,1,50,0|0,1:0|0:0,0:0:0:0:
415,194,240002,85,10,0:0:0:0:
415,194,240067,1,2,0:0:0:0:
415,194,240132,2,0,P|366:205|328:236,1,100,2|0,0:0|0:0,0:0:0:0:
250,333,240263,22,0,P|225:331|204:318,1,50,0|0,1:0|0:0,0:0:0:0:
204,318,240524,86,0,B|100:297|135:386|23:363|23:363|59:252,1,300,10|0,0:0|0:0,0:0:0:0:
131,236,240784,22,0,L|116:174,1,50,2|0,1:2|0:0,0:0:0:0:
119,187,241045,86,0,P|34:97|155:73,1,300,10|0,0:2|0:0,0:0:0:0:
235,160,241306,22,0,P|274:43|154:72,1,300,2|0,1:2|0:0,0:0:0:0:
255,350,242350,70,0,P|250:326|238:304,1,50,0|0,3:0|0:0,0:0:0:0:
270,340,242480,6,0,P|275:316|287:294,1,50,0|0,3:0|0:0,0:0:0:0:
161,276,242611,102,0,P|142:251|131:222,1,62.5,0|0,3:0|0:0,0:0:0:0:
364,266,242741,6,0,P|382:241|393:212,1,62.5,0|0,3:0|0:0,0:0:0:0:
158,148,242871,102,0,P|181:122|236:129,1,75.0000028610231,0|0,3:0|0:0,0:0:0:0:
334,93,243002,6,0,P|309:66|272:64,1,75.0000028610231,0|0,3:0|0:0,0:0:0:0:
255,206,243132,22,0,B|223:286|287:286|255:350,1,150,0|0,3:0|0:0,0:0:0:0:
332,162,243393,70,0,P|297:85|220:120,1,187.5,6|0,1:0|0:0,0:0:0:0:
255,206,243654,2,0,P|193:217|131:223,1,125,10|0,0:0|0:0,0:0:0:0:
65,26,243915,2,0,P|127:31|188:43,1,125,2|0,1:2|0:0,0:0:0:0:
333,163,244176,1,8,0:2:0:0:
333,163,244241,1,0,0:2:0:0:
333,163,244306,1,0,0:2:0:0:
111,300,244437,38,0,B|100:202|181:247|169:132,1,187.5,2|0,1:2|0:2,0:2:0:0:
0,94,244697,2,0,P|27:147|87:155,1,125,10|0,0:2|0:2,0:2:0:0:
334,49,244958,2,0,P|273:46|237:94,1,125,2|0,1:2|0:2,0:2:0:0:
186,324,245219,1,10,0:0:0:0:
186,324,245350,1,0,0:0:0:0:
109,44,245480,70,0,P|117:123|149:246,1,187.5,2|0,1:2|0:2,0:2:0:0:
214,253,245741,2,0,P|236:190|248:121,1,125,10|0,0:2|0:2,0:2:0:0:
23,211,246002,2,0,P|65:261|119:306,1,125,2|0,1:2|0:2,0:2:0:0:
314,354,246263,1,10,0:2:0:0:
314,354,246328,1,2,0:2:0:0:
314,354,246393,1,2,0:2:0:0:
349,140,246524,38,0,P|280:108|207:183,1,187.5,2|0,1:2|0:2,0:2:0:0:
214,253,246784,2,0,L|342:270,1,125,10|0,0:2|0:2,0:2:0:0:
467,35,247045,1,2,1:2:0:0:
405,38,247110,1,2,0:2:0:0:
360,79,247175,1,2,0:2:0:0:
349,140,247240,1,2,0:2:0:0:
376,193,247306,1,2,1:2:0:0:
410,226,247371,1,0,0:2:0:0:
421,271,247436,1,2,0:2:0:0:
408,315,247501,1,0,0:2:0:0:
373,346,247567,70,0,L|187:321,1,187.5,2|0,1:0|0:2,0:2:0:0:
123,282,247828,2,0,P|69:291|3:322,1,125,10|0,0:2|0:2,0:2:0:0:
286,187,248089,2,0,P|305:135|311:63,1,125,2|0,1:2|0:2,0:2:0:0:
88,36,248350,1,10,0:2:0:0:
88,36,248415,1,2,0:2:0:0:
88,36,248480,1,2,0:2:0:0:
30,197,248611,38,0,P|118:165|210:153,1,187.5,2|0,1:2|0:0,0:0:0:0:
286,187,248871,2,0,P|265:245|260:307,1,125,10|0,0:0|0:0,0:0:0:0:
415,207,249132,2,0,P|410:144|389:86,1,125,2|0,1:2|0:0,0:0:0:0:
147,142,249393,1,10,0:0:0:0:
147,142,249524,1,0,0:0:0:0:
321,355,249654,22,0,L|260:61,1,300.000011444092,4|8,1:0|0:0,0:0:0:0:
435,177,250697,22,0,L|141:237,1,300.000011444092,0|8,1:0|0:0,0:0:0:0:
20,169,251480,1,0,1:0:0:0:
23,158,251545,1,0,1:0:0:0:
26,147,251611,1,0,1:0:0:0:
29,136,251676,1,0,1:0:0:0:
32,125,251741,85,12,0:0:0:0:
108,111,252002,1,8,0:0:0:0:
184,97,252263,1,8,0:0:0:0:
260,83,252524,1,8,0:0:0:0:
423,174,252784,38,0,P|361:175|314:135,1,125,4|0,1:2|0:0,0:0:0:0:
268,0,252980,2,0,P|299:52|288:112,1,125,4|0,1:2|0:0,0:0:0:0:
232,163,253176,1,4,1:2:0:0:
223,160,253437,38,0,L|239:246,1,62.5,4|0,1:2|0:0,0:0:0:0:
351,253,253567,2,0,L|335:339,1,62.5,4|0,1:2|0:0,0:0:0:0:
169,312,253697,2,0,L|185:398,1,62.5,4|0,1:2|0:2,0:2:0:0:
274,369,253828,53,0,1:0:0:0:
350,350,254089,1,8,0:0:0:0:
426,331,254350,1,8,0:0:0:0:
502,312,254611,1,8,0:0:0:0:
416,128,254871,6,0,L|342:120,1,62.5,4|0,1:2|0:0,0:0:0:0:
228,104,255002,2,0,L|196:100,2,31.25,8|8|8,0:0|0:0|0:0,0:0:0:0:
124,191,255132,38,0,L|198:183,1,62.5,0|0,1:0|0:0,0:0:0:0:
324,37,255263,2,0,L|355:33,2,31.25,8|8|8,0:0|0:0|0:0,0:0:0:0:
286,155,255393,70,0,B|268:192|268:192|276:275,1,125,0|0,1:0|0:0,0:0:0:0:
330,331,255589,2,0,B|293:313|293:313|209:321,1,125,0|0,1:0|0:0,0:0:0:0:
126,329,255784,1,0,1:0:0:0:
42,194,255915,38,0,P|85:117|173:125,1,187.5,0|0,1:0|0:0,0:0:0:0:
314,235,256176,2,0,P|250:235|210:187,1,125,8|0,0:0|0:0,0:0:0:0:
238,17,256371,2,0,P|270:72|248:131,1,125,8|0,0:0|0:0,0:0:0:0:
173,125,256567,70,0,L|166:62,1,62.5,0|0,1:0|0:0,0:0:0:0:
331,156,256697,2,0,L|356:98,1,62.5,0|0,1:0|0:0,0:0:0:0:
452,261,256828,2,0,L|502:224,1,62.5,0|0,1:0|0:0,0:0:0:0:
431,180,256958,38,0,B|371:224|371:224|390:335,1,187.5,0|0,1:0|0:0,0:0:0:0:
271,357,257219,2,0,B|311:333|311:333|298:255,1,125,8|0,0:0|0:0,0:0:0:0:
252,189,257415,2,0,B|212:213|212:213|224:290,1,125,8|0,0:0|0:0,0:0:0:0:
189,357,257611,70,0,L|127:347,1,62.5,0|0,1:0|0:0,0:0:0:0:
38,221,257741,2,0,L|99:211,1,62.5,0|0,1:0|0:0,0:0:0:0:
260,110,257871,2,0,L|198:100,1,62.5,0|0,1:0|0:0,0:0:0:0:
6,33,258002,37,8,3:2:0:0:
15,41,258067,1,0,3:2:0:0:
23,48,258132,2,0,P|41:74|42:105,1,62.5,0|0,3:0|0:0,0:0:0:0:
242,14,258263,1,8,3:2:0:0:
239,26,258328,2,0,P|225:53|199:70,1,62.5,0|0,3:0|0:0,0:0:0:0:
378,197,258459,1,8,3:2:0:0:
366,200,258524,2,0,P|335:202|307:187,1,62.5,0|0,3:0|0:0,0:0:0:0:
115,40,258654,69,8,3:2:0:0:
117,51,258719,1,0,3:0:0:0:
120,62,258784,1,0,3:0:0:0:
123,73,258850,1,0,3:0:0:0:
125,85,258915,2,0,L|141:158,1,62.5,0|0,0:0|3:0,0:0:0:0:
165,297,259045,86,0,P|114:176|11:255,1,300,0|0,1:0|0:0,0:0:0:0:
223,361,260089,101,4,1:0:0:0:
295,353,260346,1,0,1:0:0:0:
367,345,260604,1,0,1:0:0:0:
439,337,260861,1,0,1:0:0:0:
215,349,261119,21,0,1:0:0:0:
287,341,261371,1,0,1:0:0:0:
359,333,261623,1,0,1:0:0:0:
431,325,261875,1,0,1:0:0:0:
492,176,262127,85,0,1:0:0:0:
420,168,262369,1,0,1:0:0:0:
348,160,262612,1,0,1:0:0:0:
276,152,262855,1,0,1:0:0:0:
500,164,263098,21,0,1:0:0:0:
428,156,263341,1,0,1:0:0:0:
356,148,263584,1,0,1:0:0:0:
284,140,263827,1,0,1:0:0:0:
138,263,264070,85,0,1:0:0:0:
210,255,264309,1,0,1:0:0:0:
282,247,264548,1,0,1:0:0:0:
354,239,264787,1,0,1:0:0:0:
130,251,265026,21,0,1:0:0:0:
202,243,265250,1,0,1:0:0:0:
274,235,265475,1,0,1:0:0:0:
346,227,265700,1,0,1:0:0:0:
407,78,265924,85,0,1:0:0:0:
335,70,266149,1,0,1:0:0:0:
263,62,266374,1,0,1:0:0:0:
191,54,266599,1,0,1:0:0:0:
415,66,266823,21,0,1:0:0:0:
343,58,267045,1,0,1:0:0:0:
271,50,267267,1,0,1:0:0:0:
199,42,267489,1,0,1:0:0:0:
67,209,267711,85,4,1:0:0:0:
139,189,267926,1,0,1:0:0:0:
120,117,268141,1,0,1:0:0:0:
47,136,268356,1,0,1:0:0:0:
192,281,268571,21,0,1:0:0:0:
120,261,268786,1,0,1:0:0:0:
139,189,269001,1,0,1:0:0:0:
212,208,269216,1,0,1:0:0:0:
345,292,269431,85,0,1:0:0:0:
424,270,269639,1,0,1:0:0:0:
403,190,269847,1,0,1:0:0:0:
323,211,270056,1,0,1:0:0:0:
483,371,270264,21,0,1:0:0:0:
403,349,270467,1,0,1:0:0:0:
424,270,270670,1,0,1:0:0:0:
504,291,270874,1,0,1:0:0:0:
256,352,271077,85,0,1:0:0:0:
224,324,271277,1,0,1:0:0:0:
282,285,271477,21,0,1:0:0:0:
206,236,271677,1,0,1:0:0:0:
308,218,271877,85,0,1:0:0:0:
188,148,272077,1,0,1:0:0:0:
334,151,272277,21,0,1:0:0:0:
170,60,272477,1,0,1:0:0:0:
65,189,272677,85,0,1:0:0:0:
85,272,272867,1,0,1:0:0:0:
163,302,273057,21,0,1:0:0:0:
188,148,273248,1,0,1:0:0:0:
263,118,273438,85,0,1:0:0:0:
291,346,273625,1,0,1:0:0:0:
366,373,273813,21,0,1:0:0:0:
389,223,274000,1,0,1:0:0:0:
412,71,274188,85,12,1:2:0:0:
389,223,274375,1,0,1:2:0:0:
389,223,274469,1,0,1:0:0:0:
448,275,274563,1,0,1:0:0:0:
377,297,274656,1,0,1:0:0:0:
317,249,274750,2,0,L|265:240,2,50,8|0|0,1:2|3:2|3:2,0:0:0:0:
324,176,274938,21,8,1:2:0:0:
128,297,275125,1,0,1:2:0:0:
128,297,275219,1,0,1:0:0:0:
69,349,275313,1,0,1:0:0:0:
140,371,275406,1,0,1:0:0:0:
200,323,275500,2,0,L|252:314,2,50,8|0|0,1:2|3:2|3:2,0:0:0:0:
193,250,275688,85,8,1:2:0:0:
251,91,275875,1,0,1:2:0:0:
251,91,275969,1,0,1:0:0:0:
275,19,276063,1,0,1:0:0:0:
200,29,276156,1,0,1:0:0:0:
172,100,276250,2,0,L|180:149,2,50,8|0|0,1:2|3:2|3:2,0:0:0:0:
102,73,276438,21,8,1:2:0:0:
325,223,276625,1,0,1:2:0:0:
325,223,276719,1,0,1:0:0:0:
301,151,276813,1,0,1:0:0:0:
376,161,276906,1,0,1:0:0:0:
404,232,277000,2,0,L|396:281,2,50,8|0|0,1:2|3:2|3:2,0:0:0:0:
477,205,277188,85,8,1:2:0:0:
487,133,277281,1,8,0:0:0:0:
496,60,277375,2,0,P|453:34|404:28,1,100,0|0,1:0|0:0,0:0:0:0:
301,151,277563,1,8,1:2:0:0:
310,223,277656,1,8,0:0:0:0:
319,296,277750,2,0,P|276:321|227:327,1,100,0|0,1:0|0:0,0:0:0:0:
196,241,277938,21,8,3:2:0:0:
178,223,277985,1,0,3:0:0:0:
157,208,278032,1,0,3:0:0:0:
135,199,278079,1,0,3:0:0:0:
110,194,278126,1,8,3:2:0:0:
85,195,278173,1,0,3:0:0:0:
60,200,278220,1,0,3:0:0:0:
37,211,278267,1,0,3:0:0:0:
18,225,278313,2,0,L|29:281,6,50,8|0|0|0|0|0|0,3:2|3:0|3:0|3:0|3:0|3:0|3:0,0:0:0:0:
104,291,278688,85,0,1:3:0:0:
111,298,279813,37,0,0:0:0:0:
111,298,279906,1,0,0:0:0:0:
111,298,280000,2,0,B|116:236|116:236|110:221|110:221|118:149,1,150
80,82,280188,38,0,P|43:80|13:102,1,75,4|0,1:0|0:0,1:0:0:0:
13,102,280563,86,0,P|95:32|201:55,1,225.000008583069,4|0,1:2|0:0,1:0:0:0:
255,125,280938,21,4,1:2:0:0:
255,125,281031,2,0,L|310:129,1,50,0|0,0:0|0:0,1:0:0:0:
304,128,281313,86,0,P|336:183|215:270,1,225.000008583069,4|0,1:2|0:0,1:0:0:0:
198,215,281688,21,4,1:2:0:0:
198,215,281781,2,0,P|175:204|150:205,1,50,0|0,0:0|0:0,1:0:0:0:
150,205,282063,86,0,P|57:152|57:45,1,225.000008583069,4|0,1:2|0:0,1:0:0:0:
132,35,282438,21,4,1:2:0:0:
132,35,282531,2,2,L|187:39,1,50,0|0,0:0|0:0,1:0:0:0:
208,108,282813,86,2,B|306:95|306:95|359:13|359:13|461:0,1,300,4|0,1:2|0:0,1:0:0:0:
499,70,283188,21,4,1:2:0:0:
499,70,283281,2,0,P|510:93|509:118,1,50,0|0,0:0|0:0,1:0:0:0:
509,117,283563,86,0,P|421:173|454:273,1,225.000008583069,4|0,1:2|0:0,1:0:0:0:
512,332,283938,21,4,1:2:0:0:
512,332,284031,2,0,L|508:387,1,50,0|0,0:0|0:0,1:0:0:0:
508,381,284313,86,0,B|382:376|441:304|308:298,1,225.000008583069,4|0,1:2|0:0,1:0:0:0:
248,342,284688,21,4,1:2:0:0:
56,235,284875,102,0,P|56:197|48:161,1,75.0000028610231,2|0,0:0|0:0,0:0:0:0:
130,159,285063,2,0,L|144:233,1,75.0000028610231,2|0,1:2|0:0,0:0:0:0:
227,206,285250,2,0,P|214:170|210:133,1,75.0000028610231,2|0,0:0|0:0,0:0:0:0:
256,64,285438,5,4,1:2:0:0:
382,159,285625,102,0,L|368:233,1,75.0000028610231
273,297,285813,22,0,L|281:335,1,25,0|0,1:0|0:0,0:0:0:0:
263,306,286000,2,0,L|271:344,1,25
365,338,286188,102,0,L|379:264,1,75.0000028610231,4|0,1:0|0:0,1:0:0:0:
378,264,286563,86,0,P|469:207|461:101,1,225.000008583069,4|0,1:2|0:0,1:0:0:0:
392,68,286938,21,4,1:2:0:0:
392,68,287031,2,0,P|369:79|344:78,1,50,0|0,0:0|0:0,1:0:0:0:
344,78,287313,86,0,P|267:19|238:111,1,225.000008583069,4|0,1:2|0:0,1:0:0:0:
312,155,287688,21,4,1:2:0:0:
312,155,287781,2,0,L|302:204,1,50,0|0,0:0|0:0,1:0:0:0:
302,204,288063,86,0,P|236:288|131:270,1,225.000008583069,4|0,1:2|0:0,1:0:0:0:
158,197,288438,21,4,1:2:0:0:
158,197,288531,2,2,P|169:174|168:149,1,50,0|0,0:0|0:0,1:0:0:0:
107,99,288813,86,2,B|12:64|12:64|52:275,1,300,4|0,1:2|0:0,1:0:0:0:
8,330,289188,21,4,1:2:0:0:
8,330,289281,2,0,L|57:340,1,50,0|0,0:0|0:0,1:0:0:0:
56,339,289563,86,0,P|110:248|216:260,1,225.000008583069,4|0,1:2|0:0,1:0:0:0:
259,333,289938,21,4,1:2:0:0:
259,333,290031,2,0,P|282:344|307:343,1,50,0|0,0:0|0:0,1:0:0:0:
306,343,290313,86,0,B|311:217|383:276|389:143,1,225.000008583069,4|0,1:2|0:0,1:0:0:0:
351,55,290688,70,0,B|431:10|431:10|419:126|419:126|278:139,1,350,0|0,3:2|0:0,0:0:0:0:
215,91,292188,70,2,P|213:54|235:24,1,75,4|0,1:1|0:0,1:0:0:0:
234,24,292563,86,2,B|126:86|126:86|171:255,1,300,12|0,0:0|0:0,1:0:0:0:
189,337,292938,21,4,1:2:0:0:
189,337,293031,2,2,L|134:333,1,50,0|0,0:0|0:0,1:0:0:0:
139,333,293313,86,2,B|156:253|156:253|291:234|291:234|324:308,1,300,12|0,0:0|0:0,1:0:0:0:
383,365,293688,21,4,1:2:0:0:
383,365,293781,2,2,P|406:354|431:355,1,50,0|0,0:0|0:0,1:0:0:0:
430,354,294063,86,2,B|447:254|447:254|371:194|371:194|391:95,1,300,12|0,0:0|0:0,1:0:0:0:
342,34,294438,21,4,1:2:0:0:
342,34,294531,2,2,L|287:38,1,50,0|0,0:0|0:0,1:0:0:0:
292,37,294813,86,2,B|228:15|228:15|250:125|250:125|131:141|131:141|160:72,1,375,12|0,0:0|0:0,1:0:0:0:
76,46,295188,21,4,1:2:0:0:
76,46,295281,2,2,P|65:69|66:94,1,50,0|0,0:0|0:0,1:0:0:0:
65,93,295563,86,2,B|107:141|107:141|92:222|92:222|34:248|34:248|16:341,1,300,12|0,0:0|0:0,1:0:0:0:
96,366,295938,21,4,1:2:0:0:
96,366,296031,2,2,L|149:352,1,50,0|0,0:0|0:0,1:0:0:0:
145,354,296313,86,2,B|169:215|169:215|168:248|188:271,1,200,12|0,0:0|0:0,1:0:0:0:
336,273,296594,2,0,P|331:248|312:233,1,50,0|0,3:0|3:0,0:0:0:0:
353,281,296688,6,0,P|329:226|235:226,1,150.000005722046,12|0,0:0|0:0,0:0:0:0:
80,206,296969,2,0,P|114:268|186:269,1,150.000005722046,8|0,0:0|0:0,0:0:0:0:
355,158,297250,6,0,P|295:151|248:232,1,150.000005722046,8|4,0:0|0:2,0:0:0:0:
79,330,297531,2,0,P|138:336|185:255,1,150.000005722046,8|0,0:0|0:0,0:0:0:0:
154,202,297813,6,0,L|160:173,1,25,0|0,1:0|0:0,0:0:0:0:
168,198,298000,2,0,L|174:169,1,25
146,100,298188,101,0,1:0:0:0:
146,100,298281,1,0,1:0:0:0:
264,297,298469,85,0,1:0:0:0:
264,297,298563,2,2,B|336:280|336:280|368:236|368:236|437:219,1,200,12|0,1:2|0:0,1:0:0:0:
298,100,298844,2,0,L|281:154,1,50,8|8,0:0|0:0,0:0:0:0:
284,107,298938,2,2,B|262:177|262:177|284:227|284:227|263:296,1,200,0|0,1:2|0:0,1:0:0:0:
438,219,299219,2,2,B|387:165|387:165|333:159|333:159|284:107,1,200,8|0,0:0|0:0,1:0:0:0:
220,43,299500,2,0,L|189:139,1,100,8|0,0:0|0:0,0:0:0:0:
192,234,299688,22,0,L|177:282,1,50,0|0,1:0|0:0,0:0:0:0:
177,281,300063,86,2,B|247:301|247:301|283:180,1,200,12|0,0:0|0:0,1:0:0:0:
238,48,300344,2,0,L|202:82,1,50,8|8,0:0|0:0,0:0:0:0:
220,43,300438,2,2,B|166:94|166:94|253:185,1,200,0|0,1:0|0:0,1:0:0:0:
405,200,300719,2,2,B|387:128|387:128|264:158,1,200,8|0,0:0|0:0,1:0:0:0:
171,207,301000,2,2,L|74:182,1,100,8|0,0:0|0:0,1:0:0:0:
0,123,301188,5,4,3:2:0:0:
17,105,301234,1,0,3:2:0:0:
39,93,301281,1,0,3:2:0:0:
63,87,301328,1,0,3:2:0:0:
88,87,301375,2,0,L|100:38,2,50,0|0|0,3:2|3:2|3:2,0:0:0:0:
178,44,301563,6,0,L|160:117,1,75
241,86,301938,101,4,3:2:0:0:
258,68,301984,1,0,3:0:0:0:
280,56,302031,1,0,3:0:0:0:
304,50,302078,1,0,3:0:0:0:
329,50,302125,2,0,L|341:1,2,50,0|0|0,3:0|3:0|3:0,0:0:0:0:
413,31,302313,6,0,L|401:80,1,50
307,157,302688,6,0,L|312:123,1,25,0|0,3:0|0:0,0:0:0:0:
201,165,302875,2,0,L|169:178,1,25,0|0,3:0|0:0,0:0:0:0:
261,253,303063,2,0,L|288:274,1,25,0|0,3:0|0:0,0:0:0:0:
272,251,303156,2,0,L|302:268,1,25,0|0,3:0|0:0,0:0:0:0:
282,248,303250,2,0,L|315:259,1,25,0|0,3:0|0:0,0:0:0:0:
291,242,303344,2,0,L|325:248,1,25
300,236,303438,22,0,L|367:242,1,50,2|0,0:0|0:0,0:0:0:0:
415,284,303625,2,0,L|464:289,1,50,2|0,0:0|0:0,0:0:0:0:
504,205,303813,86,0,L|437:211,1,50,2|0,0:0|0:0,0:0:0:0:
336,323,304000,2,0,L|287:327,1,50,2|0,0:0|0:0,0:0:0:0:
114,240,304188,21,4,1:3:0:0:
256,192,304284,12,4,307391,0:3:0:0:
256,192,307499,12,4,311149,0:3:0:0:
256,192,311279,12,4,315690,0:3:0:0:
256,192,315891,12,0,318710,0:0:0:0:
254,251,318911,86,2,B|259:201|259:201|251:182|251:182|257:128,1,125,0|0,0:0|0:0,0:1:0:0:
