osu file format v14

[General]
AudioFilename: audio.mp3
AudioLeadIn: 0
PreviewTime: 108770
Countdown: 0
SampleSet: None
StackLeniency: 0.7
Mode: 1
LetterboxInBreaks: 0
WidescreenStoryboard: 0

[Editor]
Bookmarks: 27920,37520,47120,56720,66320,75920,128720,138320,147920,167120,176720,195920,205520,215120
DistanceSpacing: 3.3
BeatDivisor: 8
GridSize: 4
TimelineZoom: 4.299999

[Metadata]
Title:Grimm (Kobaryo's FTN Remix)
TitleUnicode:Grimm (Kobaryo's FTN Remix)
Artist:RoughSketch feat. Aikapin
ArtistUnicode:RoughSketch feat. Aikapin
Creator:Nofool
Version:Expert Oni
Source:
Tags:speedcore
BeatmapID:1468848
BeatmapSetID:694266

[Difficulty]
HPDrainRate:5
CircleSize:6
OverallDifficulty:7
ApproachRate:8
SliderMultiplier:2.8
SliderTickRate:1

[Events]
//Background and Video events
0,0,"BG45.png",0,-100
//Break Periods
//Storyboard Layer 0 (Background)
//Storyboard Layer 1 (Fail)
//Storyboard Layer 2 (Pass)
//Storyboard Layer 3 (Foreground)
//Storyboard Sound Samples

[TimingPoints]
338,300,4,1,0,80,1,0
338,-250,4,1,0,80,0,0
19500,-250,4,1,0,50,0,0
26720,300,4,1,0,80,1,0
26720,-200,4,1,0,80,0,0
26757,-185.185185185185,4,1,0,80,0,0
26832,-172.413793103448,4,1,0,80,0,0
26907,-161.290322580645,4,1,0,80,0,0
26982,-151.515151515152,4,1,0,80,0,0
27038,-147.058823529412,4,1,0,80,0,0
27076,-142.857142857143,4,1,0,80,0,0
27132,-135.135135135135,4,1,0,80,0,0
27188,-131.578947368421,4,1,0,80,0,0
27226,-128.205128205128,4,1,0,80,0,0
27282,-121.951219512195,4,1,0,80,0,0
27357,-116.279069767442,4,1,0,80,0,0
27432,-111.111111111111,4,1,0,80,0,0
27507,-106.382978723404,4,1,0,80,0,0
27582,-102.040816326531,4,1,0,80,0,0
27882,-100,4,1,0,80,0,0
27920,-100,4,1,0,80,0,1
46820,-100,4,1,0,80,0,0
47082,-125,4,1,0,80,0,0
55632,-131.578947368421,4,1,0,80,0,0
55782,-138.888888888889,4,1,0,80,0,0
55932,-147.058823529412,4,1,0,80,0,0
56082,-153.846153846154,4,1,0,80,0,0
56232,-161.290322580645,4,1,0,80,0,0
56382,-166.666666666667,4,1,0,80,0,0
56682,-100,4,1,0,80,0,0
66282,-125,4,1,0,80,0,0
67332,-142.857142857143,4,1,0,80,0,0
67782,-166.666666666667,4,1,0,80,0,0
68232,-200,4,1,0,80,0,0
68682,-125,4,1,0,80,0,0
69732,-142.857142857143,4,1,0,80,0,0
70182,-166.666666666667,4,1,0,80,0,0
70632,-200,4,1,0,80,0,0
70707,-181.818181818182,4,1,0,80,0,0
70782,-166.666666666667,4,1,0,80,0,0
70857,-153.846153846154,4,1,0,80,0,0
70932,-142.857142857143,4,1,0,80,0,0
71082,-125,4,1,0,80,0,0
72132,-142.857142857143,4,1,0,80,0,0
72582,-166.666666666667,4,1,0,80,0,0
73032,-200,4,1,0,80,0,0
73482,-125,4,1,0,80,0,0
74532,-142.857142857143,4,1,0,80,0,0
74870,-149.253731343284,4,1,0,80,0,0
75070,-156.25,4,1,0,80,0,0
75270,-163.934426229508,4,1,0,80,0,0
75470,-172.413793103448,4,1,0,80,0,0
75670,-181.818181818182,4,1,0,80,0,0
75870,-192.307692307692,4,1,0,80,0,0
76182,-200,4,1,0,60,0,0
80682,-250,4,1,0,50,0,0
99845,-125,4,1,0,60,0,0
99920,-125,4,1,0,60,0,1
100820,-125,4,1,0,60,0,0
101045,-200,4,1,0,60,0,0
102245,-125,4,1,0,60,0,0
102320,-125,4,1,0,60,0,1
103220,-125,4,1,0,60,0,0
103445,-200,4,1,0,60,0,0
104645,-125,4,1,0,60,0,0
104720,-125,4,1,0,60,0,1
105620,-125,4,1,0,60,0,0
105845,-200,4,1,0,60,0,0
107045,-125,4,1,0,60,0,0
107120,-125,4,1,0,60,0,1
108020,-125,4,1,0,60,0,0
108245,-200,4,1,0,60,0,0
108732,-188.679245283019,4,1,0,63,0,0
108882,-178.571428571429,4,1,0,66,0,0
109032,-169.491525423729,4,1,0,69,0,0
109182,-161.290322580645,4,1,0,72,0,0
109332,-151.515151515152,4,1,0,76,0,0
109482,-142.857142857143,4,1,0,80,0,0
119045,-100,4,1,0,80,0,0
119120,-100,4,1,0,80,0,1
120020,-100,4,1,0,80,0,0
120245,-142.857142857143,4,1,0,80,0,0
121445,-100,4,1,0,80,0,0
121520,-100,4,1,0,80,0,1
122420,-100,4,1,0,80,0,0
122645,-142.857142857143,4,1,0,80,0,0
123845,-100,4,1,0,80,0,0
123920,-100,4,1,0,80,0,1
124820,-100,4,1,0,80,0,0
125045,-142.857142857143,4,1,0,80,0,0
126245,-100,4,1,0,80,0,0
126320,-100,4,1,0,80,0,1
127220,-100,4,1,0,80,0,0
127445,-142.857142857143,4,1,0,80,0,0
128382,-166.666666666667,4,1,0,80,0,0
137745,-163.934426229508,4,1,0,80,0,0
137795,-161.290322580645,4,1,0,80,0,0
137845,-158.730158730159,4,1,0,80,0,0
137895,-156.25,4,1,0,80,0,0
137945,-153.846153846154,4,1,0,80,0,0
137995,-151.515151515152,4,1,0,80,0,0
138132,-147.058823529412,4,1,0,80,0,0
138282,-142.857142857143,4,1,0,80,0,0
146832,-147.058823529412,4,1,0,80,0,0
146982,-151.515151515152,4,1,0,80,0,0
147132,-156.25,4,1,0,80,0,0
147207,-158.730158730159,4,1,0,80,0,0
147357,-163.934426229508,4,1,0,80,0,0
147432,-166.666666666667,4,1,0,80,0,0
147507,-169.491525423729,4,1,0,80,0,0
147582,-172.413793103448,4,1,0,80,0,0
147882,-100,4,1,0,80,0,0
147920,-100,4,1,0,80,0,1
156320,-100,4,1,0,80,0,0
157520,-100,4,1,0,80,0,1
166032,-102.040816326531,4,1,0,80,0,1
166107,-103.092783505155,4,1,0,80,0,1
166257,-105.263157894737,4,1,0,80,0,1
166332,-106.382978723404,4,1,0,80,0,1
166482,-108.695652173913,4,1,0,80,0,1
166557,-109.89010989011,4,1,0,80,0,1
166632,-111.111111111111,4,1,0,80,0,1
166707,-112.359550561798,4,1,0,80,0,1
166782,-113.636363636364,4,1,0,80,0,1
166820,-113.636363636364,4,1,0,80,0,0
167082,-142.857142857143,4,1,0,80,0,0
175482,-25,4,1,0,80,0,0
175520,-25,4,1,0,80,0,1
175932,-25,4,1,0,80,0,0
176082,-142.857142857143,4,1,0,80,0,0
176682,-100,4,1,0,80,0,0
176720,-100,4,1,0,80,0,1
185120,-100,4,1,0,80,0,0
186320,-100,4,1,0,80,0,1
195620,-100,4,1,0,80,0,0
211482,-111.111111111111,4,1,0,80,0,0
212682,-125,4,1,0,80,0,0
213882,-166.666666666667,4,1,0,80,0,0
213957,-156.25,4,1,0,80,0,0
214032,-147.058823529412,4,1,0,80,0,0
214107,-138.888888888889,4,1,0,80,0,0
214182,-131.578947368421,4,1,0,80,0,0
214257,-125,4,1,0,80,0,0
214332,-119.047619047619,4,1,0,80,0,0
214407,-113.636363636364,4,1,0,80,0,0
214482,-108.695652173913,4,1,0,80,0,0
214557,-104.166666666667,4,1,0,80,0,0
214632,-98.0392156862745,4,1,0,80,0,0
214707,-94.3396226415094,4,1,0,80,0,0
214782,-90.9090909090909,4,1,0,80,0,0
215082,-66.6666666666667,4,1,0,80,0,0

[HitObjects]
256,192,338,5,0,0:0:0:0:
256,192,1538,1,0,0:0:0:0:
256,192,2738,1,0,0:0:0:0:
256,192,3938,1,0,0:0:0:0:
256,192,4538,1,0,0:0:0:0:
256,192,5138,1,0,0:0:0:0:
256,192,6338,1,0,0:0:0:0:
256,192,7538,1,0,0:0:0:0:
256,192,8738,1,0,0:0:0:0:
256,192,9338,1,0,0:0:0:0:
256,192,9938,1,8,0:0:0:0:
256,192,11138,1,8,0:0:0:0:
256,192,12338,1,8,0:0:0:0:
256,192,13538,1,8,0:0:0:0:
256,192,14138,1,8,0:0:0:0:
256,192,14738,1,8,0:0:0:0:
256,192,15938,1,8,0:0:0:0:
256,192,17138,1,8,0:0:0:0:
256,192,18338,1,8,0:0:0:0:
256,192,18938,1,8,0:0:0:0:
256,192,19538,12,8,26438,0:0:0:0:
256,192,26720,5,0,0:0:0:0:
256,192,26795,1,8,0:0:0:0:
256,192,26870,1,0,0:0:0:0:
256,192,26945,1,8,0:0:0:0:
256,192,27020,1,0,0:0:0:0:
256,192,27057,1,0,0:0:0:0:
256,192,27095,1,8,0:0:0:0:
256,192,27170,1,0,0:0:0:0:
256,192,27207,1,0,0:0:0:0:
256,192,27245,1,8,0:0:0:0:
256,192,27320,1,0,0:0:0:0:
256,192,27395,1,0,0:0:0:0:
256,192,27470,1,8,0:0:0:0:
256,192,27545,1,8,0:0:0:0:
256,192,27620,1,0,0:0:0:0:
256,192,27920,1,4,0:0:0:0:
256,192,27995,1,8,0:0:0:0:
256,192,28070,1,0,0:0:0:0:
256,192,28107,1,0,0:0:0:0:
256,192,28145,1,8,0:0:0:0:
256,192,28220,1,0,0:0:0:0:
256,192,28295,1,0,0:0:0:0:
256,192,28370,1,8,0:0:0:0:
256,192,28445,1,8,0:0:0:0:
256,192,28520,1,0,0:0:0:0:
256,192,28595,1,8,0:0:0:0:
256,192,28670,1,0,0:0:0:0:
256,192,28707,1,0,0:0:0:0:
256,192,28745,1,8,0:0:0:0:
256,192,28820,1,8,0:0:0:0:
256,192,28895,1,0,0:0:0:0:
256,192,28970,1,8,0:0:0:0:
256,192,29045,1,8,0:0:0:0:
256,192,29120,1,0,0:0:0:0:
256,192,29195,1,8,0:0:0:0:
256,192,29270,1,0,0:0:0:0:
256,192,29307,1,0,0:0:0:0:
256,192,29345,1,8,0:0:0:0:
256,192,29420,1,0,0:0:0:0:
256,192,29495,1,0,0:0:0:0:
256,192,29570,1,8,0:0:0:0:
256,192,29645,1,8,0:0:0:0:
256,192,29720,1,0,0:0:0:0:
256,192,29795,1,8,0:0:0:0:
256,192,29870,1,0,0:0:0:0:
256,192,29907,1,0,0:0:0:0:
256,192,29945,1,0,0:0:0:0:
256,192,29982,1,0,0:0:0:0:
256,192,30020,1,8,0:0:0:0:
256,192,30095,1,0,0:0:0:0:
256,192,30170,1,8,0:0:0:0:
256,192,30245,1,8,0:0:0:0:
256,192,30320,1,0,0:0:0:0:
256,192,30395,1,8,0:0:0:0:
256,192,30470,1,0,0:0:0:0:
256,192,30507,1,0,0:0:0:0:
256,192,30545,1,8,0:0:0:0:
256,192,30620,1,0,0:0:0:0:
256,192,30695,1,0,0:0:0:0:
256,192,30770,1,8,0:0:0:0:
256,192,30845,1,8,0:0:0:0:
256,192,30920,1,0,0:0:0:0:
256,192,30995,1,8,0:0:0:0:
256,192,31070,1,0,0:0:0:0:
256,192,31107,1,0,0:0:0:0:
256,192,31145,1,8,0:0:0:0:
256,192,31220,1,8,0:0:0:0:
256,192,31295,1,0,0:0:0:0:
256,192,31370,1,8,0:0:0:0:
256,192,31445,1,8,0:0:0:0:
256,192,31520,1,0,0:0:0:0:
256,192,31595,1,8,0:0:0:0:
256,192,31670,1,0,0:0:0:0:
256,192,31707,1,0,0:0:0:0:
256,192,31745,1,8,0:0:0:0:
256,192,31820,1,0,0:0:0:0:
256,192,31895,1,0,0:0:0:0:
256,192,31970,1,8,0:0:0:0:
256,192,32045,1,8,0:0:0:0:
256,192,32120,1,0,0:0:0:0:
256,192,32195,1,8,0:0:0:0:
256,192,32270,1,0,0:0:0:0:
256,192,32307,1,0,0:0:0:0:
256,192,32345,1,8,0:0:0:0:
256,192,32382,1,8,0:0:0:0:
256,192,32420,1,0,0:0:0:0:
256,192,32457,1,0,0:0:0:0:
256,192,32495,1,8,0:0:0:0:
256,192,32570,1,8,0:0:0:0:
256,192,32645,1,8,0:0:0:0:
256,192,32720,1,0,0:0:0:0:
256,192,32795,1,8,0:0:0:0:
256,192,32832,1,8,0:0:0:0:
256,192,32870,1,0,0:0:0:0:
256,192,32945,1,8,0:0:0:0:
256,192,33020,1,0,0:0:0:0:
256,192,33095,1,0,0:0:0:0:
256,192,33170,1,8,0:0:0:0:
256,192,33245,1,8,0:0:0:0:
256,192,33320,1,0,0:0:0:0:
256,192,33395,1,8,0:0:0:0:
256,192,33432,1,8,0:0:0:0:
256,192,33470,1,0,0:0:0:0:
256,192,33545,1,0,0:0:0:0:
256,192,33620,1,8,0:0:0:0:
256,192,33695,1,0,0:0:0:0:
256,192,33770,1,8,0:0:0:0:
256,192,33845,1,8,0:0:0:0:
256,192,33920,1,0,0:0:0:0:
256,192,33995,1,8,0:0:0:0:
256,192,34032,1,8,0:0:0:0:
256,192,34070,1,0,0:0:0:0:
256,192,34145,1,8,0:0:0:0:
256,192,34220,1,0,0:0:0:0:
256,192,34295,1,0,0:0:0:0:
256,192,34370,1,8,0:0:0:0:
256,192,34445,1,8,0:0:0:0:
256,192,34520,1,0,0:0:0:0:
256,192,34595,1,8,0:0:0:0:
256,192,34670,1,0,0:0:0:0:
256,192,34707,1,0,0:0:0:0:
256,192,34745,1,0,0:0:0:0:
256,192,34782,1,0,0:0:0:0:
256,192,34820,1,8,0:0:0:0:
256,192,34895,1,0,0:0:0:0:
256,192,34970,1,8,0:0:0:0:
256,192,35045,1,8,0:0:0:0:
256,192,35120,1,0,0:0:0:0:
256,192,35195,1,8,0:0:0:0:
256,192,35232,1,8,0:0:0:0:
256,192,35270,1,0,0:0:0:0:
256,192,35345,1,8,0:0:0:0:
256,192,35420,1,0,0:0:0:0:
256,192,35495,1,0,0:0:0:0:
256,192,35570,1,8,0:0:0:0:
256,192,35645,1,8,0:0:0:0:
256,192,35720,1,0,0:0:0:0:
256,192,35795,1,8,0:0:0:0:
256,192,35832,1,8,0:0:0:0:
256,192,35870,1,0,0:0:0:0:
256,192,35945,1,0,0:0:0:0:
256,192,36020,1,8,0:0:0:0:
256,192,36095,1,0,0:0:0:0:
256,192,36170,1,8,0:0:0:0:
256,192,36245,1,8,0:0:0:0:
256,192,36320,1,0,0:0:0:0:
256,192,36357,1,0,0:0:0:0:
256,192,36395,1,8,0:0:0:0:
256,192,36470,1,0,0:0:0:0:
256,192,36507,1,0,0:0:0:0:
256,192,36545,1,8,0:0:0:0:
256,192,36620,1,8,0:0:0:0:
256,192,36695,1,0,0:0:0:0:
256,192,36732,1,0,0:0:0:0:
256,192,36770,1,0,0:0:0:0:
256,192,36845,1,8,0:0:0:0:
256,192,36920,1,0,0:0:0:0:
256,192,36957,1,0,0:0:0:0:
256,192,36995,1,8,0:0:0:0:
256,192,37032,1,8,0:0:0:0:
256,192,37070,1,0,0:0:0:0:
256,192,37107,1,0,0:0:0:0:
256,192,37145,1,8,0:0:0:0:
256,192,37220,1,8,0:0:0:0:
256,192,37295,1,0,0:0:0:0:
256,192,37370,1,8,0:0:0:0:
256,192,37445,1,8,0:0:0:0:
256,192,37520,1,4,0:0:0:0:
256,192,37595,1,8,0:0:0:0:
256,192,37670,1,0,0:0:0:0:
256,192,37707,1,0,0:0:0:0:
256,192,37745,1,8,0:0:0:0:
256,192,37820,1,0,0:0:0:0:
256,192,37895,1,0,0:0:0:0:
256,192,37970,1,8,0:0:0:0:
256,192,38045,1,8,0:0:0:0:
256,192,38120,1,0,0:0:0:0:
256,192,38157,1,0,0:0:0:0:
256,192,38195,1,8,0:0:0:0:
256,192,38270,1,0,0:0:0:0:
256,192,38307,1,0,0:0:0:0:
256,192,38345,1,8,0:0:0:0:
256,192,38420,1,8,0:0:0:0:
256,192,38495,1,0,0:0:0:0:
256,192,38570,1,8,0:0:0:0:
256,192,38645,1,8,0:0:0:0:
256,192,38720,1,0,0:0:0:0:
256,192,38757,1,0,0:0:0:0:
256,192,38795,1,8,0:0:0:0:
256,192,38870,1,0,0:0:0:0:
256,192,38945,1,8,0:0:0:0:
256,192,38982,1,8,0:0:0:0:
256,192,39020,1,0,0:0:0:0:
256,192,39095,1,0,0:0:0:0:
256,192,39170,1,8,0:0:0:0:
256,192,39245,1,8,0:0:0:0:
256,192,39320,1,0,0:0:0:0:
256,192,39395,1,8,0:0:0:0:
256,192,39470,1,0,0:0:0:0:
256,192,39507,1,0,0:0:0:0:
256,192,39545,1,0,0:0:0:0:
256,192,39582,1,0,0:0:0:0:
256,192,39620,1,8,0:0:0:0:
256,192,39695,1,0,0:0:0:0:
256,192,39770,1,8,0:0:0:0:
256,192,39845,1,8,0:0:0:0:
256,192,39920,1,0,0:0:0:0:
256,192,39995,1,8,0:0:0:0:
256,192,40070,1,0,0:0:0:0:
256,192,40107,1,0,0:0:0:0:
256,192,40145,1,8,0:0:0:0:
256,192,40220,1,0,0:0:0:0:
256,192,40295,1,0,0:0:0:0:
256,192,40370,1,8,0:0:0:0:
256,192,40445,1,8,0:0:0:0:
256,192,40520,1,0,0:0:0:0:
256,192,40557,1,0,0:0:0:0:
256,192,40595,1,8,0:0:0:0:
256,192,40670,1,0,0:0:0:0:
256,192,40707,1,0,0:0:0:0:
256,192,40745,1,8,0:0:0:0:
256,192,40820,1,8,0:0:0:0:
256,192,40895,1,0,0:0:0:0:
256,192,40970,1,8,0:0:0:0:
256,192,41045,1,8,0:0:0:0:
256,192,41120,1,0,0:0:0:0:
256,192,41157,1,0,0:0:0:0:
256,192,41195,1,8,0:0:0:0:
256,192,41270,1,0,0:0:0:0:
256,192,41345,1,8,0:0:0:0:
256,192,41382,1,8,0:0:0:0:
256,192,41420,1,0,0:0:0:0:
256,192,41495,1,0,0:0:0:0:
256,192,41570,1,8,0:0:0:0:
256,192,41645,1,8,0:0:0:0:
256,192,41720,1,0,0:0:0:0:
256,192,41795,1,8,0:0:0:0:
256,192,41870,1,0,0:0:0:0:
256,192,41907,1,0,0:0:0:0:
256,192,41945,1,8,0:0:0:0:
256,192,41982,1,8,0:0:0:0:
256,192,42020,1,0,0:0:0:0:
256,192,42057,1,0,0:0:0:0:
256,192,42095,1,8,0:0:0:0:
256,192,42170,1,8,0:0:0:0:
256,192,42245,1,8,0:0:0:0:
256,192,42320,1,0,0:0:0:0:
256,192,42395,1,8,0:0:0:0:
256,192,42432,1,8,0:0:0:0:
256,192,42470,1,0,0:0:0:0:
256,192,42545,1,8,0:0:0:0:
256,192,42620,1,0,0:0:0:0:
256,192,42657,1,8,0:0:0:0:
256,192,42695,1,0,0:0:0:0:
256,192,42732,1,0,0:0:0:0:
256,192,42770,1,8,0:0:0:0:
256,192,42845,1,8,0:0:0:0:
256,192,42920,1,0,0:0:0:0:
256,192,42995,1,8,0:0:0:0:
256,192,43032,1,8,0:0:0:0:
256,192,43070,1,0,0:0:0:0:
256,192,43145,1,0,0:0:0:0:
256,192,43220,1,8,0:0:0:0:
256,192,43295,1,0,0:0:0:0:
256,192,43332,1,0,0:0:0:0:
256,192,43370,1,8,0:0:0:0:
256,192,43445,1,8,0:0:0:0:
256,192,43482,1,8,0:0:0:0:
256,192,43520,1,0,0:0:0:0:
256,192,43595,1,8,0:0:0:0:
256,192,43632,1,8,0:0:0:0:
256,192,43670,1,0,0:0:0:0:
256,192,43745,1,8,0:0:0:0:
256,192,43820,1,0,0:0:0:0:
256,192,43857,1,8,0:0:0:0:
256,192,43895,1,0,0:0:0:0:
256,192,43932,1,0,0:0:0:0:
256,192,43970,1,8,0:0:0:0:
256,192,44045,1,8,0:0:0:0:
256,192,44120,1,0,0:0:0:0:
256,192,44195,1,8,0:0:0:0:
256,192,44270,1,0,0:0:0:0:
256,192,44307,1,0,0:0:0:0:
256,192,44345,1,0,0:0:0:0:
256,192,44382,1,0,0:0:0:0:
256,192,44420,1,8,0:0:0:0:
256,192,44495,1,0,0:0:0:0:
256,192,44570,1,8,0:0:0:0:
256,192,44645,1,8,0:0:0:0:
256,192,44720,1,0,0:0:0:0:
256,192,44795,1,8,0:0:0:0:
256,192,44832,1,8,0:0:0:0:
256,192,44870,1,0,0:0:0:0:
256,192,44945,1,8,0:0:0:0:
256,192,45020,1,0,0:0:0:0:
256,192,45057,1,8,0:0:0:0:
256,192,45095,1,0,0:0:0:0:
256,192,45132,1,0,0:0:0:0:
256,192,45170,1,8,0:0:0:0:
256,192,45245,1,8,0:0:0:0:
256,192,45320,1,0,0:0:0:0:
256,192,45395,1,8,0:0:0:0:
256,192,45432,1,8,0:0:0:0:
256,192,45470,1,0,0:0:0:0:
256,192,45545,1,0,0:0:0:0:
256,192,45620,1,8,0:0:0:0:
256,192,45695,1,0,0:0:0:0:
256,192,45732,1,0,0:0:0:0:
256,192,45770,1,8,0:0:0:0:
256,192,45845,1,8,0:0:0:0:
256,192,45882,1,8,0:0:0:0:
256,192,45920,1,0,0:0:0:0:
256,192,45995,1,0,0:0:0:0:
256,192,46070,1,8,0:0:0:0:
256,192,46107,1,8,0:0:0:0:
256,192,46145,1,8,0:0:0:0:
256,192,46182,1,8,0:0:0:0:
256,192,46220,1,0,0:0:0:0:
256,192,46295,1,0,0:0:0:0:
256,192,46370,1,8,0:0:0:0:
256,192,46407,1,8,0:0:0:0:
256,192,46445,1,8,0:0:0:0:
256,192,46482,1,8,0:0:0:0:
256,192,46520,1,0,0:0:0:0:
256,192,46595,1,8,0:0:0:0:
256,192,46670,1,0,0:0:0:0:
256,192,46707,1,0,0:0:0:0:
256,192,46745,1,0,0:0:0:0:
256,192,46820,1,8,0:0:0:0:
256,192,47120,1,4,0:0:0:0:
256,192,47270,1,0,0:0:0:0:
256,192,47345,1,0,0:0:0:0:
256,192,47420,1,8,0:0:0:0:
256,192,47570,1,0,0:0:0:0:
256,192,47720,1,0,0:0:0:0:
256,192,47870,1,8,0:0:0:0:
256,192,47920,1,8,0:0:0:0:
256,192,47970,1,8,0:0:0:0:
256,192,48020,1,0,0:0:0:0:
256,192,48070,1,0,0:0:0:0:
256,192,48120,1,0,0:0:0:0:
256,192,48170,1,8,0:0:0:0:
256,192,48320,1,8,0:0:0:0:
256,192,48395,1,8,0:0:0:0:
256,192,48470,1,0,0:0:0:0:
256,192,48620,1,8,0:0:0:0:
256,192,48770,1,0,0:0:0:0:
256,192,48920,1,0,0:0:0:0:
256,192,48995,1,0,0:0:0:0:
256,192,49070,1,8,0:0:0:0:
256,192,49220,1,8,0:0:0:0:
256,192,49295,1,8,0:0:0:0:
256,192,49370,1,0,0:0:0:0:
256,192,49445,1,0,0:0:0:0:
256,192,49520,1,0,0:0:0:0:
256,192,49670,1,0,0:0:0:0:
256,192,49745,1,0,0:0:0:0:
256,192,49820,1,8,0:0:0:0:
256,192,49970,1,0,0:0:0:0:
256,192,50120,1,0,0:0:0:0:
256,192,50270,1,8,0:0:0:0:
256,192,50320,1,8,0:0:0:0:
256,192,50370,1,8,0:0:0:0:
256,192,50420,1,0,0:0:0:0:
256,192,50470,1,0,0:0:0:0:
256,192,50520,1,0,0:0:0:0:
256,192,50570,1,8,0:0:0:0:
256,192,50720,1,8,0:0:0:0:
256,192,50795,1,8,0:0:0:0:
256,192,50870,1,0,0:0:0:0:
256,192,51020,1,8,0:0:0:0:
256,192,51170,1,0,0:0:0:0:
256,192,51320,1,8,0:0:0:0:
256,192,51370,1,8,0:0:0:0:
256,192,51420,1,8,0:0:0:0:
256,192,51470,1,0,0:0:0:0:
256,192,51620,1,8,0:0:0:0:
256,192,51670,1,8,0:0:0:0:
256,192,51720,1,8,0:0:0:0:
256,192,51770,1,8,0:0:0:0:
256,192,51920,1,0,0:0:0:0:
256,192,52070,1,8,0:0:0:0:
256,192,52145,1,8,0:0:0:0:
256,192,52220,1,8,0:0:0:0:
256,192,52370,1,0,0:0:0:0:
256,192,52445,1,8,0:0:0:0:
256,192,52520,1,0,0:0:0:0:
256,192,52595,1,0,0:0:0:0:
256,192,52670,1,8,0:0:0:0:
256,192,52720,1,8,0:0:0:0:
256,192,52770,1,8,0:0:0:0:
256,192,52820,1,0,0:0:0:0:
256,192,52870,1,0,0:0:0:0:
256,192,52920,1,0,0:0:0:0:
256,192,52970,1,8,0:0:0:0:
256,192,53120,1,8,0:0:0:0:
256,192,53195,1,8,0:0:0:0:
256,192,53270,1,0,0:0:0:0:
256,192,53420,1,8,0:0:0:0:
256,192,53570,1,0,0:0:0:0:
256,192,53720,1,0,0:0:0:0:
256,192,53795,1,0,0:0:0:0:
256,192,53870,1,8,0:0:0:0:
256,192,54020,1,8,0:0:0:0:
256,192,54095,1,8,0:0:0:0:
256,192,54170,1,0,0:0:0:0:
256,192,54245,1,0,0:0:0:0:
256,192,54320,1,0,0:0:0:0:
256,192,54470,1,0,0:0:0:0:
256,192,54545,1,0,0:0:0:0:
256,192,54620,1,8,0:0:0:0:
256,192,54770,1,0,0:0:0:0:
256,192,54920,1,0,0:0:0:0:
256,192,55070,1,8,0:0:0:0:
256,192,55120,1,8,0:0:0:0:
256,192,55170,1,8,0:0:0:0:
256,192,55220,1,0,0:0:0:0:
256,192,55270,1,0,0:0:0:0:
256,192,55320,1,0,0:0:0:0:
256,192,55370,1,8,0:0:0:0:
256,192,55520,1,8,0:0:0:0:
256,192,55670,1,8,0:0:0:0:
256,192,55820,1,8,0:0:0:0:
256,192,55970,1,8,0:0:0:0:
256,192,56120,1,8,0:0:0:0:
256,192,56270,1,8,0:0:0:0:
256,192,56420,1,0,0:0:0:0:
256,192,56720,1,4,0:0:0:0:
256,192,56795,1,0,0:0:0:0:
256,192,56870,1,8,0:0:0:0:
256,192,56945,1,0,0:0:0:0:
256,192,56982,1,0,0:0:0:0:
256,192,57020,1,8,0:0:0:0:
256,192,57095,1,8,0:0:0:0:
256,192,57170,1,0,0:0:0:0:
256,192,57245,1,0,0:0:0:0:
256,192,57320,1,8,0:0:0:0:
256,192,57357,1,8,0:0:0:0:
256,192,57395,1,8,0:0:0:0:
256,192,57470,1,0,0:0:0:0:
256,192,57545,1,8,0:0:0:0:
256,192,57620,1,0,0:0:0:0:
256,192,57695,1,0,0:0:0:0:
256,192,57770,1,8,0:0:0:0:
256,192,57845,1,0,0:0:0:0:
256,192,57920,1,8,0:0:0:0:
256,192,57957,1,8,0:0:0:0:
256,192,57995,1,8,0:0:0:0:
256,192,58070,1,0,0:0:0:0:
256,192,58145,1,0,0:0:0:0:
256,192,58220,1,8,0:0:0:0:
256,192,58257,1,8,0:0:0:0:
256,192,58295,1,8,0:0:0:0:
256,192,58370,1,0,0:0:0:0:
256,192,58445,1,0,0:0:0:0:
256,192,58520,1,0,0:0:0:0:
256,192,58595,1,8,0:0:0:0:
256,192,58670,1,0,0:0:0:0:
256,192,58745,1,0,0:0:0:0:
256,192,58820,1,8,0:0:0:0:
256,192,58970,1,8,0:0:0:0:
256,192,59120,1,0,0:0:0:0:
256,192,59195,1,0,0:0:0:0:
256,192,59270,1,8,0:0:0:0:
256,192,59345,1,0,0:0:0:0:
256,192,59382,1,0,0:0:0:0:
256,192,59420,1,8,0:0:0:0:
256,192,59495,1,8,0:0:0:0:
256,192,59570,1,0,0:0:0:0:
256,192,59645,1,0,0:0:0:0:
256,192,59720,1,8,0:0:0:0:
256,192,59757,1,8,0:0:0:0:
256,192,59795,1,8,0:0:0:0:
256,192,59870,1,0,0:0:0:0:
256,192,59945,1,8,0:0:0:0:
256,192,60020,1,0,0:0:0:0:
256,192,60095,1,0,0:0:0:0:
256,192,60170,1,8,0:0:0:0:
256,192,60245,1,0,0:0:0:0:
256,192,60320,1,8,0:0:0:0:
256,192,60357,1,8,0:0:0:0:
256,192,60395,1,8,0:0:0:0:
256,192,60432,1,8,0:0:0:0:
256,192,60470,1,0,0:0:0:0:
256,192,60545,1,0,0:0:0:0:
256,192,60620,1,8,0:0:0:0:
256,192,60657,1,8,0:0:0:0:
256,192,60695,1,8,0:0:0:0:
256,192,60732,1,8,0:0:0:0:
256,192,60770,1,0,0:0:0:0:
256,192,60845,1,0,0:0:0:0:
256,192,60920,1,8,0:0:0:0:
256,192,60995,1,8,0:0:0:0:
256,192,61070,1,8,0:0:0:0:
256,192,61145,1,8,0:0:0:0:
256,192,61220,1,8,0:0:0:0:
256,192,61257,1,8,0:0:0:0:
256,192,61295,1,0,0:0:0:0:
256,192,61370,1,8,0:0:0:0:
256,192,61407,1,8,0:0:0:0:
256,192,61445,1,8,0:0:0:0:
256,192,61520,1,4,0:0:0:0:
256,192,61595,1,0,0:0:0:0:
256,192,61670,1,8,0:0:0:0:
256,192,61745,1,0,0:0:0:0:
256,192,61782,1,0,0:0:0:0:
256,192,61820,1,8,0:0:0:0:
256,192,61895,1,8,0:0:0:0:
256,192,61970,1,0,0:0:0:0:
256,192,62045,1,0,0:0:0:0:
256,192,62120,1,8,0:0:0:0:
256,192,62157,1,8,0:0:0:0:
256,192,62195,1,8,0:0:0:0:
256,192,62270,1,0,0:0:0:0:
256,192,62345,1,8,0:0:0:0:
256,192,62420,1,0,0:0:0:0:
256,192,62495,1,0,0:0:0:0:
256,192,62570,1,8,0:0:0:0:
256,192,62645,1,0,0:0:0:0:
256,192,62720,1,8,0:0:0:0:
256,192,62757,1,8,0:0:0:0:
256,192,62795,1,8,0:0:0:0:
256,192,62870,1,0,0:0:0:0:
256,192,62945,1,0,0:0:0:0:
256,192,63020,1,8,0:0:0:0:
256,192,63057,1,8,0:0:0:0:
256,192,63095,1,8,0:0:0:0:
256,192,63170,1,0,0:0:0:0:
256,192,63245,1,0,0:0:0:0:
256,192,63320,1,0,0:0:0:0:
256,192,63395,1,8,0:0:0:0:
256,192,63470,1,0,0:0:0:0:
256,192,63545,1,0,0:0:0:0:
256,192,63620,1,8,0:0:0:0:
256,192,63770,1,8,0:0:0:0:
256,192,63920,1,0,0:0:0:0:
256,192,63995,1,0,0:0:0:0:
256,192,64070,1,8,0:0:0:0:
256,192,64145,1,0,0:0:0:0:
256,192,64182,1,0,0:0:0:0:
256,192,64220,1,8,0:0:0:0:
256,192,64295,1,8,0:0:0:0:
256,192,64370,1,0,0:0:0:0:
256,192,64445,1,0,0:0:0:0:
256,192,64520,1,8,0:0:0:0:
256,192,64557,1,8,0:0:0:0:
256,192,64595,1,8,0:0:0:0:
256,192,64670,1,0,0:0:0:0:
256,192,64745,1,8,0:0:0:0:
256,192,64820,1,0,0:0:0:0:
256,192,64895,1,0,0:0:0:0:
256,192,64970,1,8,0:0:0:0:
256,192,65045,1,8,0:0:0:0:
256,192,65120,1,0,0:0:0:0:
256,192,65195,1,0,0:0:0:0:
256,192,65270,1,0,0:0:0:0:
256,192,65345,1,0,0:0:0:0:
256,192,65420,1,8,0:0:0:0:
256,192,65495,1,8,0:0:0:0:
256,192,65570,1,8,0:0:0:0:
256,192,65645,1,8,0:0:0:0:
256,192,65720,1,0,0:0:0:0:
256,192,65757,1,0,0:0:0:0:
256,192,65795,1,0,0:0:0:0:
256,192,65870,1,0,0:0:0:0:
256,192,65907,1,0,0:0:0:0:
256,192,65945,1,0,0:0:0:0:
256,192,66020,1,8,0:0:0:0:
256,192,66320,1,4,0:0:0:0:
256,192,66470,1,4,0:0:0:0:
256,192,66770,1,8,0:0:0:0:
256,192,66920,1,0,0:0:0:0:
256,192,66995,1,0,0:0:0:0:
256,192,67070,1,8,0:0:0:0:
256,192,67370,1,0,0:0:0:0:
256,192,67445,1,0,0:0:0:0:
256,192,67520,1,8,0:0:0:0:
256,192,67820,1,0,0:0:0:0:
256,192,67895,1,0,0:0:0:0:
256,192,67970,1,8,0:0:0:0:
256,192,68270,1,8,0:0:0:0:
256,192,68345,1,8,0:0:0:0:
256,192,68420,1,0,0:0:0:0:
256,192,68720,1,0,0:0:0:0:
256,192,68795,1,0,0:0:0:0:
256,192,68870,1,8,0:0:0:0:
256,192,68945,1,8,0:0:0:0:
256,192,69020,1,0,0:0:0:0:
256,192,69170,1,8,0:0:0:0:
256,192,69320,1,0,0:0:0:0:
256,192,69395,1,0,0:0:0:0:
256,192,69470,1,8,0:0:0:0:
256,192,69770,1,0,0:0:0:0:
256,192,69845,1,0,0:0:0:0:
256,192,69920,1,8,0:0:0:0:
256,192,70220,1,0,0:0:0:0:
256,192,70295,1,0,0:0:0:0:
256,192,70370,1,8,0:0:0:0:
256,192,70670,1,0,0:0:0:0:
256,192,70745,1,0,0:0:0:0:
256,192,70820,1,8,0:0:0:0:
256,192,70895,1,8,0:0:0:0:
256,192,70970,1,8,0:0:0:0:
256,192,71120,1,8,0:0:0:0:
256,192,71157,1,8,0:0:0:0:
256,192,71195,1,8,0:0:0:0:
256,192,71232,1,8,0:0:0:0:
256,192,71270,1,0,0:0:0:0:
256,192,71345,1,0,0:0:0:0:
256,192,71420,1,0,0:0:0:0:
256,192,71570,1,8,0:0:0:0:
256,192,71720,1,0,0:0:0:0:
256,192,71795,1,0,0:0:0:0:
256,192,71870,1,8,0:0:0:0:
256,192,72170,1,0,0:0:0:0:
256,192,72245,1,0,0:0:0:0:
256,192,72320,1,8,0:0:0:0:
256,192,72620,1,0,0:0:0:0:
256,192,72695,1,0,0:0:0:0:
256,192,72770,1,8,0:0:0:0:
256,192,73070,1,0,0:0:0:0:
256,192,73145,1,0,0:0:0:0:
256,192,73220,1,0,0:0:0:0:
256,192,73295,1,0,0:0:0:0:
256,192,73520,1,0,0:0:0:0:
256,192,73595,1,0,0:0:0:0:
256,192,73670,1,8,0:0:0:0:
256,192,73745,1,8,0:0:0:0:
256,192,73820,1,0,0:0:0:0:
256,192,73970,1,8,0:0:0:0:
256,192,74120,1,0,0:0:0:0:
256,192,74195,1,0,0:0:0:0:
256,192,74270,1,8,0:0:0:0:
256,192,74570,1,0,0:0:0:0:
256,192,74645,1,0,0:0:0:0:
256,192,74720,1,0,0:0:0:0:
256,192,74920,1,0,0:0:0:0:
256,192,75120,1,0,0:0:0:0:
256,192,75320,1,8,0:0:0:0:
256,192,75520,1,8,0:0:0:0:
256,192,75720,1,8,0:0:0:0:
256,192,75920,1,4,0:0:0:0:
256,192,76220,12,0,80420,0:0:0:0:
256,192,80720,5,0,0:0:0:0:
256,192,81170,1,0,0:0:0:0:
256,192,81620,1,8,0:0:0:0:
256,192,81920,1,0,0:0:0:0:
256,192,82370,1,0,0:0:0:0:
256,192,82820,1,8,0:0:0:0:
256,192,83120,1,0,0:0:0:0:
256,192,83570,1,0,0:0:0:0:
256,192,84020,1,8,0:0:0:0:
256,192,84320,1,8,0:0:0:0:
256,192,84770,1,12,0:0:0:0:
256,192,85520,1,0,0:0:0:0:
256,192,85970,1,8,0:0:0:0:
256,192,86270,1,0,0:0:0:0:
256,192,86420,1,8,0:0:0:0:
256,192,86720,1,0,0:0:0:0:
256,192,87170,1,8,0:0:0:0:
256,192,87470,1,0,0:0:0:0:
256,192,87620,1,8,0:0:0:0:
256,192,87920,1,0,0:0:0:0:
256,192,88370,1,8,0:0:0:0:
256,192,88670,1,0,0:0:0:0:
256,192,88820,1,8,0:0:0:0:
256,192,88970,1,8,0:0:0:0:
256,192,89120,1,0,0:0:0:0:
256,192,89570,1,12,0:0:0:0:
256,192,90320,1,0,0:0:0:0:
256,192,90620,1,8,0:0:0:0:
256,192,90770,1,0,0:0:0:0:
256,192,91220,1,8,0:0:0:0:
256,192,91370,1,8,0:0:0:0:
256,192,91520,1,0,0:0:0:0:
256,192,91820,1,0,0:0:0:0:
256,192,91970,1,8,0:0:0:0:
256,192,92420,1,8,0:0:0:0:
256,192,92720,1,0,0:0:0:0:
256,192,93020,1,8,0:0:0:0:
256,192,93170,1,0,0:0:0:0:
256,192,93620,1,8,0:0:0:0:
256,192,93770,1,8,0:0:0:0:
256,192,93920,1,8,0:0:0:0:
256,192,94220,1,0,0:0:0:0:
256,192,94370,1,8,0:0:0:0:
256,192,94820,1,8,0:0:0:0:
256,192,95120,1,0,0:0:0:0:
256,192,95420,1,8,0:0:0:0:
256,192,95570,1,0,0:0:0:0:
256,192,96020,1,8,0:0:0:0:
256,192,96170,1,0,0:0:0:0:
256,192,96320,1,0,0:0:0:0:
256,192,96620,1,0,0:0:0:0:
256,192,96770,1,8,0:0:0:0:
256,192,97220,1,8,0:0:0:0:
256,192,97520,1,0,0:0:0:0:
256,192,97820,1,8,0:0:0:0:
256,192,97970,1,0,0:0:0:0:
256,192,98420,1,8,0:0:0:0:
256,192,98570,1,8,0:0:0:0:
256,192,98720,1,8,0:0:0:0:
256,192,99020,1,0,0:0:0:0:
256,192,99170,1,8,0:0:0:0:
256,192,99620,1,8,0:0:0:0:
256,192,99920,2,4,L|484:192,3,224
256,192,101120,1,0,0:0:0:0:
256,192,101270,1,0,0:0:0:0:
256,192,101420,1,0,0:0:0:0:
256,192,101570,1,8,0:0:0:0:
256,192,101720,1,0,0:0:0:0:
256,192,102020,1,8,0:0:0:0:
256,192,102320,2,4,L|480:192,3,224
256,192,103520,1,0,0:0:0:0:
256,192,103820,1,8,0:0:0:0:
256,192,103970,1,8,0:0:0:0:
256,192,104120,1,8,0:0:0:0:
256,192,104270,1,0,0:0:0:0:
256,192,104420,1,8,0:0:0:0:
256,192,104720,2,4,L|484:192,3,224
256,192,105920,1,0,0:0:0:0:
256,192,106070,1,0,0:0:0:0:
256,192,106220,1,8,0:0:0:0:
256,192,106370,1,0,0:0:0:0:
256,192,106520,1,0,0:0:0:0:
256,192,106820,1,8,0:0:0:0:
256,192,107120,2,4,L|484:192,3,224
256,192,108320,1,0,0:0:0:0:
256,192,108620,1,8,0:0:0:0:
256,192,108770,1,0,0:0:0:0:
256,192,108920,1,8,0:0:0:0:
256,192,109070,1,0,0:0:0:0:
256,192,109220,1,8,0:0:0:0:
256,192,109370,1,8,0:0:0:0:
256,192,109520,1,4,0:0:0:0:
256,192,109820,1,8,0:0:0:0:
256,192,109970,1,4,0:0:0:0:
256,192,110345,1,0,0:0:0:0:
256,192,110420,1,8,0:0:0:0:
256,192,110570,1,8,0:0:0:0:
256,192,110720,1,0,0:0:0:0:
256,192,110870,1,8,0:0:0:0:
256,192,111020,1,0,0:0:0:0:
256,192,111170,1,0,0:0:0:0:
256,192,111620,1,8,0:0:0:0:
256,192,111770,1,0,0:0:0:0:
256,192,111920,1,4,0:0:0:0:
256,192,112220,1,8,0:0:0:0:
256,192,112370,1,4,0:0:0:0:
256,192,112745,1,0,0:0:0:0:
256,192,112820,1,8,0:0:0:0:
256,192,112970,1,0,0:0:0:0:
256,192,113120,1,8,0:0:0:0:
256,192,113270,1,8,0:0:0:0:
256,192,113420,1,0,0:0:0:0:
256,192,113570,1,8,0:0:0:0:
256,192,114020,1,8,0:0:0:0:
256,192,114170,1,8,0:0:0:0:
256,192,114320,1,4,0:0:0:0:
256,192,114620,1,8,0:0:0:0:
256,192,114770,1,4,0:0:0:0:
256,192,115145,1,0,0:0:0:0:
256,192,115220,1,8,0:0:0:0:
256,192,115370,1,0,0:0:0:0:
256,192,115520,1,0,0:0:0:0:
256,192,115670,1,8,0:0:0:0:
256,192,115820,1,8,0:0:0:0:
256,192,115970,1,0,0:0:0:0:
256,192,116420,1,8,0:0:0:0:
256,192,116570,1,0,0:0:0:0:
256,192,116720,1,4,0:0:0:0:
256,192,117020,1,8,0:0:0:0:
256,192,117170,1,4,0:0:0:0:
256,192,117545,1,0,0:0:0:0:
256,192,117620,1,8,0:0:0:0:
256,192,117770,1,0,0:0:0:0:
256,192,117920,1,0,0:0:0:0:
256,192,118070,1,8,0:0:0:0:
256,192,118220,1,0,0:0:0:0:
256,192,118370,1,8,0:0:0:0:
256,192,118820,1,8,0:0:0:0:
256,192,118970,1,8,0:0:0:0:
256,192,119120,2,4,L|-24:192,3,280
256,192,120320,1,0,0:0:0:0:
256,192,120470,1,8,0:0:0:0:
256,192,120620,1,0,0:0:0:0:
256,192,120770,1,0,0:0:0:0:
256,192,120920,1,8,0:0:0:0:
256,192,121145,1,0,0:0:0:0:
256,192,121220,1,8,0:0:0:0:
256,192,121370,1,0,0:0:0:0:
256,192,121520,2,4,L|-24:192,3,280
256,192,122720,1,8,0:0:0:0:
256,192,122870,1,8,0:0:0:0:
256,192,123020,1,0,0:0:0:0:
256,192,123320,1,8,0:0:0:0:
256,192,123545,1,0,0:0:0:0:
256,192,123620,1,8,0:0:0:0:
256,192,123770,1,0,0:0:0:0:
256,192,123920,2,4,L|-24:192,3,280
256,192,125120,1,0,0:0:0:0:
256,192,125270,1,8,0:0:0:0:
256,192,125420,1,0,0:0:0:0:
256,192,125570,1,0,0:0:0:0:
256,192,125720,1,8,0:0:0:0:
256,192,125945,1,0,0:0:0:0:
256,192,126020,1,8,0:0:0:0:
256,192,126170,1,0,0:0:0:0:
256,192,126320,2,4,L|-24:192,3,280
256,192,127520,1,8,0:0:0:0:
256,192,128420,1,8,0:0:0:0:
256,192,128570,1,8,0:0:0:0:
256,192,128720,1,4,0:0:0:0:
256,192,128945,1,0,0:0:0:0:
256,192,129170,1,0,0:0:0:0:
256,192,129395,1,8,0:0:0:0:
256,192,129620,1,0,0:0:0:0:
256,192,129770,1,0,0:0:0:0:
256,192,129920,1,8,0:0:0:0:
256,192,130145,1,8,0:0:0:0:
256,192,130370,1,8,0:0:0:0:
256,192,130595,1,0,0:0:0:0:
256,192,130820,1,8,0:0:0:0:
256,192,130970,1,8,0:0:0:0:
256,192,131120,1,0,0:0:0:0:
256,192,131345,1,0,0:0:0:0:
256,192,131570,1,0,0:0:0:0:
256,192,131795,1,8,0:0:0:0:
256,192,132020,1,0,0:0:0:0:
256,192,132170,1,8,0:0:0:0:
256,192,132320,1,0,0:0:0:0:
256,192,132545,1,8,0:0:0:0:
256,192,132770,1,0,0:0:0:0:
256,192,132995,1,0,0:0:0:0:
256,192,133220,1,8,0:0:0:0:
256,192,133370,1,8,0:0:0:0:
256,192,133520,1,0,0:0:0:0:
256,192,133745,1,0,0:0:0:0:
256,192,133970,1,0,0:0:0:0:
256,192,134195,1,8,0:0:0:0:
256,192,134420,1,0,0:0:0:0:
256,192,134570,1,0,0:0:0:0:
256,192,134720,1,8,0:0:0:0:
256,192,134945,1,8,0:0:0:0:
256,192,135170,1,8,0:0:0:0:
256,192,135395,1,0,0:0:0:0:
256,192,135620,1,8,0:0:0:0:
256,192,135770,1,8,0:0:0:0:
256,192,135920,1,0,0:0:0:0:
256,192,136145,1,0,0:0:0:0:
256,192,136370,1,0,0:0:0:0:
256,192,136595,1,8,0:0:0:0:
256,192,136820,1,0,0:0:0:0:
256,192,136970,1,8,0:0:0:0:
256,192,137120,1,0,0:0:0:0:
256,192,137345,1,8,0:0:0:0:
256,192,137570,1,0,0:0:0:0:
256,192,137720,1,8,0:0:0:0:
256,192,137770,1,8,0:0:0:0:
256,192,137820,1,8,0:0:0:0:
256,192,137870,1,0,0:0:0:0:
256,192,137920,1,0,0:0:0:0:
256,192,137970,1,0,0:0:0:0:
256,192,138020,1,8,0:0:0:0:
256,192,138170,1,8,0:0:0:0:
256,192,138320,1,4,0:0:0:0:
256,192,138545,1,8,0:0:0:0:
256,192,138620,1,0,0:0:0:0:
256,192,138770,1,8,0:0:0:0:
256,192,138920,1,0,0:0:0:0:
256,192,138995,1,0,0:0:0:0:
256,192,139145,1,8,0:0:0:0:
256,192,139220,1,0,0:0:0:0:
256,192,139370,1,8,0:0:0:0:
256,192,139520,1,4,0:0:0:0:
256,192,139745,1,0,0:0:0:0:
256,192,139820,1,8,0:0:0:0:
256,192,139970,1,0,0:0:0:0:
256,192,140120,1,8,0:0:0:0:
256,192,140195,1,8,0:0:0:0:
256,192,140345,1,0,0:0:0:0:
256,192,140420,1,0,0:0:0:0:
256,192,140570,1,8,0:0:0:0:
256,192,140720,1,4,0:0:0:0:
256,192,140945,1,8,0:0:0:0:
256,192,141020,1,0,0:0:0:0:
256,192,141170,1,8,0:0:0:0:
256,192,141320,1,4,0:0:0:0:
256,192,141545,1,0,0:0:0:0:
256,192,141620,1,8,0:0:0:0:
256,192,141770,1,8,0:0:0:0:
256,192,141920,1,4,0:0:0:0:
256,192,142220,1,4,0:0:0:0:
256,192,142520,1,12,0:0:0:0:
256,192,142820,1,0,0:0:0:0:
256,192,142970,1,8,0:0:0:0:
256,192,143120,1,4,0:0:0:0:
256,192,143420,1,4,0:0:0:0:
256,192,143720,1,4,0:0:0:0:
256,192,144020,1,4,0:0:0:0:
256,192,144320,1,0,0:0:0:0:
256,192,144470,1,0,0:0:0:0:
256,192,144620,1,0,0:0:0:0:
256,192,144770,1,0,0:0:0:0:
256,192,144920,1,0,0:0:0:0:
256,192,145070,1,0,0:0:0:0:
256,192,145220,1,0,0:0:0:0:
256,192,145370,1,8,0:0:0:0:
256,192,145520,1,0,0:0:0:0:
256,192,145595,1,0,0:0:0:0:
256,192,145670,1,0,0:0:0:0:
256,192,145745,1,0,0:0:0:0:
256,192,145820,1,0,0:0:0:0:
256,192,145895,1,0,0:0:0:0:
256,192,145970,1,0,0:0:0:0:
256,192,146045,1,0,0:0:0:0:
256,192,146120,1,8,0:0:0:0:
256,192,146170,1,8,0:0:0:0:
256,192,146220,1,8,0:0:0:0:
256,192,146270,1,0,0:0:0:0:
256,192,146320,1,0,0:0:0:0:
256,192,146370,1,0,0:0:0:0:
256,192,146420,1,8,0:0:0:0:
256,192,146470,1,0,0:0:0:0:
256,192,146520,1,0,0:0:0:0:
256,192,146570,1,8,0:0:0:0:
256,192,146620,1,8,0:0:0:0:
256,192,146670,1,8,0:0:0:0:
256,192,146720,1,0,0:0:0:0:
256,192,146870,1,0,0:0:0:0:
256,192,147020,1,8,0:0:0:0:
256,192,147170,1,8,0:0:0:0:
256,192,147245,1,0,0:0:0:0:
256,192,147395,1,8,0:0:0:0:
256,192,147470,1,0,0:0:0:0:
256,192,147545,1,0,0:0:0:0:
256,192,147620,1,8,0:0:0:0:
256,192,147920,1,4,0:0:0:0:
256,192,148070,1,0,0:0:0:0:
256,192,148145,1,8,0:0:0:0:
256,192,148182,1,8,0:0:0:0:
256,192,148220,1,0,0:0:0:0:
256,192,148295,1,0,0:0:0:0:
256,192,148370,1,8,0:0:0:0:
256,192,148445,1,8,0:0:0:0:
256,192,148520,1,0,0:0:0:0:
256,192,148595,1,8,0:0:0:0:
256,192,148632,1,8,0:0:0:0:
256,192,148670,1,0,0:0:0:0:
256,192,148745,1,0,0:0:0:0:
256,192,148820,1,8,0:0:0:0:
256,192,148895,1,0,0:0:0:0:
256,192,148970,1,8,0:0:0:0:
256,192,149045,1,8,0:0:0:0:
256,192,149120,1,0,0:0:0:0:
256,192,149270,1,0,0:0:0:0:
256,192,149345,1,8,0:0:0:0:
256,192,149382,1,8,0:0:0:0:
256,192,149420,1,0,0:0:0:0:
256,192,149495,1,0,0:0:0:0:
256,192,149570,1,8,0:0:0:0:
256,192,149645,1,0,0:0:0:0:
256,192,149720,1,0,0:0:0:0:
256,192,149795,1,8,0:0:0:0:
256,192,149832,1,8,0:0:0:0:
256,192,149870,1,8,0:0:0:0:
256,192,149945,1,8,0:0:0:0:
256,192,150020,1,0,0:0:0:0:
256,192,150095,1,0,0:0:0:0:
256,192,150170,1,8,0:0:0:0:
256,192,150245,1,8,0:0:0:0:
256,192,150320,1,0,0:0:0:0:
256,192,150470,1,0,0:0:0:0:
256,192,150545,1,8,0:0:0:0:
256,192,150582,1,8,0:0:0:0:
256,192,150620,1,0,0:0:0:0:
256,192,150695,1,0,0:0:0:0:
256,192,150770,1,8,0:0:0:0:
256,192,150845,1,8,0:0:0:0:
256,192,150920,1,0,0:0:0:0:
256,192,150995,1,8,0:0:0:0:
256,192,151032,1,8,0:0:0:0:
256,192,151070,1,8,0:0:0:0:
256,192,151145,1,0,0:0:0:0:
256,192,151220,1,8,0:0:0:0:
256,192,151295,1,0,0:0:0:0:
256,192,151370,1,8,0:0:0:0:
256,192,151445,1,8,0:0:0:0:
256,192,151520,1,0,0:0:0:0:
256,192,151557,1,0,0:0:0:0:
256,192,151595,1,0,0:0:0:0:
256,192,151670,1,0,0:0:0:0:
256,192,151745,1,8,0:0:0:0:
256,192,151782,1,8,0:0:0:0:
256,192,151820,1,8,0:0:0:0:
256,192,151895,1,8,0:0:0:0:
256,192,151970,1,0,0:0:0:0:
256,192,152007,1,0,0:0:0:0:
256,192,152045,1,0,0:0:0:0:
256,192,152120,1,0,0:0:0:0:
256,192,152195,1,8,0:0:0:0:
256,192,152270,1,8,0:0:0:0:
256,192,152345,1,8,0:0:0:0:
256,192,152420,1,0,0:0:0:0:
256,192,152570,1,8,0:0:0:0:
256,192,152645,1,8,0:0:0:0:
256,192,152720,1,0,0:0:0:0:
256,192,152870,1,0,0:0:0:0:
256,192,152945,1,8,0:0:0:0:
256,192,152982,1,8,0:0:0:0:
256,192,153020,1,0,0:0:0:0:
256,192,153095,1,0,0:0:0:0:
256,192,153170,1,8,0:0:0:0:
256,192,153245,1,8,0:0:0:0:
256,192,153320,1,0,0:0:0:0:
256,192,153395,1,8,0:0:0:0:
256,192,153432,1,8,0:0:0:0:
256,192,153470,1,0,0:0:0:0:
256,192,153545,1,0,0:0:0:0:
256,192,153620,1,8,0:0:0:0:
256,192,153695,1,0,0:0:0:0:
256,192,153770,1,8,0:0:0:0:
256,192,153845,1,8,0:0:0:0:
256,192,153920,1,0,0:0:0:0:
256,192,154070,1,0,0:0:0:0:
256,192,154145,1,8,0:0:0:0:
256,192,154182,1,8,0:0:0:0:
256,192,154220,1,0,0:0:0:0:
256,192,154295,1,0,0:0:0:0:
256,192,154370,1,8,0:0:0:0:
256,192,154445,1,0,0:0:0:0:
256,192,154520,1,0,0:0:0:0:
256,192,154595,1,8,0:0:0:0:
256,192,154632,1,8,0:0:0:0:
256,192,154670,1,8,0:0:0:0:
256,192,154745,1,8,0:0:0:0:
256,192,154820,1,0,0:0:0:0:
256,192,154895,1,0,0:0:0:0:
256,192,154970,1,8,0:0:0:0:
256,192,155045,1,8,0:0:0:0:
256,192,155120,1,0,0:0:0:0:
256,192,155270,1,0,0:0:0:0:
256,192,155345,1,8,0:0:0:0:
256,192,155382,1,8,0:0:0:0:
256,192,155420,1,0,0:0:0:0:
256,192,155495,1,0,0:0:0:0:
256,192,155570,1,8,0:0:0:0:
256,192,155645,1,8,0:0:0:0:
256,192,155720,1,0,0:0:0:0:
256,192,155795,1,8,0:0:0:0:
256,192,155832,1,8,0:0:0:0:
256,192,155870,1,8,0:0:0:0:
256,192,155945,1,0,0:0:0:0:
256,192,156020,1,8,0:0:0:0:
256,192,156095,1,0,0:0:0:0:
256,192,156170,1,8,0:0:0:0:
256,192,156245,1,8,0:0:0:0:
256,192,156320,1,0,0:0:0:0:
256,192,156357,1,0,0:0:0:0:
256,192,156395,1,0,0:0:0:0:
256,192,156432,1,0,0:0:0:0:
256,192,156470,1,8,0:0:0:0:
256,192,156545,1,0,0:0:0:0:
256,192,156620,1,8,0:0:0:0:
256,192,156695,1,0,0:0:0:0:
256,192,156732,1,0,0:0:0:0:
256,192,156770,1,8,0:0:0:0:
256,192,156845,1,8,0:0:0:0:
256,192,156920,1,0,0:0:0:0:
256,192,156995,1,0,0:0:0:0:
256,192,157070,1,0,0:0:0:0:
256,192,157145,1,0,0:0:0:0:
256,192,157220,1,8,0:0:0:0:
256,192,157370,1,8,0:0:0:0:
256,192,157520,1,4,0:0:0:0:
256,192,157595,1,0,0:0:0:0:
256,192,157670,1,8,0:0:0:0:
256,192,157745,1,8,0:0:0:0:
256,192,157782,1,8,0:0:0:0:
256,192,157820,1,0,0:0:0:0:
256,192,157895,1,0,0:0:0:0:
256,192,157970,1,8,0:0:0:0:
256,192,158045,1,0,0:0:0:0:
256,192,158120,1,0,0:0:0:0:
256,192,158195,1,8,0:0:0:0:
256,192,158232,1,8,0:0:0:0:
256,192,158270,1,8,0:0:0:0:
256,192,158345,1,0,0:0:0:0:
256,192,158420,1,8,0:0:0:0:
256,192,158457,1,8,0:0:0:0:
256,192,158495,1,0,0:0:0:0:
256,192,158532,1,0,0:0:0:0:
256,192,158570,1,8,0:0:0:0:
256,192,158645,1,8,0:0:0:0:
256,192,158720,1,0,0:0:0:0:
256,192,158795,1,0,0:0:0:0:
256,192,158870,1,8,0:0:0:0:
256,192,158945,1,8,0:0:0:0:
256,192,158982,1,8,0:0:0:0:
256,192,159020,1,0,0:0:0:0:
256,192,159095,1,0,0:0:0:0:
256,192,159170,1,8,0:0:0:0:
256,192,159245,1,0,0:0:0:0:
256,192,159320,1,0,0:0:0:0:
256,192,159395,1,8,0:0:0:0:
256,192,159432,1,8,0:0:0:0:
256,192,159470,1,8,0:0:0:0:
256,192,159545,1,8,0:0:0:0:
256,192,159620,1,0,0:0:0:0:
256,192,159657,1,8,0:0:0:0:
256,192,159695,1,0,0:0:0:0:
256,192,159732,1,0,0:0:0:0:
256,192,159770,1,8,0:0:0:0:
256,192,159845,1,8,0:0:0:0:
256,192,159920,1,0,0:0:0:0:
256,192,159995,1,0,0:0:0:0:
256,192,160070,1,8,0:0:0:0:
256,192,160145,1,8,0:0:0:0:
256,192,160182,1,8,0:0:0:0:
256,192,160220,1,0,0:0:0:0:
256,192,160295,1,0,0:0:0:0:
256,192,160370,1,8,0:0:0:0:
256,192,160445,1,0,0:0:0:0:
256,192,160520,1,0,0:0:0:0:
256,192,160595,1,8,0:0:0:0:
256,192,160632,1,8,0:0:0:0:
256,192,160670,1,8,0:0:0:0:
256,192,160745,1,0,0:0:0:0:
256,192,160820,1,8,0:0:0:0:
256,192,160895,1,0,0:0:0:0:
256,192,160932,1,0,0:0:0:0:
256,192,160970,1,8,0:0:0:0:
256,192,161045,1,8,0:0:0:0:
256,192,161120,1,0,0:0:0:0:
256,192,161157,1,0,0:0:0:0:
256,192,161195,1,0,0:0:0:0:
256,192,161270,1,0,0:0:0:0:
256,192,161345,1,8,0:0:0:0:
256,192,161382,1,8,0:0:0:0:
256,192,161420,1,8,0:0:0:0:
256,192,161495,1,8,0:0:0:0:
256,192,161570,1,0,0:0:0:0:
256,192,161607,1,0,0:0:0:0:
256,192,161645,1,0,0:0:0:0:
256,192,161720,1,8,0:0:0:0:
256,192,161795,1,0,0:0:0:0:
256,192,161870,1,8,0:0:0:0:
256,192,161907,1,8,0:0:0:0:
256,192,161945,1,8,0:0:0:0:
256,192,161982,1,8,0:0:0:0:
256,192,162020,1,0,0:0:0:0:
256,192,162095,1,0,0:0:0:0:
256,192,162170,1,8,0:0:0:0:
256,192,162207,1,8,0:0:0:0:
256,192,162245,1,8,0:0:0:0:
256,192,162282,1,8,0:0:0:0:
256,192,162320,1,0,0:0:0:0:
256,192,162395,1,0,0:0:0:0:
256,192,162470,1,8,0:0:0:0:
256,192,162545,1,8,0:0:0:0:
256,192,162582,1,8,0:0:0:0:
256,192,162620,1,0,0:0:0:0:
256,192,162695,1,0,0:0:0:0:
256,192,162770,1,8,0:0:0:0:
256,192,162807,1,8,0:0:0:0:
256,192,162845,1,0,0:0:0:0:
256,192,162920,1,0,0:0:0:0:
256,192,162995,1,8,0:0:0:0:
256,192,163070,1,8,0:0:0:0:
256,192,163145,1,0,0:0:0:0:
256,192,163220,1,8,0:0:0:0:
256,192,163257,1,8,0:0:0:0:
256,192,163295,1,0,0:0:0:0:
256,192,163332,1,0,0:0:0:0:
256,192,163370,1,8,0:0:0:0:
256,192,163445,1,8,0:0:0:0:
256,192,163520,1,0,0:0:0:0:
256,192,163595,1,0,0:0:0:0:
256,192,163670,1,8,0:0:0:0:
256,192,163745,1,8,0:0:0:0:
256,192,163782,1,8,0:0:0:0:
256,192,163820,1,0,0:0:0:0:
256,192,163895,1,8,0:0:0:0:
256,192,163970,1,0,0:0:0:0:
256,192,164007,1,0,0:0:0:0:
256,192,164045,1,0,0:0:0:0:
256,192,164120,1,0,0:0:0:0:
256,192,164195,1,8,0:0:0:0:
256,192,164270,1,8,0:0:0:0:
256,192,164345,1,0,0:0:0:0:
256,192,164420,1,8,0:0:0:0:
256,192,164457,1,0,0:0:0:0:
256,192,164495,1,8,0:0:0:0:
256,192,164532,1,8,0:0:0:0:
256,192,164570,1,0,0:0:0:0:
256,192,164645,1,8,0:0:0:0:
256,192,164720,1,0,0:0:0:0:
256,192,164795,1,0,0:0:0:0:
256,192,164870,1,8,0:0:0:0:
256,192,164945,1,8,0:0:0:0:
256,192,164982,1,8,0:0:0:0:
256,192,165020,1,8,0:0:0:0:
256,192,165095,1,0,0:0:0:0:
256,192,165170,1,8,0:0:0:0:
256,192,165207,1,8,0:0:0:0:
256,192,165245,1,0,0:0:0:0:
256,192,165320,1,0,0:0:0:0:
256,192,165395,1,8,0:0:0:0:
256,192,165432,1,8,0:0:0:0:
256,192,165470,1,8,0:0:0:0:
256,192,165545,1,0,0:0:0:0:
256,192,165620,1,8,0:0:0:0:
256,192,165695,1,0,0:0:0:0:
256,192,165770,1,8,0:0:0:0:
256,192,165845,1,8,0:0:0:0:
256,192,165920,1,0,0:0:0:0:
256,192,166070,1,8,0:0:0:0:
256,192,166145,1,8,0:0:0:0:
256,192,166295,1,0,0:0:0:0:
256,192,166370,1,8,0:0:0:0:
256,192,166520,1,0,0:0:0:0:
256,192,166595,1,0,0:0:0:0:
256,192,166670,1,0,0:0:0:0:
256,192,166745,1,0,0:0:0:0:
256,192,166820,1,8,0:0:0:0:
256,192,167120,1,4,0:0:0:0:
256,192,167270,1,0,0:0:0:0:
256,192,167420,1,8,0:0:0:0:
256,192,167570,1,0,0:0:0:0:
256,192,167645,1,0,0:0:0:0:
256,192,167795,1,8,0:0:0:0:
256,192,167870,1,0,0:0:0:0:
256,192,168020,1,8,0:0:0:0:
256,192,168170,1,8,0:0:0:0:
256,192,168320,1,0,0:0:0:0:
256,192,168470,1,0,0:0:0:0:
256,192,168545,1,0,0:0:0:0:
256,192,168620,1,8,0:0:0:0:
256,192,168770,1,0,0:0:0:0:
256,192,168845,1,0,0:0:0:0:
256,192,168995,1,8,0:0:0:0:
256,192,169070,1,0,0:0:0:0:
256,192,169220,1,8,0:0:0:0:
256,192,169370,1,0,0:0:0:0:
256,192,169520,1,0,0:0:0:0:
256,192,169670,1,8,0:0:0:0:
256,192,169745,1,8,0:0:0:0:
256,192,169820,1,8,0:0:0:0:
256,192,169970,1,0,0:0:0:0:
256,192,170045,1,8,0:0:0:0:
256,192,170195,1,8,0:0:0:0:
256,192,170270,1,0,0:0:0:0:
256,192,170420,1,8,0:0:0:0:
256,192,170570,1,8,0:0:0:0:
256,192,170720,1,0,0:0:0:0:
256,192,170870,1,0,0:0:0:0:
256,192,171020,1,8,0:0:0:0:
256,192,171095,1,8,0:0:0:0:
256,192,171170,1,0,0:0:0:0:
256,192,171245,1,0,0:0:0:0:
256,192,171320,1,8,0:0:0:0:
256,192,171470,1,0,0:0:0:0:
256,192,171620,1,8,0:0:0:0:
256,192,171695,1,0,0:0:0:0:
256,192,171770,1,8,0:0:0:0:
256,192,171845,1,8,0:0:0:0:
256,192,171920,1,0,0:0:0:0:
256,192,172070,1,0,0:0:0:0:
256,192,172220,1,8,0:0:0:0:
256,192,172370,1,0,0:0:0:0:
256,192,172445,1,0,0:0:0:0:
256,192,172595,1,8,0:0:0:0:
256,192,172670,1,0,0:0:0:0:
256,192,172820,1,8,0:0:0:0:
256,192,172970,1,8,0:0:0:0:
256,192,173120,1,0,0:0:0:0:
256,192,173270,1,0,0:0:0:0:
256,192,173345,1,0,0:0:0:0:
256,192,173420,1,8,0:0:0:0:
256,192,173570,1,0,0:0:0:0:
256,192,173645,1,0,0:0:0:0:
256,192,173795,1,8,0:0:0:0:
256,192,173870,1,0,0:0:0:0:
256,192,174020,1,8,0:0:0:0:
256,192,174170,1,0,0:0:0:0:
256,192,174320,1,0,0:0:0:0:
256,192,174470,1,8,0:0:0:0:
256,192,174545,1,8,0:0:0:0:
256,192,174620,1,8,0:0:0:0:
256,192,174770,1,0,0:0:0:0:
256,192,174845,1,8,0:0:0:0:
256,192,174995,1,8,0:0:0:0:
256,192,175070,1,0,0:0:0:0:
256,192,175220,1,0,0:0:0:0:
256,192,175370,1,8,0:0:0:0:
256,192,175520,2,4,L|400:192,12,140
256,192,176120,1,8,0:0:0:0:
256,192,176420,1,0,0:0:0:0:
256,192,176720,1,4,0:0:0:0:
256,192,176870,1,0,0:0:0:0:
256,192,176945,1,8,0:0:0:0:
256,192,176982,1,8,0:0:0:0:
256,192,177020,1,0,0:0:0:0:
256,192,177095,1,0,0:0:0:0:
256,192,177170,1,8,0:0:0:0:
256,192,177245,1,8,0:0:0:0:
256,192,177320,1,0,0:0:0:0:
256,192,177395,1,8,0:0:0:0:
256,192,177432,1,8,0:0:0:0:
256,192,177470,1,0,0:0:0:0:
256,192,177545,1,0,0:0:0:0:
256,192,177620,1,8,0:0:0:0:
256,192,177695,1,0,0:0:0:0:
256,192,177770,1,8,0:0:0:0:
256,192,177845,1,8,0:0:0:0:
256,192,177920,1,0,0:0:0:0:
256,192,178070,1,0,0:0:0:0:
256,192,178145,1,8,0:0:0:0:
256,192,178182,1,8,0:0:0:0:
256,192,178220,1,0,0:0:0:0:
256,192,178295,1,0,0:0:0:0:
256,192,178370,1,8,0:0:0:0:
256,192,178445,1,0,0:0:0:0:
256,192,178520,1,0,0:0:0:0:
256,192,178595,1,8,0:0:0:0:
256,192,178632,1,8,0:0:0:0:
256,192,178670,1,8,0:0:0:0:
256,192,178745,1,8,0:0:0:0:
256,192,178820,1,0,0:0:0:0:
256,192,178895,1,0,0:0:0:0:
256,192,178970,1,8,0:0:0:0:
256,192,179045,1,8,0:0:0:0:
256,192,179120,1,0,0:0:0:0:
256,192,179270,1,0,0:0:0:0:
256,192,179345,1,8,0:0:0:0:
256,192,179382,1,8,0:0:0:0:
256,192,179420,1,0,0:0:0:0:
256,192,179495,1,0,0:0:0:0:
256,192,179570,1,8,0:0:0:0:
256,192,179645,1,8,0:0:0:0:
256,192,179720,1,0,0:0:0:0:
256,192,179795,1,8,0:0:0:0:
256,192,179832,1,8,0:0:0:0:
256,192,179870,1,8,0:0:0:0:
256,192,179945,1,0,0:0:0:0:
256,192,180020,1,8,0:0:0:0:
256,192,180095,1,0,0:0:0:0:
256,192,180170,1,8,0:0:0:0:
256,192,180245,1,8,0:0:0:0:
256,192,180320,1,0,0:0:0:0:
256,192,180357,1,0,0:0:0:0:
256,192,180395,1,0,0:0:0:0:
256,192,180470,1,0,0:0:0:0:
256,192,180545,1,8,0:0:0:0:
256,192,180582,1,8,0:0:0:0:
256,192,180620,1,8,0:0:0:0:
256,192,180695,1,8,0:0:0:0:
256,192,180770,1,0,0:0:0:0:
256,192,180807,1,0,0:0:0:0:
256,192,180845,1,0,0:0:0:0:
256,192,180920,1,0,0:0:0:0:
256,192,180995,1,8,0:0:0:0:
256,192,181070,1,8,0:0:0:0:
256,192,181145,1,8,0:0:0:0:
256,192,181220,1,0,0:0:0:0:
256,192,181370,1,8,0:0:0:0:
256,192,181445,1,8,0:0:0:0:
256,192,181520,1,0,0:0:0:0:
256,192,181670,1,0,0:0:0:0:
256,192,181745,1,8,0:0:0:0:
256,192,181782,1,8,0:0:0:0:
256,192,181820,1,0,0:0:0:0:
256,192,181895,1,0,0:0:0:0:
256,192,181970,1,8,0:0:0:0:
256,192,182045,1,8,0:0:0:0:
256,192,182120,1,0,0:0:0:0:
256,192,182195,1,8,0:0:0:0:
256,192,182232,1,8,0:0:0:0:
256,192,182270,1,0,0:0:0:0:
256,192,182345,1,0,0:0:0:0:
256,192,182420,1,8,0:0:0:0:
256,192,182495,1,0,0:0:0:0:
256,192,182570,1,8,0:0:0:0:
256,192,182645,1,8,0:0:0:0:
256,192,182720,1,0,0:0:0:0:
256,192,182870,1,0,0:0:0:0:
256,192,182945,1,8,0:0:0:0:
256,192,182982,1,8,0:0:0:0:
256,192,183020,1,0,0:0:0:0:
256,192,183095,1,0,0:0:0:0:
256,192,183170,1,8,0:0:0:0:
256,192,183245,1,0,0:0:0:0:
256,192,183320,1,0,0:0:0:0:
256,192,183395,1,8,0:0:0:0:
256,192,183432,1,8,0:0:0:0:
256,192,183470,1,8,0:0:0:0:
256,192,183545,1,8,0:0:0:0:
256,192,183620,1,0,0:0:0:0:
256,192,183695,1,0,0:0:0:0:
256,192,183770,1,8,0:0:0:0:
256,192,183845,1,8,0:0:0:0:
256,192,183920,1,0,0:0:0:0:
256,192,184070,1,0,0:0:0:0:
256,192,184145,1,8,0:0:0:0:
256,192,184182,1,8,0:0:0:0:
256,192,184220,1,0,0:0:0:0:
256,192,184295,1,0,0:0:0:0:
256,192,184370,1,8,0:0:0:0:
256,192,184445,1,8,0:0:0:0:
256,192,184520,1,0,0:0:0:0:
256,192,184595,1,8,0:0:0:0:
256,192,184632,1,8,0:0:0:0:
256,192,184670,1,8,0:0:0:0:
256,192,184745,1,0,0:0:0:0:
256,192,184820,1,8,0:0:0:0:
256,192,184895,1,0,0:0:0:0:
256,192,184970,1,8,0:0:0:0:
256,192,185045,1,8,0:0:0:0:
256,192,185120,1,0,0:0:0:0:
256,192,185157,1,0,0:0:0:0:
256,192,185195,1,0,0:0:0:0:
256,192,185232,1,0,0:0:0:0:
256,192,185270,1,8,0:0:0:0:
256,192,185345,1,8,0:0:0:0:
256,192,185382,1,8,0:0:0:0:
256,192,185420,1,0,0:0:0:0:
256,192,185495,1,0,0:0:0:0:
256,192,185570,1,8,0:0:0:0:
256,192,185607,1,8,0:0:0:0:
256,192,185645,1,8,0:0:0:0:
256,192,185682,1,8,0:0:0:0:
256,192,185720,1,0,0:0:0:0:
256,192,185795,1,0,0:0:0:0:
256,192,185870,1,0,0:0:0:0:
256,192,185945,1,0,0:0:0:0:
256,192,186020,1,8,0:0:0:0:
256,192,186170,1,8,0:0:0:0:
256,192,186320,1,4,0:0:0:0:
256,192,186395,1,0,0:0:0:0:
256,192,186470,1,8,0:0:0:0:
256,192,186545,1,8,0:0:0:0:
256,192,186582,1,8,0:0:0:0:
256,192,186620,1,0,0:0:0:0:
256,192,186695,1,0,0:0:0:0:
256,192,186770,1,8,0:0:0:0:
256,192,186845,1,0,0:0:0:0:
256,192,186920,1,0,0:0:0:0:
256,192,186995,1,8,0:0:0:0:
256,192,187032,1,8,0:0:0:0:
256,192,187070,1,8,0:0:0:0:
256,192,187145,1,0,0:0:0:0:
256,192,187220,1,8,0:0:0:0:
256,192,187257,1,8,0:0:0:0:
256,192,187295,1,0,0:0:0:0:
256,192,187332,1,0,0:0:0:0:
256,192,187370,1,8,0:0:0:0:
256,192,187445,1,8,0:0:0:0:
256,192,187520,1,0,0:0:0:0:
256,192,187595,1,0,0:0:0:0:
256,192,187670,1,8,0:0:0:0:
256,192,187745,1,8,0:0:0:0:
256,192,187782,1,8,0:0:0:0:
256,192,187820,1,0,0:0:0:0:
256,192,187895,1,0,0:0:0:0:
256,192,187970,1,8,0:0:0:0:
256,192,188045,1,0,0:0:0:0:
256,192,188120,1,0,0:0:0:0:
256,192,188195,1,8,0:0:0:0:
256,192,188232,1,8,0:0:0:0:
256,192,188270,1,8,0:0:0:0:
256,192,188345,1,8,0:0:0:0:
256,192,188420,1,0,0:0:0:0:
256,192,188457,1,8,0:0:0:0:
256,192,188495,1,0,0:0:0:0:
256,192,188532,1,0,0:0:0:0:
256,192,188570,1,8,0:0:0:0:
256,192,188645,1,8,0:0:0:0:
256,192,188720,1,0,0:0:0:0:
256,192,188795,1,0,0:0:0:0:
256,192,188870,1,8,0:0:0:0:
256,192,188945,1,8,0:0:0:0:
256,192,188982,1,8,0:0:0:0:
256,192,189020,1,0,0:0:0:0:
256,192,189095,1,0,0:0:0:0:
256,192,189170,1,8,0:0:0:0:
256,192,189245,1,0,0:0:0:0:
256,192,189320,1,0,0:0:0:0:
256,192,189395,1,8,0:0:0:0:
256,192,189432,1,8,0:0:0:0:
256,192,189470,1,8,0:0:0:0:
256,192,189545,1,0,0:0:0:0:
256,192,189620,1,8,0:0:0:0:
256,192,189695,1,0,0:0:0:0:
256,192,189732,1,0,0:0:0:0:
256,192,189770,1,8,0:0:0:0:
256,192,189845,1,8,0:0:0:0:
256,192,189920,1,0,0:0:0:0:
256,192,189957,1,0,0:0:0:0:
256,192,189995,1,0,0:0:0:0:
256,192,190070,1,0,0:0:0:0:
256,192,190145,1,8,0:0:0:0:
256,192,190182,1,8,0:0:0:0:
256,192,190220,1,8,0:0:0:0:
256,192,190295,1,8,0:0:0:0:
256,192,190370,1,0,0:0:0:0:
256,192,190407,1,0,0:0:0:0:
256,192,190445,1,0,0:0:0:0:
256,192,190520,1,8,0:0:0:0:
256,192,190595,1,0,0:0:0:0:
256,192,190670,1,8,0:0:0:0:
256,192,190707,1,8,0:0:0:0:
256,192,190745,1,8,0:0:0:0:
256,192,190782,1,8,0:0:0:0:
256,192,190820,1,0,0:0:0:0:
256,192,190895,1,0,0:0:0:0:
256,192,190970,1,8,0:0:0:0:
256,192,191007,1,8,0:0:0:0:
256,192,191045,1,8,0:0:0:0:
256,192,191082,1,8,0:0:0:0:
256,192,191120,1,0,0:0:0:0:
256,192,191270,1,0,0:0:0:0:
256,192,191345,1,8,0:0:0:0:
256,192,191495,1,0,0:0:0:0:
256,192,191570,1,0,0:0:0:0:
256,192,191720,1,0,0:0:0:0:
256,192,191795,1,8,0:0:0:0:
256,192,191945,1,0,0:0:0:0:
256,192,192020,1,8,0:0:0:0:
256,192,192170,1,8,0:0:0:0:
256,192,192320,1,0,0:0:0:0:
256,192,192470,1,0,0:0:0:0:
256,192,192545,1,8,0:0:0:0:
256,192,192695,1,0,0:0:0:0:
256,192,192770,1,0,0:0:0:0:
256,192,192920,1,0,0:0:0:0:
256,192,192995,1,8,0:0:0:0:
256,192,193145,1,0,0:0:0:0:
256,192,193220,1,0,0:0:0:0:
256,192,193257,1,0,0:0:0:0:
256,192,193295,1,0,0:0:0:0:
256,192,193332,1,0,0:0:0:0:
256,192,193370,1,8,0:0:0:0:
256,192,193407,1,8,0:0:0:0:
256,192,193445,1,8,0:0:0:0:
256,192,193482,1,8,0:0:0:0:
256,192,193520,1,0,0:0:0:0:
256,192,193670,1,0,0:0:0:0:
256,192,193745,1,8,0:0:0:0:
256,192,193895,1,0,0:0:0:0:
256,192,193970,1,0,0:0:0:0:
256,192,194120,1,8,0:0:0:0:
256,192,194195,1,0,0:0:0:0:
256,192,194345,1,0,0:0:0:0:
256,192,194420,1,8,0:0:0:0:
256,192,194570,1,8,0:0:0:0:
256,192,194720,1,0,0:0:0:0:
256,192,194870,1,0,0:0:0:0:
256,192,194945,1,8,0:0:0:0:
256,192,195095,1,0,0:0:0:0:
256,192,195170,1,8,0:0:0:0:
256,192,195320,1,0,0:0:0:0:
256,192,195395,1,0,0:0:0:0:
256,192,195470,1,0,0:0:0:0:
256,192,195545,1,0,0:0:0:0:
256,192,195620,1,8,0:0:0:0:
256,192,195920,1,4,0:0:0:0:
256,192,195995,1,8,0:0:0:0:
256,192,196070,1,0,0:0:0:0:
256,192,196107,1,0,0:0:0:0:
256,192,196145,1,8,0:0:0:0:
256,192,196220,1,0,0:0:0:0:
256,192,196295,1,0,0:0:0:0:
256,192,196370,1,8,0:0:0:0:
256,192,196445,1,8,0:0:0:0:
256,192,196520,1,0,0:0:0:0:
256,192,196595,1,8,0:0:0:0:
256,192,196670,1,0,0:0:0:0:
256,192,196707,1,0,0:0:0:0:
256,192,196745,1,8,0:0:0:0:
256,192,196820,1,8,0:0:0:0:
256,192,196895,1,0,0:0:0:0:
256,192,196970,1,8,0:0:0:0:
256,192,197045,1,8,0:0:0:0:
256,192,197120,1,0,0:0:0:0:
256,192,197195,1,8,0:0:0:0:
256,192,197270,1,0,0:0:0:0:
256,192,197307,1,0,0:0:0:0:
256,192,197345,1,8,0:0:0:0:
256,192,197420,1,0,0:0:0:0:
256,192,197495,1,0,0:0:0:0:
256,192,197570,1,8,0:0:0:0:
256,192,197645,1,8,0:0:0:0:
256,192,197720,1,0,0:0:0:0:
256,192,197795,1,8,0:0:0:0:
256,192,197870,1,0,0:0:0:0:
256,192,197907,1,0,0:0:0:0:
256,192,197945,1,0,0:0:0:0:
256,192,197982,1,0,0:0:0:0:
256,192,198020,1,8,0:0:0:0:
256,192,198095,1,0,0:0:0:0:
256,192,198170,1,8,0:0:0:0:
256,192,198245,1,8,0:0:0:0:
256,192,198320,1,0,0:0:0:0:
256,192,198395,1,8,0:0:0:0:
256,192,198470,1,0,0:0:0:0:
256,192,198507,1,0,0:0:0:0:
256,192,198545,1,8,0:0:0:0:
256,192,198620,1,0,0:0:0:0:
256,192,198695,1,0,0:0:0:0:
256,192,198770,1,8,0:0:0:0:
256,192,198845,1,8,0:0:0:0:
256,192,198920,1,0,0:0:0:0:
256,192,198995,1,8,0:0:0:0:
256,192,199070,1,0,0:0:0:0:
256,192,199107,1,0,0:0:0:0:
256,192,199145,1,8,0:0:0:0:
256,192,199220,1,8,0:0:0:0:
256,192,199295,1,0,0:0:0:0:
256,192,199370,1,8,0:0:0:0:
256,192,199445,1,8,0:0:0:0:
256,192,199520,1,0,0:0:0:0:
256,192,199595,1,8,0:0:0:0:
256,192,199670,1,0,0:0:0:0:
256,192,199707,1,0,0:0:0:0:
256,192,199745,1,8,0:0:0:0:
256,192,199820,1,0,0:0:0:0:
256,192,199895,1,0,0:0:0:0:
256,192,199970,1,8,0:0:0:0:
256,192,200045,1,8,0:0:0:0:
256,192,200120,1,0,0:0:0:0:
256,192,200195,1,8,0:0:0:0:
256,192,200270,1,0,0:0:0:0:
256,192,200307,1,0,0:0:0:0:
256,192,200345,1,8,0:0:0:0:
256,192,200382,1,8,0:0:0:0:
256,192,200420,1,0,0:0:0:0:
256,192,200457,1,0,0:0:0:0:
256,192,200495,1,8,0:0:0:0:
256,192,200570,1,8,0:0:0:0:
256,192,200645,1,8,0:0:0:0:
256,192,200720,1,0,0:0:0:0:
256,192,200795,1,8,0:0:0:0:
256,192,200832,1,8,0:0:0:0:
256,192,200870,1,0,0:0:0:0:
256,192,200945,1,8,0:0:0:0:
256,192,201020,1,0,0:0:0:0:
256,192,201095,1,0,0:0:0:0:
256,192,201170,1,8,0:0:0:0:
256,192,201245,1,8,0:0:0:0:
256,192,201320,1,0,0:0:0:0:
256,192,201395,1,8,0:0:0:0:
256,192,201432,1,8,0:0:0:0:
256,192,201470,1,0,0:0:0:0:
256,192,201545,1,0,0:0:0:0:
256,192,201620,1,8,0:0:0:0:
256,192,201695,1,0,0:0:0:0:
256,192,201770,1,8,0:0:0:0:
256,192,201845,1,8,0:0:0:0:
256,192,201920,1,0,0:0:0:0:
256,192,201995,1,8,0:0:0:0:
256,192,202032,1,8,0:0:0:0:
256,192,202070,1,0,0:0:0:0:
256,192,202145,1,8,0:0:0:0:
256,192,202220,1,0,0:0:0:0:
256,192,202295,1,0,0:0:0:0:
256,192,202370,1,8,0:0:0:0:
256,192,202445,1,8,0:0:0:0:
256,192,202520,1,0,0:0:0:0:
256,192,202595,1,8,0:0:0:0:
256,192,202670,1,0,0:0:0:0:
256,192,202707,1,0,0:0:0:0:
256,192,202745,1,0,0:0:0:0:
256,192,202782,1,0,0:0:0:0:
256,192,202820,1,8,0:0:0:0:
256,192,202895,1,0,0:0:0:0:
256,192,202970,1,8,0:0:0:0:
256,192,203045,1,8,0:0:0:0:
256,192,203120,1,0,0:0:0:0:
256,192,203195,1,8,0:0:0:0:
256,192,203232,1,8,0:0:0:0:
256,192,203270,1,0,0:0:0:0:
256,192,203345,1,8,0:0:0:0:
256,192,203420,1,0,0:0:0:0:
256,192,203495,1,0,0:0:0:0:
256,192,203570,1,8,0:0:0:0:
256,192,203645,1,8,0:0:0:0:
256,192,203720,1,0,0:0:0:0:
256,192,203795,1,8,0:0:0:0:
256,192,203832,1,8,0:0:0:0:
256,192,203870,1,0,0:0:0:0:
256,192,203945,1,0,0:0:0:0:
256,192,204020,1,8,0:0:0:0:
256,192,204095,1,0,0:0:0:0:
256,192,204170,1,8,0:0:0:0:
256,192,204245,1,8,0:0:0:0:
256,192,204320,1,0,0:0:0:0:
256,192,204357,1,0,0:0:0:0:
256,192,204395,1,8,0:0:0:0:
256,192,204470,1,0,0:0:0:0:
256,192,204507,1,0,0:0:0:0:
256,192,204545,1,8,0:0:0:0:
256,192,204620,1,8,0:0:0:0:
256,192,204695,1,0,0:0:0:0:
256,192,204732,1,0,0:0:0:0:
256,192,204770,1,0,0:0:0:0:
256,192,204845,1,8,0:0:0:0:
256,192,204920,1,0,0:0:0:0:
256,192,204957,1,0,0:0:0:0:
256,192,204995,1,8,0:0:0:0:
256,192,205032,1,8,0:0:0:0:
256,192,205070,1,0,0:0:0:0:
256,192,205107,1,0,0:0:0:0:
256,192,205145,1,8,0:0:0:0:
256,192,205220,1,8,0:0:0:0:
256,192,205295,1,0,0:0:0:0:
256,192,205370,1,8,0:0:0:0:
256,192,205445,1,8,0:0:0:0:
256,192,205520,1,4,0:0:0:0:
256,192,205820,1,8,0:0:0:0:
256,192,206120,1,0,0:0:0:0:
256,192,206420,1,8,0:0:0:0:
256,192,206720,1,0,0:0:0:0:
256,192,207020,1,8,0:0:0:0:
256,192,207320,1,0,0:0:0:0:
256,192,207470,1,0,0:0:0:0:
256,192,207620,1,8,0:0:0:0:
256,192,207695,1,8,0:0:0:0:
256,192,207845,1,8,0:0:0:0:
256,192,207920,1,0,0:0:0:0:
256,192,208220,1,8,0:0:0:0:
256,192,208520,1,0,0:0:0:0:
256,192,208820,1,8,0:0:0:0:
256,192,209120,1,0,0:0:0:0:
256,192,209420,1,8,0:0:0:0:
256,192,209570,1,8,0:0:0:0:
256,192,209720,1,0,0:0:0:0:
256,192,209795,1,0,0:0:0:0:
256,192,209870,1,0,0:0:0:0:
256,192,209945,1,0,0:0:0:0:
256,192,210020,1,8,0:0:0:0:
256,192,210057,1,8,0:0:0:0:
256,192,210095,1,8,0:0:0:0:
256,192,210132,1,8,0:0:0:0:
256,192,210170,1,8,0:0:0:0:
256,192,210207,1,8,0:0:0:0:
256,192,210245,1,8,0:0:0:0:
256,192,210282,1,8,0:0:0:0:
256,192,210320,1,0,0:0:0:0:
256,192,210395,12,0,213845,0:0:0:0:
256,192,213920,5,0,0:0:0:0:
256,192,213995,1,8,0:0:0:0:
256,192,214070,1,0,0:0:0:0:
256,192,214145,1,8,0:0:0:0:
256,192,214220,1,0,0:0:0:0:
256,192,214295,1,8,0:0:0:0:
256,192,214370,1,0,0:0:0:0:
256,192,214445,1,8,0:0:0:0:
256,192,214520,1,0,0:0:0:0:
256,192,214595,1,8,0:0:0:0:
256,192,214670,1,0,0:0:0:0:
256,192,214745,1,8,0:0:0:0:
256,192,214820,1,0,0:0:0:0:
256,192,215120,1,4,0:0:0:0:
