osu file format v14

[General]
AudioFilename: audio.mp3
AudioLeadIn: 0
PreviewTime: 25460
Countdown: 0
SampleSet: Soft
StackLeniency: 0.7
Mode: 3
LetterboxInBreaks: 0
SpecialStyle: 0
WidescreenStoryboard: 0

[Editor]
DistanceSpacing: 0.6
BeatDivisor: 2
GridSize: 16
TimelineZoom: 1.3

[Metadata]
Title:Ghost Family Living In Graveyard
TitleUnicode:Ghost Family Living In Graveyard
Artist:RoughSketch
ArtistUnicode:RoughSketch
Creator:eon
Version:Hard
Source:SOUND VOLTEX VIVID WAVE
Tags:electronic video game instrumental sdvx hardcore ΩDimension Omega Dimension 7 FAMoss
BeatmapID:2130090
BeatmapSetID:1017769

[Difficulty]
HPDrainRate:7.5
CircleSize:4
OverallDifficulty:7.6
ApproachRate:5
SliderMultiplier:1.4
SliderTickRate:1

[Events]
//Background and Video events
0,0,"bg.jpg",0,0
//Break Periods
//Storyboard Layer 0 (Background)
//Storyboard Layer 1 (Fail)
//Storyboard Layer 2 (Pass)
//Storyboard Layer 3 (Foreground)
//Storyboard Layer 4 (Overlay)
//Storyboard Sound Samples

[TimingPoints]
1259,252.100840336134,4,2,1,40,1,0
25460,-100,4,2,1,40,0,1
41595,-100,4,2,1,40,0,0
112183,-100,4,2,1,40,0,1
128317,-100,4,2,1,40,0,0

[HitObjects]
64,192,1259,5,4,0:0:0:0:
448,192,1259,1,0,0:0:0:0:
320,192,1511,1,0,0:0:0:0:
192,192,1763,1,0,0:0:0:70:LR_Snare Drum 3.wav
64,192,2015,1,0,0:0:0:70:LR_Snare Drum 2.wav
448,192,2267,1,0,0:0:0:0:
320,192,3023,1,0,0:0:0:0:
192,192,3275,1,0,0:0:0:70:LR_Snare Drum 2.wav
64,192,4284,1,0,0:0:0:0:
320,192,5292,1,0,0:0:0:70:LR_Snare Drum 2.wav
192,192,5544,1,0,0:0:0:70:LR_Snare Drum 2.wav
320,192,5796,1,0,0:0:0:70:LR_Snare Drum 3.wav
64,192,6048,1,0,0:0:0:70:LR_Snare Drum 2.wav
448,192,6301,1,0,0:0:0:0:
320,192,6805,1,0,0:0:0:70:LR_Snare Drum 3.wav
448,192,7057,1,0,0:0:0:70:LR_Snare Drum 3.wav
192,192,7309,1,0,0:0:0:70:LR_Snare Drum 2.wav
64,192,8317,1,0,0:0:0:0:
448,192,9326,1,8,0:0:0:0:
320,192,9326,1,4,0:0:0:0:
192,192,9578,1,8,0:0:0:0:
64,192,9830,1,8,0:0:0:0:
448,192,9830,1,0,0:0:0:0:
320,192,10082,1,8,0:0:0:0:
192,192,10334,1,8,0:0:0:0:
64,192,10334,1,0,0:0:0:0:
320,192,10586,1,8,0:0:0:0:
448,192,10838,1,8,0:0:0:0:
64,192,10838,1,0,0:0:0:0:
320,192,11090,1,8,0:0:0:0:
192,192,11216,1,8,0:0:0:0:
64,192,11343,1,8,0:0:0:0:
448,192,11343,1,0,0:0:0:0:
320,192,11595,1,8,0:0:0:0:
192,192,11847,1,8,0:0:0:0:
64,192,11847,1,0,0:0:0:0:
320,192,12099,1,8,0:0:0:0:
448,192,12351,1,8,0:0:0:0:
64,192,12351,1,0,0:0:0:0:
192,192,12603,1,8,0:0:0:0:
448,192,12855,1,8,0:0:0:0:
320,192,12918,1,8,0:0:0:0:
192,192,12981,1,8,0:0:0:0:
64,192,13107,1,8,0:0:0:0:
320,192,13233,1,8,0:0:0:0:
64,192,13359,1,8,0:0:0:0:
192,192,13422,1,8,0:0:0:0:
320,192,13485,1,8,0:0:0:0:
448,192,13611,1,8,0:0:0:0:
192,192,13737,1,8,0:0:0:0:
64,192,13864,1,8,0:0:0:0:
448,192,13990,1,8,0:0:0:0:
320,192,14116,1,8,0:0:0:0:
64,192,14242,1,8,0:0:0:0:
448,192,14368,1,8,0:0:0:0:
320,192,14431,1,8,0:0:0:0:
192,192,14494,1,8,0:0:0:0:
64,192,14620,1,8,0:0:0:0:
320,192,14746,1,8,0:0:0:0:
192,192,14872,1,8,0:0:0:0:
320,192,14935,1,8,0:0:0:0:
448,192,14998,1,8,0:0:0:0:
64,192,15124,1,8,0:0:0:0:
192,192,15250,1,8,0:0:0:0:
448,192,15376,1,8,0:0:0:0:
320,192,15439,1,8,0:0:0:0:
192,192,15502,1,8,0:0:0:0:
64,192,15565,1,8,0:0:0:0:
448,192,15628,1,8,0:0:0:0:
320,192,15691,1,8,0:0:0:0:
192,192,15754,1,8,0:0:0:0:
64,192,15817,1,8,0:0:0:0:
448,192,15880,1,8,0:0:0:0:
320,192,16006,1,8,0:0:0:0:
192,192,16132,1,8,0:0:0:0:
64,192,16258,1,8,0:0:0:0:
192,192,17393,1,2,0:0:0:0:
64,192,17393,1,4,0:0:0:0:
448,192,17645,128,0,17897:0:0:0:0:
192,192,17897,128,0,18149:0:0:0:0:
448,192,18149,128,0,18401:0:0:0:0:
64,192,18401,128,0,18653:0:0:0:0:
320,192,18653,128,0,18906:0:0:0:0:
64,192,18906,128,0,19158:0:0:0:0:
320,192,19158,128,0,19410:0:0:0:0:
192,192,19410,128,0,19662:0:0:0:0:
448,192,19662,128,0,19914:0:0:0:0:
192,192,19914,128,0,20166:0:0:0:0:
448,192,20166,128,0,20418:0:0:0:0:
64,192,20418,128,0,21427:0:0:0:0:
192,192,20670,128,0,21427:0:0:0:0:
448,192,21427,1,4,0:0:0:0:
320,192,21427,1,8,0:0:0:0:
320,192,21679,1,8,0:0:0:0:
192,192,21679,1,0,0:0:0:0:
448,192,21931,1,8,0:0:0:0:
64,192,21931,1,0,0:0:0:0:
320,192,22183,1,8,0:0:0:0:
448,192,22183,1,0,0:0:0:0:
320,192,22435,1,8,0:0:0:0:
192,192,22435,1,0,0:0:0:0:
192,192,22687,1,8,0:0:0:0:
64,192,22687,1,0,0:0:0:0:
448,192,22939,1,8,0:0:0:0:
320,192,23002,1,8,0:0:0:0:
192,192,23065,1,8,0:0:0:0:
64,192,23191,1,8,0:0:0:0:
448,192,23191,1,0,0:0:0:0:
320,192,23317,1,8,0:0:0:0:
192,192,23317,1,0,0:0:0:0:
448,192,23443,1,8,0:0:0:0:
320,192,23506,1,8,0:0:0:0:
192,192,23569,1,8,0:0:0:0:
64,192,23695,1,8,0:0:0:0:
448,192,23695,1,0,0:0:0:0:
320,192,23822,1,8,0:0:0:0:
64,192,23948,1,8,0:0:0:0:
192,192,23948,1,0,0:0:0:0:
448,192,24074,1,8,0:0:0:0:
192,192,24200,1,8,0:0:0:0:
320,192,24200,1,0,0:0:0:0:
64,192,24326,1,8,0:0:0:0:
448,192,24704,1,0,0:0:0:70:LR_Snare Drum 3.wav
320,192,24767,1,0,0:0:0:70:LR_Snare Drum.wav
192,192,24956,1,0,0:0:0:70:LR_Snare Drum 2.wav
320,192,25082,1,0,0:0:0:70:tom02.wav
192,192,25208,1,0,0:0:0:70:LR4_SnareBPDT.wav
64,192,25208,1,0,0:0:0:0:
320,192,25334,1,0,0:0:0:70:LR4_SnareBPDT.wav
448,192,25334,1,0,0:0:0:0:
192,192,25460,1,0,0:0:0:50:K.wav
64,192,25460,1,4,0:0:0:0:
192,192,25712,1,0,0:0:0:50:K.wav
64,192,25712,1,0,0:0:0:0:
192,192,25964,1,0,0:0:0:50:K.wav
64,192,25964,1,0,0:0:0:0:
192,192,26216,1,0,0:0:0:50:K.wav
64,192,26216,1,0,0:0:0:0:
320,192,26406,1,0,0:0:0:50:K.wav
64,192,26469,1,0,0:0:0:50:K.wav
448,192,26469,1,0,0:0:0:0:
448,192,26721,1,0,0:0:0:50:K.wav
64,192,26721,1,0,0:0:0:0:
448,192,26973,1,0,0:0:0:50:K.wav
64,192,26973,1,0,0:0:0:0:
448,192,27225,1,0,0:0:0:50:K.wav
64,192,27225,1,0,0:0:0:0:
192,192,27351,1,0,0:0:0:50:K.wav
320,192,27477,1,0,0:0:0:50:K.wav
448,192,27477,1,0,0:0:0:0:
320,192,27729,1,0,0:0:0:50:K.wav
448,192,27729,1,0,0:0:0:0:
320,192,27981,1,0,0:0:0:50:K.wav
448,192,27981,1,0,0:0:0:0:
64,192,28107,1,0,0:0:0:50:K.wav
192,192,28107,1,0,0:0:0:0:
320,192,28233,1,0,0:0:0:50:K.wav
448,192,28233,1,0,0:0:0:0:
192,192,28485,1,0,0:0:0:50:K.wav
64,192,28485,1,0,0:0:0:0:
320,192,28611,1,0,0:0:0:50:K.wav
448,192,28737,1,0,0:0:0:50:K.wav
64,192,28737,1,0,0:0:0:0:
320,192,28990,1,0,0:0:0:50:K.wav
192,192,28990,1,0,0:0:0:0:
64,192,29116,1,0,0:0:0:50:K.wav
448,192,29116,1,0,0:0:0:0:
64,192,29368,1,0,0:0:0:50:K.wav
320,192,29368,1,0,0:0:0:0:
192,192,29494,1,0,0:0:0:50:K.wav
448,192,29494,1,4,0:0:0:0:
320,192,29746,1,0,0:0:0:50:K.wav
448,192,29746,1,0,0:0:0:0:
320,192,29998,1,0,0:0:0:50:K.wav
192,192,29998,1,0,0:0:0:0:
64,192,30250,1,0,0:0:0:50:K.wav
192,192,30250,1,0,0:0:0:0:
320,192,30376,1,0,0:0:0:50:K.wav
448,192,30502,1,0,0:0:0:50:K.wav
64,192,30502,1,0,0:0:0:0:
192,192,30628,1,0,0:0:0:50:K.wav
320,192,30754,1,0,0:0:0:50:K.wav
448,192,30754,1,0,0:0:0:0:
64,192,30880,1,0,0:0:0:50:K.wav
192,192,31006,1,0,0:0:0:70:Bassdrop.wav
320,192,31006,128,0,31511:0:0:0:50:K.wav
64,192,31511,1,0,0:0:0:50:K.wav
448,192,31511,1,4,0:0:0:0:
320,192,31763,1,0,0:0:0:50:K.wav
192,192,31763,1,0,0:0:0:0:
64,192,32015,1,0,0:0:0:50:K.wav
192,192,32015,1,0,0:0:0:0:
320,192,32141,1,0,0:0:0:50:K.wav
448,192,32267,1,0,0:0:0:50:K.wav
64,192,32267,1,0,0:0:0:0:
192,192,32393,1,0,0:0:0:50:K.wav
320,192,32519,1,0,0:0:0:50:K.wav
448,192,32519,1,0,0:0:0:0:
64,192,32771,1,0,0:0:0:70:LR_Snare Drum 3.wav
192,192,32897,1,0,0:0:0:0:
320,192,33023,1,0,0:0:0:70:LR_Snare Drum 2.wav
448,192,33149,1,0,0:0:0:70:tom02.wav
192,192,33275,1,0,0:0:0:70:LR4_SnareBPDT.wav
64,192,33275,1,0,0:0:0:0:
320,192,33401,1,0,0:0:0:70:LR4_SnareBPDT.wav
448,192,33401,1,0,0:0:0:0:
192,192,33527,1,0,0:0:0:50:K.wav
64,192,33527,1,4,0:0:0:0:
448,192,33780,1,0,0:0:0:50:K.wav
64,192,33780,1,0,0:0:0:0:
320,192,34032,1,0,0:0:0:50:K.wav
192,192,34032,1,0,0:0:0:0:
320,192,34284,1,0,0:0:0:50:K.wav
448,192,34284,1,0,0:0:0:0:
64,192,34536,1,0,0:0:0:50:K.wav
448,192,34536,1,0,0:0:0:0:
320,192,34788,1,0,0:0:0:50:K.wav
192,192,34788,1,0,0:0:0:0:
192,192,35040,1,0,0:0:0:50:K.wav
64,192,35040,1,0,0:0:0:0:
320,192,35292,1,0,0:0:0:50:K.wav
448,192,35292,1,0,0:0:0:0:
192,192,35418,1,0,0:0:0:50:K.wav
64,192,35544,1,0,0:0:0:50:K.wav
448,192,35544,1,0,0:0:0:0:
320,192,35796,1,0,0:0:0:50:K.wav
192,192,35796,1,0,0:0:0:0:
320,192,36048,1,0,0:0:0:50:K.wav
448,192,36048,1,0,0:0:0:0:
192,192,36301,1,0,0:0:0:50:K.wav
64,192,36301,1,0,0:0:0:0:
448,192,36553,1,0,0:0:0:50:K.wav
320,192,36553,1,0,0:0:0:0:
64,192,36679,1,0,0:0:0:50:K.wav
192,192,36805,1,0,0:0:0:50:K.wav
320,192,36805,1,0,0:0:0:0:
64,192,37057,1,0,0:0:0:50:K.wav
448,192,37057,1,0,0:0:0:0:
192,192,37183,1,0,0:0:0:50:K.wav
320,192,37309,1,0,0:0:0:50:K.wav
448,192,37309,1,0,0:0:0:0:
320,192,37561,1,0,0:0:0:50:K.wav
192,192,37561,1,4,0:0:0:0:
192,192,37813,1,0,0:0:0:50:K.wav
64,192,37813,1,0,0:0:0:0:
448,192,38065,1,0,0:0:0:50:K.wav
64,192,38065,1,0,0:0:0:0:
192,192,38317,1,0,0:0:0:50:K.wav
448,192,38317,1,0,0:0:0:0:
320,192,38443,1,0,0:0:0:50:K.wav
64,192,38569,1,0,0:0:0:50:K.wav
192,192,38569,1,0,0:0:0:0:
448,192,38822,1,0,0:0:0:50:K.wav
320,192,38822,1,0,0:0:0:0:
64,192,39074,1,0,0:0:0:50:K.wav
192,192,39074,1,0,0:0:0:0:
448,192,39200,1,0,0:0:0:50:K.wav
192,192,39326,1,0,0:0:0:50:K.wav
320,192,39326,1,0,0:0:0:0:
64,192,39452,1,0,0:0:0:50:K.wav
320,192,39578,1,0,0:0:0:50:K.wav
448,192,39578,1,4,0:0:0:0:
192,192,39830,1,0,0:0:0:50:K.wav
64,192,39830,1,4,0:0:0:0:
320,192,39956,1,0,0:0:0:50:K.wav
448,192,39956,1,4,0:0:0:0:
448,192,40208,1,0,0:0:0:50:K.wav
64,192,40208,1,4,0:0:0:0:
192,192,40334,1,0,0:0:0:50:K.wav
320,192,40334,1,4,0:0:0:0:
64,192,40460,1,0,0:0:0:50:K.wav
448,192,40460,1,4,0:0:0:0:
64,192,40712,1,0,0:0:0:50:K.wav
192,192,40712,1,4,0:0:0:0:
320,192,40838,1,0,0:0:0:50:K.wav
448,192,40838,1,0,0:0:0:70:Bassdrop.wav
64,192,41090,1,2,0:0:0:0:
192,192,41090,1,0,0:0:0:0:
320,192,41216,1,2,0:0:0:0:
448,192,41343,1,2,0:0:0:0:
64,192,41343,1,0,0:0:0:0:
320,192,41595,1,0,0:0:0:50:K.wav
448,192,41595,1,4,0:0:0:0:
64,192,43611,1,2,0:0:0:0:
448,192,43611,1,0,0:0:0:0:
192,192,43737,1,2,0:0:0:0:
448,192,43864,1,2,0:0:0:0:
320,192,43990,1,2,0:0:0:0:
192,192,44116,1,2,0:0:0:0:
64,192,44116,1,0,0:0:0:0:
448,192,44242,1,2,0:0:0:0:
192,192,44368,1,2,0:0:0:0:
448,192,44494,1,2,0:0:0:0:
320,192,44620,1,0,0:0:0:70:LR_Snare Drum 2.wav
192,192,44683,1,0,0:0:0:70:LR_Snare Drum 2.wav
64,192,44746,1,0,0:0:0:70:tom03.wav
320,192,44872,1,0,0:0:0:70:LR_Snare Drum 2.wav
192,192,44935,1,0,0:0:0:70:LR_Snare Drum 2.wav
64,192,44998,1,0,0:0:0:0:
448,192,45124,1,0,0:0:0:70:LR_Snare Drum 3.wav
320,192,45250,1,2,0:0:0:0:
192,192,45376,1,0,0:0:0:70:LR4_SnareBPDT.wav
64,192,45376,1,0,0:0:0:0:
320,192,45628,1,2,0:0:0:0:
448,192,45628,1,4,0:0:0:0:
192,192,45880,1,8,0:0:0:0:
320,192,45880,1,0,0:0:0:0:
64,192,46258,1,2,0:0:0:0:
192,192,46258,1,0,0:0:0:0:
320,192,46385,1,8,0:0:0:0:
448,192,46385,1,0,0:0:0:0:
192,192,46637,1,2,0:0:0:0:
320,192,46637,1,0,0:0:0:0:
192,192,46889,1,8,0:0:0:0:
64,192,46889,1,0,0:0:0:0:
448,192,47267,1,2,0:0:0:0:
320,192,47267,1,0,0:0:0:0:
192,192,47393,1,0,0:0:0:70:LR3_GrowlFFGBF.wav
64,192,47393,1,8,0:0:0:0:
320,192,47645,1,2,0:0:0:0:
192,192,47645,1,4,0:0:0:0:
448,192,47897,1,8,0:0:0:0:
64,192,47897,1,0,0:0:0:0:
192,192,48275,1,2,0:0:0:0:
448,192,48275,1,0,0:0:0:0:
64,192,48401,1,8,0:0:0:0:
320,192,48401,1,0,0:0:0:0:
192,192,48653,1,2,0:0:0:0:
64,192,48653,1,0,0:0:0:0:
320,192,48906,1,8,0:0:0:0:
448,192,48906,1,0,0:0:0:0:
192,192,49032,1,2,0:0:0:0:
64,192,49158,1,8,0:0:0:0:
448,192,49158,1,0,0:0:0:0:
320,192,49284,1,2,0:0:0:0:
192,192,49410,1,0,0:0:0:70:LR4_SnareBPDT.wav
64,192,49410,1,0,0:0:0:70:LR3_GrowlFFGBF.wav
320,192,49536,1,0,0:0:0:70:LR4_SnareBPDT.wav
448,192,49536,1,0,0:0:0:0:
192,192,49662,1,2,0:0:0:0:
64,192,49662,1,4,0:0:0:0:
320,192,49914,1,0,0:0:0:70:S.wav
192,192,49914,1,0,0:0:0:0:
64,192,50292,1,2,0:0:0:0:
448,192,50292,1,0,0:0:0:0:
320,192,50418,1,0,0:0:0:70:S.wav
192,192,50418,1,0,0:0:0:0:
320,192,50670,1,2,0:0:0:0:
448,192,50670,1,0,0:0:0:0:
192,192,50922,1,0,0:0:0:70:S.wav
64,192,50922,1,0,0:0:0:0:
448,192,51174,1,0,0:0:0:0:
320,192,51237,1,0,0:0:0:70:S.wav
192,192,51301,1,2,0:0:0:0:
64,192,51427,1,0,0:0:0:70:S.wav
448,192,51427,1,0,0:0:0:0:
192,192,51679,1,4,0:0:0:0:
64,192,51679,1,2,0:0:0:0:
320,192,51931,1,0,0:0:0:70:S.wav
448,192,51931,1,0,0:0:0:0:
192,192,52309,1,2,0:0:0:0:
320,192,52309,1,0,0:0:0:0:
64,192,52435,1,0,0:0:0:70:S.wav
448,192,52435,1,0,0:0:0:0:
192,192,52687,1,2,0:0:0:0:
64,192,52687,1,0,0:0:0:0:
320,192,52939,1,0,0:0:0:70:S.wav
448,192,52939,1,0,0:0:0:0:
192,192,53065,1,2,0:0:0:0:
64,192,53065,1,0,0:0:0:0:
448,192,53191,1,0,0:0:0:0:
320,192,53254,1,0,0:0:0:70:S.wav
192,192,53317,1,2,0:0:0:0:
64,192,53443,1,0,0:0:0:70:S.wav
448,192,53443,1,0,0:0:0:0:
320,192,53569,1,0,0:0:0:70:S.wav
192,192,53569,1,0,0:0:0:0:
64,192,53695,1,2,0:0:0:0:
448,192,53695,1,4,0:0:0:0:
320,192,53948,1,8,0:0:0:0:
192,192,53948,1,0,0:0:0:0:
320,192,54326,1,2,0:0:0:0:
448,192,54326,1,0,0:0:0:0:
192,192,54452,1,8,0:0:0:0:
64,192,54452,1,0,0:0:0:0:
320,192,54704,1,2,0:0:0:0:
64,192,54704,1,0,0:0:0:0:
192,192,54956,1,8,0:0:0:0:
448,192,54956,1,0,0:0:0:0:
320,192,55334,1,2,0:0:0:0:
448,192,55334,1,0,0:0:0:0:
192,192,55460,1,8,0:0:0:0:
64,192,55460,1,0,0:0:0:70:LR3_GrowlFFGBF.wav
320,192,55712,1,2,0:0:0:0:
64,192,55712,1,4,0:0:0:0:
448,192,55964,1,8,0:0:0:0:
192,192,55964,1,0,0:0:0:0:
448,192,56343,1,2,0:0:0:0:
64,192,56343,1,0,0:0:0:0:
192,192,56469,1,8,0:0:0:0:
320,192,56469,1,0,0:0:0:0:
64,192,56721,1,2,0:0:0:0:
192,192,56721,1,0,0:0:0:0:
448,192,56973,1,0,0:0:0:0:
320,192,56973,1,8,0:0:0:0:
192,192,57099,1,2,0:0:0:0:
64,192,57225,1,8,0:0:0:0:
448,192,57225,1,0,0:0:0:0:
320,192,57351,1,2,0:0:0:0:
192,192,57477,1,0,0:0:0:70:LR4_SnareBPDT.wav
64,192,57477,1,0,0:0:0:70:LR3_GrowlFFGBF.wav
320,192,57729,1,2,0:0:0:0:
448,192,57729,1,4,0:0:0:0:
64,192,57981,1,0,0:0:0:70:S.wav
448,192,57981,1,0,0:0:0:0:
320,192,58359,1,2,0:0:0:0:
64,192,58359,1,0,0:0:0:0:
192,192,58485,1,0,0:0:0:70:S.wav
448,192,58485,1,0,0:0:0:0:
320,192,58737,1,2,0:0:0:0:
448,192,58737,1,0,0:0:0:0:
192,192,58990,1,0,0:0:0:70:S.wav
64,192,58990,1,0,0:0:0:0:
320,192,59242,1,0,0:0:0:0:
192,192,59305,1,0,0:0:0:70:S.wav
64,192,59368,1,2,0:0:0:0:
448,192,59494,1,0,0:0:0:70:S.wav
320,192,59494,1,0,0:0:0:0:
192,192,59746,1,4,0:0:0:0:
448,192,59746,1,2,0:0:0:0:
320,192,59998,1,0,0:0:0:70:S.wav
192,192,60124,1,2,0:0:0:0:
64,192,60124,1,4,0:0:0:0:
320,192,60250,1,0,0:0:0:70:S.wav
64,192,60376,1,4,0:0:0:0:
448,192,60376,1,2,0:0:0:0:
320,192,60628,1,2,0:0:0:0:
448,192,60628,1,4,0:0:0:0:
192,192,60880,1,0,0:0:0:70:S.wav
64,192,60880,1,0,0:0:0:0:
320,192,61006,1,0,0:0:0:70:S.wav
448,192,61006,1,0,0:0:0:0:
192,192,61132,1,0,0:0:0:70:S.wav
64,192,61132,1,0,0:0:0:0:
320,192,61258,1,0,0:0:0:70:S.wav
448,192,61258,1,0,0:0:0:0:
64,192,61322,1,0,0:0:0:70:S.wav
192,192,61385,1,0,0:0:0:70:S.wav
320,192,61448,1,0,0:0:0:70:S.wav
448,192,61511,1,8,0:0:0:0:
192,192,61763,1,2,0:0:0:0:
64,192,61763,1,0,0:0:0:0:
320,192,63780,1,0,0:0:0:0:
448,192,63780,1,0,0:0:0:0:
64,192,64032,1,0,0:0:0:0:
192,192,64284,1,0,0:0:0:0:
448,192,64536,1,0,0:0:0:0:
64,192,64536,1,0,0:0:0:0:
320,192,64788,1,0,0:0:0:0:
192,192,65040,1,0,0:0:0:0:
64,192,65292,1,0,0:0:0:0:
448,192,65292,1,0,0:0:0:0:
192,192,65544,1,0,0:0:0:0:
320,192,65796,1,0,0:0:0:0:
192,192,66048,1,0,0:0:0:0:
64,192,66048,1,0,0:0:0:0:
448,192,66301,1,0,0:0:0:0:
64,192,66553,1,0,0:0:0:0:
320,192,66805,1,0,0:0:0:0:
448,192,66805,1,0,0:0:0:0:
192,192,67057,1,0,0:0:0:0:
320,192,67309,1,0,0:0:0:0:
64,192,67561,1,0,0:0:0:0:
448,192,67561,1,0,0:0:0:0:
320,192,67813,1,0,0:0:0:0:
192,192,68065,1,0,0:0:0:0:
64,192,68317,1,0,0:0:0:0:
448,192,68317,1,0,0:0:0:0:
320,192,68569,1,0,0:0:0:0:
64,192,68822,1,0,0:0:0:0:
192,192,69074,1,0,0:0:0:0:
448,192,69074,1,0,0:0:0:0:
320,192,69326,1,0,0:0:0:0:
64,192,69578,1,0,0:0:0:0:
320,192,69830,1,0,0:0:0:0:
448,192,69830,1,0,0:0:0:0:
64,192,70082,1,0,0:0:0:0:
448,192,70334,1,0,0:0:0:0:
192,192,70586,1,0,0:0:0:0:
320,192,70586,1,0,0:0:0:0:
64,192,70838,1,0,0:0:0:0:
320,192,71090,1,0,0:0:0:0:
448,192,71343,1,0,0:0:0:0:
64,192,71343,1,0,0:0:0:0:
320,192,71595,1,0,0:0:0:0:
192,192,71847,1,0,0:0:0:0:
320,192,72099,1,0,0:0:0:0:
448,192,72099,1,0,0:0:0:0:
64,192,72351,1,0,0:0:0:0:
192,192,72603,1,0,0:0:0:0:
448,192,72855,1,0,0:0:0:0:
64,192,72855,1,0,0:0:0:0:
320,192,73107,1,0,0:0:0:0:
192,192,73359,1,0,0:0:0:0:
320,192,73611,1,0,0:0:0:0:
448,192,73611,1,0,0:0:0:0:
64,192,73864,1,0,0:0:0:0:
320,192,74116,1,0,0:0:0:0:
192,192,74368,1,0,0:0:0:0:
64,192,74368,1,0,0:0:0:0:
448,192,74620,1,0,0:0:0:0:
320,192,74872,1,0,0:0:0:0:
64,192,75124,1,0,0:0:0:0:
448,192,75124,1,0,0:0:0:0:
192,192,75376,1,0,0:0:0:0:
320,192,75628,1,0,0:0:0:0:
448,192,75880,1,0,0:0:0:0:
64,192,75880,1,0,0:0:0:0:
192,192,76132,1,0,0:0:0:0:
320,192,76385,1,0,0:0:0:0:
448,192,76637,1,0,0:0:0:0:
64,192,76637,1,0,0:0:0:0:
320,192,76889,1,0,0:0:0:0:
192,192,77141,1,0,0:0:0:0:
64,192,77393,1,0,0:0:0:0:
448,192,77393,1,0,0:0:0:0:
192,192,77645,1,0,0:0:0:0:
320,192,77897,1,0,0:0:0:0:
448,192,78149,1,0,0:0:0:0:
64,192,78149,1,0,0:0:0:0:
448,192,79914,1,0,0:0:0:0:
320,192,79998,1,0,0:0:0:0:
192,192,80082,1,0,0:0:0:0:
64,192,80166,1,0,0:0:0:0:
320,192,80418,1,0,0:0:0:0:
448,192,80670,1,0,0:0:0:0:
64,192,80838,1,0,0:0:0:0:
192,192,80922,1,0,0:0:0:0:
448,192,81006,1,0,0:0:0:0:
320,192,81090,1,0,0:0:0:0:
192,192,81174,1,0,0:0:0:0:
320,192,81427,1,0,0:0:0:0:
192,192,81511,1,0,0:0:0:0:
448,192,81595,1,0,0:0:0:0:
320,192,81679,1,0,0:0:0:0:
448,192,81931,1,0,0:0:0:0:
320,192,82015,1,0,0:0:0:0:
192,192,82099,1,0,0:0:0:0:
64,192,82183,1,0,0:0:0:0:
320,192,82435,1,0,0:0:0:0:
192,192,82687,1,0,0:0:0:0:
448,192,82855,1,0,0:0:0:0:
320,192,82939,1,0,0:0:0:0:
64,192,83023,1,0,0:0:0:0:
192,192,83107,1,0,0:0:0:0:
320,192,83191,1,0,0:0:0:0:
192,192,83443,1,0,0:0:0:0:
64,192,83527,1,0,0:0:0:0:
448,192,83611,1,0,0:0:0:0:
320,192,83695,1,0,0:0:0:0:
192,192,83948,1,0,0:0:0:0:
320,192,84032,1,0,0:0:0:0:
64,192,84116,1,0,0:0:0:0:
192,192,84200,1,0,0:0:0:0:
448,192,84452,1,0,0:0:0:0:
320,192,84704,1,0,0:0:0:0:
192,192,84872,1,0,0:0:0:0:
64,192,84956,1,0,0:0:0:0:
448,192,85040,1,0,0:0:0:0:
320,192,85124,1,0,0:0:0:0:
192,192,85208,1,0,0:0:0:0:
64,192,85460,1,0,0:0:0:0:
192,192,85544,1,0,0:0:0:0:
448,192,85628,1,0,0:0:0:0:
320,192,85712,1,0,0:0:0:0:
192,192,85964,1,0,0:0:0:0:
320,192,86048,1,0,0:0:0:0:
64,192,86132,1,0,0:0:0:0:
192,192,86216,1,0,0:0:0:0:
448,192,86469,1,0,0:0:0:0:
192,192,86553,1,0,0:0:0:0:
320,192,86637,1,0,0:0:0:0:
64,192,86721,1,0,0:0:0:0:
192,192,86805,1,0,0:0:0:0:
320,192,86889,1,0,0:0:0:0:
448,192,86973,1,0,0:0:0:0:
192,192,87225,1,0,0:0:0:0:
448,192,87477,1,0,0:0:0:0:
320,192,87729,1,0,0:0:0:0:
192,192,87981,1,8,0:0:0:0:
64,192,87981,1,4,0:0:0:0:
320,192,88233,1,8,0:0:0:0:
64,192,88485,1,8,0:0:0:0:
448,192,88485,1,0,0:0:0:0:
192,192,88737,1,8,0:0:0:0:
320,192,88990,1,8,0:0:0:0:
448,192,88990,1,0,0:0:0:0:
64,192,89242,1,8,0:0:0:0:
192,192,89494,1,8,0:0:0:0:
320,192,89494,1,0,0:0:0:0:
448,192,89746,1,8,0:0:0:0:
64,192,89914,1,8,0:0:0:0:
192,192,89998,1,8,0:0:0:0:
320,192,90166,1,8,0:0:0:0:
192,192,90250,1,8,0:0:0:0:
448,192,90418,1,8,0:0:0:0:
320,192,90502,1,8,0:0:0:0:
64,192,90670,1,8,0:0:0:0:
192,192,90754,1,8,0:0:0:0:
320,192,90922,1,8,0:0:0:0:
192,192,91006,1,8,0:0:0:0:
64,192,91090,1,8,0:0:0:0:
320,192,91174,1,8,0:0:0:0:
448,192,91258,1,8,0:0:0:0:
64,192,91343,1,8,0:0:0:0:
192,192,91427,1,8,0:0:0:0:
320,192,91511,1,8,0:0:0:0:
448,192,91595,1,8,0:0:0:0:
192,192,91679,1,8,0:0:0:0:
64,192,91763,1,8,0:0:0:0:
448,192,91847,1,8,0:0:0:0:
320,192,91931,1,8,0:0:0:0:
448,192,93780,1,0,0:0:0:0:
320,192,93864,1,0,0:0:0:0:
192,192,93948,1,0,0:0:0:0:
64,192,94032,1,0,0:0:0:50:K.wav
448,192,94032,1,4,0:0:0:0:
320,192,94284,1,0,0:0:0:50:K.wav
192,192,94284,1,0,0:0:0:0:
320,192,94536,1,0,0:0:0:50:K.wav
448,192,94536,1,0,0:0:0:0:
64,192,94788,1,0,0:0:0:50:K.wav
448,192,94788,1,0,0:0:0:0:
192,192,95040,1,0,0:0:0:50:K.wav
320,192,95124,1,0,0:0:0:0:
448,192,95208,1,0,0:0:0:0:
192,192,95292,1,0,0:0:0:50:K.wav
448,192,95544,1,0,0:0:0:50:K.wav
64,192,95628,1,0,0:0:0:0:
192,192,95712,1,0,0:0:0:0:
320,192,95796,1,0,0:0:0:50:K.wav
64,192,95964,1,0,0:0:0:50:K.wav
192,192,96048,1,0,0:0:0:50:K.wav
448,192,96048,1,0,0:0:0:0:
320,192,96301,1,0,0:0:0:50:K.wav
448,192,96301,1,0,0:0:0:0:
192,192,96553,1,0,0:0:0:50:K.wav
64,192,96553,1,0,0:0:0:0:
320,192,96805,1,0,0:0:0:50:K.wav
192,192,96805,1,0,0:0:0:0:
448,192,97057,1,0,0:0:0:50:K.wav
320,192,97141,1,0,0:0:0:0:
192,192,97225,1,0,0:0:0:0:
64,192,97309,1,0,0:0:0:50:K.wav
320,192,97561,1,0,0:0:0:50:K.wav
64,192,97645,1,0,0:0:0:50:K.wav
192,192,97729,1,0,0:0:0:50:K.wav
320,192,97813,1,0,0:0:0:50:K.wav
448,192,97813,1,0,0:0:0:0:
192,192,97981,1,0,0:0:0:50:K.wav
448,192,98065,1,0,0:0:0:50:K.wav
64,192,98065,1,4,0:0:0:0:
64,192,98317,1,0,0:0:0:50:K.wav
192,192,98317,1,0,0:0:0:0:
320,192,98569,1,0,0:0:0:50:K.wav
448,192,98569,1,0,0:0:0:0:
320,192,98822,1,0,0:0:0:50:K.wav
192,192,98822,1,0,0:0:0:0:
64,192,99074,1,0,0:0:0:50:K.wav
192,192,99158,1,0,0:0:0:0:
448,192,99242,1,0,0:0:0:0:
320,192,99326,1,0,0:0:0:50:K.wav
192,192,99578,1,0,0:0:0:50:K.wav
64,192,99662,1,0,0:0:0:0:
448,192,99746,1,0,0:0:0:0:
320,192,99830,1,0,0:0:0:50:K.wav
192,192,99998,1,0,0:0:0:50:K.wav
64,192,100082,1,0,0:0:0:50:K.wav
448,192,100082,1,4,0:0:0:0:
320,192,100334,1,0,0:0:0:50:K.wav
192,192,100334,1,0,0:0:0:0:
320,192,100586,1,0,0:0:0:50:K.wav
448,192,100586,1,0,0:0:0:0:
192,192,100838,1,0,0:0:0:50:K.wav
64,192,100838,1,0,0:0:0:0:
448,192,101090,128,4,102099:0:0:0:0:
320,192,101090,128,0,101343:0:0:0:0:
64,192,101343,128,4,101595:0:0:0:0:
192,192,101595,128,4,101847:0:0:0:0:
320,192,101847,128,4,102099:0:0:0:0:
192,192,102099,1,0,0:0:0:50:K.wav
64,192,102099,1,4,0:0:0:0:
448,192,102267,1,0,0:0:0:0:
192,192,102351,1,0,0:0:0:50:K.wav
320,192,102519,1,0,0:0:0:0:
64,192,102603,1,0,0:0:0:50:K.wav
192,192,102771,1,0,0:0:0:0:
448,192,102855,1,0,0:0:0:50:K.wav
320,192,103107,1,0,0:0:0:50:K.wav
192,192,103191,1,0,0:0:0:0:
64,192,103275,1,0,0:0:0:0:
448,192,103359,1,0,0:0:0:50:K.wav
320,192,103443,1,0,0:0:0:0:
192,192,103527,1,0,0:0:0:0:
448,192,103611,1,0,0:0:0:50:K.wav
320,192,103695,1,0,0:0:0:0:
64,192,103780,1,0,0:0:0:0:
448,192,103864,1,0,0:0:0:50:K.wav
320,192,103948,1,0,0:0:0:0:
64,192,104032,1,0,0:0:0:50:K.wav
192,192,104116,1,0,0:0:0:50:K.wav
320,192,104284,1,0,0:0:0:0:
192,192,104368,1,0,0:0:0:50:K.wav
64,192,104536,1,0,0:0:0:0:
320,192,104620,1,0,0:0:0:50:K.wav
192,192,104788,1,0,0:0:0:0:
448,192,104872,1,0,0:0:0:50:K.wav
448,192,105124,1,0,0:0:0:50:K.wav
320,192,105124,1,0,0:0:0:0:
64,192,105208,1,0,0:0:0:50:K.wav
192,192,105292,1,0,0:0:0:50:K.wav
320,192,105376,1,0,0:0:0:50:K.wav
448,192,105376,1,0,0:0:0:0:
192,192,105544,1,0,0:0:0:50:K.wav
64,192,105544,1,0,0:0:0:0:
320,192,105628,1,0,0:0:0:50:K.wav
448,192,105628,1,0,0:0:0:0:
320,192,105880,1,0,0:0:0:70:LR4_SnareBPDT.wav
192,192,105880,1,0,0:0:0:0:
192,192,106132,1,0,0:0:0:50:K.wav
64,192,106132,1,4,0:0:0:0:
320,192,106385,1,0,0:0:0:50:K.wav
64,192,106637,1,0,0:0:0:50:K.wav
448,192,106637,1,0,0:0:0:0:
192,192,106889,1,0,0:0:0:50:K.wav
320,192,107057,1,0,0:0:0:50:K.wav
64,192,107141,1,0,0:0:0:50:K.wav
448,192,107141,1,0,0:0:0:0:
192,192,107393,1,0,0:0:0:50:K.wav
320,192,107477,1,0,0:0:0:0:
64,192,107561,1,0,0:0:0:0:
192,192,107645,1,0,0:0:0:50:K.wav
64,192,107897,1,0,0:0:0:50:K.wav
192,192,107981,1,0,0:0:0:50:K.wav
320,192,108065,1,0,0:0:0:50:K.wav
64,192,108149,1,0,0:0:0:50:K.wav
448,192,108149,1,4,0:0:0:0:
320,192,108401,1,0,0:0:0:70:LR4_SnareBPDT.wav
448,192,108401,1,0,0:0:0:0:
192,192,108653,1,0,0:0:0:50:K.wav
320,192,108906,1,0,0:0:0:70:LR4_SnareBPDT.wav
448,192,108906,1,0,0:0:0:0:
192,192,109158,1,4,0:0:0:0:
64,192,109158,1,0,0:0:0:50:K.wav
64,192,109662,1,0,0:0:0:50:K.wav
448,192,109662,1,0,0:0:0:70:Bassdrop.wav
448,192,110166,1,0,0:0:0:0:
320,192,110418,1,0,0:0:0:0:
192,192,110670,1,0,0:0:0:0:
320,192,110922,1,0,0:0:0:0:
448,192,111174,1,0,0:0:0:0:
448,192,111427,1,0,0:0:0:70:LR_Snare Drum 3.wav
320,192,111679,1,0,0:0:0:70:LR_Snare Drum 2.wav
192,192,111931,1,0,0:0:0:70:LR4_SnareBPDT.wav
64,192,111931,1,0,0:0:0:0:
320,192,112057,1,0,0:0:0:70:LR4_SnareBPDT.wav
64,192,112183,1,0,0:0:0:50:K.wav
448,192,112183,1,4,0:0:0:0:
192,192,112309,1,0,0:0:0:50:K.wav
320,192,112435,1,0,0:0:0:50:K.wav
448,192,112435,1,0,0:0:0:0:
320,192,112687,1,0,0:0:0:50:K.wav
192,192,112687,1,0,0:0:0:0:
192,192,112939,1,0,0:0:0:50:K.wav
64,192,112939,1,0,0:0:0:0:
448,192,113191,1,0,0:0:0:50:K.wav
64,192,113191,1,0,0:0:0:0:
320,192,113443,1,0,0:0:0:50:K.wav
448,192,113443,1,0,0:0:0:0:
320,192,113695,1,0,0:0:0:50:K.wav
192,192,113695,1,0,0:0:0:0:
192,192,113948,1,0,0:0:0:50:K.wav
64,192,113948,1,0,0:0:0:0:
448,192,114074,1,0,0:0:0:50:K.wav
320,192,114200,1,0,0:0:0:50:K.wav
64,192,114200,1,4,0:0:0:0:
192,192,114452,1,0,0:0:0:50:K.wav
448,192,114452,1,0,0:0:0:0:
320,192,114704,1,0,0:0:0:50:K.wav
448,192,114704,1,0,0:0:0:0:
192,192,114956,1,0,0:0:0:50:K.wav
320,192,114956,1,0,0:0:0:0:
192,192,115208,1,0,0:0:0:50:K.wav
64,192,115208,1,0,0:0:0:0:
448,192,115460,1,0,0:0:0:50:K.wav
64,192,115460,1,0,0:0:0:0:
320,192,115712,1,0,0:0:0:50:K.wav
192,192,115712,1,0,0:0:0:0:
320,192,115964,1,0,0:0:0:70:LR4_SnareBPDT.wav
448,192,115964,1,0,0:0:0:0:
192,192,116216,1,0,0:0:0:50:K.wav
64,192,116216,1,4,0:0:0:0:
448,192,116469,1,0,0:0:0:50:K.wav
320,192,116469,1,0,0:0:0:0:
192,192,116721,1,0,0:0:0:50:K.wav
320,192,116721,1,0,0:0:0:0:
64,192,116973,1,0,0:0:0:50:K.wav
192,192,116973,1,0,0:0:0:0:
320,192,117099,1,0,0:0:0:50:K.wav
448,192,117225,1,0,0:0:0:50:K.wav
64,192,117225,1,0,0:0:0:0:
320,192,117477,1,0,0:0:0:50:K.wav
192,192,117477,1,0,0:0:0:0:
448,192,117729,1,0,0:0:0:50:K.wav
320,192,117729,1,0,0:0:0:0:
64,192,117981,1,0,0:0:0:50:K.wav
192,192,118044,1,0,0:0:0:50:K.wav
448,192,118170,1,0,0:0:0:50:K.wav
320,192,118233,1,0,0:0:0:50:K.wav
192,192,118359,1,0,0:0:0:50:K.wav
448,192,118485,1,0,0:0:0:50:K.wav
64,192,118485,1,0,0:0:0:0:
320,192,118611,1,0,0:0:0:50:K.wav
192,192,118737,1,0,0:0:0:50:K.wav
64,192,118737,1,0,0:0:0:0:
320,192,118864,1,0,0:0:0:50:K.wav
448,192,118990,1,0,0:0:0:50:K.wav
64,192,118990,1,0,0:0:0:0:
192,192,119116,1,0,0:0:0:50:K.wav
320,192,119242,1,0,0:0:0:50:K.wav
448,192,119242,1,0,0:0:0:0:
64,192,119494,128,0,119746:0:0:0:70:LR_Snare Drum 3.wav
320,192,119746,1,2,0:0:0:0:
64,192,119998,1,0,0:0:0:70:LR4_SnareBPDT.wav
448,192,119998,1,0,0:0:0:0:
320,192,120124,1,0,0:0:0:70:LR4_SnareBPDT.wav
192,192,120250,1,0,0:0:0:50:K.wav
64,192,120250,1,4,0:0:0:0:
448,192,120376,1,0,0:0:0:50:K.wav
320,192,120502,1,0,0:0:0:70:LR4_SnareBPDT.wav
192,192,120502,1,0,0:0:0:0:
64,192,120754,1,0,0:0:0:50:K.wav
448,192,120754,1,0,0:0:0:0:
320,192,121006,1,0,0:0:0:70:LR4_SnareBPDT.wav
448,192,121006,1,0,0:0:0:0:
320,192,121258,1,0,0:0:0:50:K.wav
192,192,121258,1,0,0:0:0:0:
64,192,121511,1,0,0:0:0:70:LR4_SnareBPDT.wav
448,192,121511,1,0,0:0:0:0:
64,192,121763,1,0,0:0:0:50:K.wav
192,192,121826,1,0,0:0:0:50:K.wav
320,192,121889,1,0,0:0:0:50:K.wav
448,192,121952,1,0,0:0:0:50:K.wav
192,192,122015,1,0,0:0:0:70:LR4_SnareBPDT.wav
64,192,122015,1,0,0:0:0:0:
448,192,122267,1,0,0:0:0:50:K.wav
320,192,122267,1,4,0:0:0:0:
192,192,122393,1,0,0:0:0:50:K.wav
64,192,122519,1,0,0:0:0:70:LR4_SnareBPDT.wav
448,192,122519,1,0,0:0:0:0:
320,192,122771,1,0,0:0:0:50:K.wav
192,192,122771,1,0,0:0:0:0:
64,192,123023,1,0,0:0:0:70:LR4_SnareBPDT.wav
320,192,123023,1,0,0:0:0:0:
192,192,123275,1,0,0:0:0:50:K.wav
64,192,123275,1,0,0:0:0:0:
320,192,123527,1,0,0:0:0:70:LR4_SnareBPDT.wav
448,192,123527,1,0,0:0:0:0:
64,192,123780,1,0,0:0:0:50:K.wav
448,192,123780,1,0,0:0:0:0:
192,192,123906,1,0,0:0:0:50:K.wav
64,192,123969,1,0,0:0:0:50:K.wav
448,192,124032,1,0,0:0:0:70:LR4_SnareBPDT.wav
320,192,124032,1,0,0:0:0:0:
192,192,124158,1,0,0:0:0:70:LR4_SnareBPDT.wav
64,192,124221,1,0,0:0:0:70:LR4_SnareBPDT.wav
320,192,124284,1,0,0:0:0:50:K.wav
448,192,124284,1,4,0:0:0:0:
192,192,124410,1,0,0:0:0:50:K.wav
64,192,124536,1,0,0:0:0:70:LR4_SnareBPDT.wav
448,192,124536,1,0,0:0:0:0:
320,192,124662,1,0,0:0:0:50:K.wav
192,192,124788,1,0,0:0:0:50:K.wav
64,192,124788,1,0,0:0:0:0:
320,192,124914,1,0,0:0:0:70:LR4_SnareBPDT.wav
64,192,125040,1,0,0:0:0:50:K.wav
192,192,125103,1,0,0:0:0:50:K.wav
320,192,125166,1,0,0:0:0:50:K.wav
448,192,125229,1,0,0:0:0:50:K.wav
192,192,125292,1,0,0:0:0:50:K.wav
64,192,125292,1,4,0:0:0:0:
320,192,125418,1,0,0:0:0:50:K.wav
448,192,125544,1,0,0:0:0:70:LR4_SnareBPDT.wav
64,192,125544,1,0,0:0:0:0:
192,192,125670,1,0,0:0:0:50:K.wav
320,192,125796,1,0,0:0:0:50:K.wav
448,192,125796,1,0,0:0:0:0:
192,192,125922,1,0,0:0:0:70:LR4_SnareBPDT.wav
448,192,126048,1,0,0:0:0:50:K.wav
320,192,126111,1,0,0:0:0:50:K.wav
192,192,126174,1,0,0:0:0:50:K.wav
64,192,126174,1,0,0:0:0:0:
320,192,126301,1,0,0:0:0:50:K.wav
448,192,126301,1,4,0:0:0:0:
192,192,126427,1,0,0:0:0:50:K.wav
64,192,126553,1,0,0:0:0:50:K.wav
448,192,126553,1,0,0:0:0:0:
320,192,126679,1,0,0:0:0:50:K.wav
64,192,126805,1,0,0:0:0:50:K.wav
192,192,126805,1,0,0:0:0:0:
448,192,126931,1,0,0:0:0:50:K.wav
320,192,127057,1,0,0:0:0:50:K.wav
192,192,127057,1,0,0:0:0:0:
64,192,127183,1,0,0:0:0:50:K.wav
448,192,127309,1,0,0:0:0:50:K.wav
320,192,127393,1,0,0:0:0:50:K.wav
64,192,127477,1,0,0:0:0:50:K.wav
448,192,127561,1,0,0:0:0:50:K.wav
192,192,127645,1,0,0:0:0:50:K.wav
320,192,127729,1,0,0:0:0:50:K.wav
448,192,127813,1,0,0:0:0:50:K.wav
192,192,127897,1,0,0:0:0:50:K.wav
64,192,127981,1,0,0:0:0:50:K.wav
448,192,128065,1,0,0:0:0:50:K.wav
320,192,128149,1,0,0:0:0:50:K.wav
192,192,128233,1,0,0:0:0:50:K.wav
64,192,128317,1,0,0:0:0:70:Bassdrop.wav
448,192,128317,1,4,0:0:0:0:
