osu file format v14

[General]
AudioFilename: audio.mp3
AudioLeadIn: 0
PreviewTime: 32960
Countdown: 0
SampleSet: Normal
StackLeniency: 0.7
Mode: 2
LetterboxInBreaks: 0
WidescreenStoryboard: 1

[Editor]
DistanceSpacing: 0.6
BeatDivisor: 2
GridSize: 16
TimelineZoom: 3.599999

[Metadata]
Title:Ghost Family Living In Graveyard
TitleUnicode:Ghost Family Living In Graveyard
Artist:RoughSketch
ArtistUnicode:RoughSketch
Creator:Rocma
Version:Platter
Source:SOUND VOLTEX VIVID WAVE
Tags:-luminate electronic video game instrumental sdvx hardcore ΩDimension Omega Dimension 7
BeatmapID:2143204
BeatmapSetID:1023464

[Difficulty]
HPDrainRate:5
CircleSize:3.4
OverallDifficulty:8
ApproachRate:8
SliderMultiplier:1.28
SliderTickRate:1

[Events]
//Background and Video events
0,0,"BG.png",0,0
//Break Periods
//Storyboard Layer 0 (Background)
//Storyboard Layer 1 (Fail)
//Storyboard Layer 2 (Pass)
//Storyboard Layer 3 (Foreground)
//Storyboard Layer 4 (Overlay)
//Storyboard Sound Samples

[TimingPoints]
1259,252.100840336134,4,2,2,40,1,0
5292,-100,4,2,2,50,0,0
9326,-100,4,2,2,60,0,0
15376,-100,4,2,2,50,0,0
15628,-100,4,2,2,40,0,0
15880,-100,4,2,2,30,0,0
16132,-100,4,2,2,20,0,0
17393,-75,4,1,2,100,0,0
20670,-75,4,1,2,60,0,0
20922,-75,4,1,2,30,0,0
21174,-75,4,1,2,10,0,0
21427,-100,4,1,2,80,0,0
24326,-100,4,1,2,100,0,0
33527,-100,4,1,2,100,0,1
41595,-100,4,2,2,60,0,0
45628,-100,4,1,2,100,0,0
63275,-100,4,2,2,60,0,0
79914,-100,4,1,2,80,0,0
87981,-100,4,1,2,30,0,0
88233,-100,4,1,2,35,0,0
88485,-100,4,1,2,40,0,0
88737,-100,4,1,2,45,0,0
88990,-100,4,1,2,50,0,0
89242,-100,4,1,2,55,0,0
89494,-100,4,1,2,60,0,0
89746,-100,4,1,2,65,0,0
89998,-100,4,1,2,70,0,0
90250,-100,4,1,2,75,0,0
90502,-100,4,1,2,80,0,0
90754,-100,4,1,2,85,0,0
91006,-100,4,1,2,90,0,0
92141,-100,4,2,2,60,0,0
93023,-100,4,1,2,100,0,0
93527,-100,4,1,3,100,0,0
93590,-100,4,1,2,100,0,0
94032,-100,4,1,2,100,0,1
101090,-100,4,1,2,60,0,1
101343,-100,4,1,2,70,0,1
101595,-100,4,1,2,80,0,1
101847,-100,4,1,2,90,0,1
102099,-100,4,1,2,100,0,1
110166,-100,4,2,2,60,0,0
111427,-100,4,1,2,70,0,0
111679,-100,4,1,2,80,0,0
111931,-100,4,1,2,90,0,0
112183,-100,4,1,2,100,0,1
119242,-100,4,1,2,80,0,0
120250,-100,4,1,2,100,0,1
128317,-100,4,1,2,100,0,0

[Colours]
Combo1 : 36,68,115
Combo2 : 121,121,200
Combo3 : 184,168,181
Combo4 : 119,230,255

[HitObjects]
352,256,1259,6,0,L|480:256,1,128,2|0,0:0|0:0,0:0:0:0:
352,192,1763,2,0,L|224:192,1,128,0|0,0:0|0:0,0:0:0:0:
352,288,2267,2,0,P|414:257|351:122,1,256,2|0,0:0|0:0,0:0:0:0:
96,128,3023,1,0,0:0:0:0:
208,128,3275,6,0,P|271:158|192:288,1,256,2|0,0:0|0:0,0:0:0:0:
16,288,4284,2,0,L|32:224,4,64,2|0|0|0|0,0:0|0:0|0:0|0:0|0:0,0:0:0:0:
375,293,5292,6,0,P|423:277|455:197,1,128,2|0,0:0|0:0,0:0:0:0:
343,213,5796,2,0,P|295:197|263:117,1,128,0|0,0:0|0:0,0:0:0:0:
480,128,6301,2,0,P|464:208|304:288,1,256,2|0,0:0|0:0,0:0:0:0:
432,288,7057,1,0,0:0:0:0:
192,288,7309,6,0,P|112:256|32:96,1,256,2|0,0:0|0:0,0:0:0:0:
240,224,8317,6,0,P|254:170|235:97,1,128,2|0,0:0|0:0,0:0:0:0:
112,272,8822,2,0,P|48:256|32:192,1,128,0|0,0:0|0:0,0:0:0:0:
448,240,9326,6,0,P|475:188|448:128,1,128,2|0,0:0|0:0,0:0:0:0:
320,208,9830,2,0,P|293:156|320:96,1,128,2|2,0:0|0:0,0:0:0:0:
192,96,10334,2,0,P|219:152|192:208,1,128,2|0,0:0|0:0,0:0:0:0:
63,128,10838,2,0,P|36:184|63:240,1,128,2|2,0:0|0:0,0:0:0:0:
128,240,11216,1,2,0:0:0:0:
320,240,11343,6,0,P|368:208|400:144,1,128,2|0,0:0|0:0,0:0:0:0:
272,176,11847,2,0,P|299:119|351:82,1,128,2|2,0:0|0:0,0:0:0:0:
192,240,12351,6,0,P|144:208|112:144,1,128,2|0,0:0|0:0,0:0:0:0:
240,176,12855,1,2,0:0:0:0:
212,118,12981,1,0,0:0:0:0:
161,82,13107,1,2,0:0:0:0:
212,118,13233,1,2,0:0:0:0:
416,272,13359,6,0,P|448:256|400:192,1,128,2|2,0:0|0:0,0:0:0:0:
288,192,13864,2,0,L|272:128,1,64,2|0,0:0|0:0,0:0:0:0:
352,144,14116,2,0,L|368:80,1,64,2|0,0:0|0:0,0:0:0:0:
208,80,14368,6,0,P|144:96|128:176,1,128,2|2,0:0|0:0,0:0:0:0:
256,176,14872,2,0,L|240:256,1,64,2|0,0:0|0:0,0:0:0:0:
160,240,15124,2,0,L|176:320,1,64,2|0,0:0|0:0,0:0:0:0:
330,327,15376,6,0,B|362:327|394:327|477:242|394:167|362:167|330:167|330:167|362:167|394:167|477:242|394:327|362:327|330:327,1,512,2|0,0:0|0:0,0:0:0:0:
256,192,16511,12,0,17141,0:0:0:0:
208,224,17393,5,2,0:0:0:0:
464,176,17645,2,0,L|304:80,2,170.666666666667,8|8|8,0:0|0:0|0:0,0:0:0:0:
304,304,18401,6,0,L|464:208,3,170.666666666667,8|8|8|8,0:0|0:0|0:0|0:0,0:0:0:0:
208,304,19410,6,0,L|48:208,3,170.666666666667,8|8|8|8,0:0|0:0|0:0|0:0,0:0:0:0:
287,276,20418,2,0,B|463:276|463:276|325:177|325:177|406:31|406:31,1,512,8|0,0:0|0:0,0:0:0:0:
184,48,21427,6,0,L|184:128,1,64,2|0,0:0|0:0,0:0:0:0:
248,144,21679,1,8,0:0:0:0:
120,176,21931,2,0,L|56:176,2,64,0|0|8,0:0|0:0|0:0,0:0:0:0:
328,48,22435,6,0,L|328:128,1,64,0|0,0:0|0:0,0:0:0:0:
264,144,22687,1,8,0:0:0:0:
392,176,22939,2,0,L|456:176,2,64,0|8|8,0:0|0:0|0:0,0:0:0:0:
328,176,23317,1,0,0:0:0:0:
172,177,23443,6,0,P|108:193|76:273,1,128,8|8,0:0|0:0,0:0:0:0:
140,273,23822,1,8,0:0:0:0:
204,241,23948,2,0,P|268:257|300:337,1,128,8|0,0:0|0:0,0:0:0:0:
48,352,24452,6,0,L|48:208,1,128,0|0,0:0|0:0,0:0:0:0:
112,224,24830,1,0,0:0:0:0:
192,256,24956,2,0,P|169:193|108:172,1,128,0|0,0:0|0:0,0:0:0:0:
48,176,25334,1,0,0:0:0:0:
304,176,25460,6,0,L|448:176,3,128,12|8|8|8,0:0|0:0|0:0|0:0,0:0:0:0:
256,176,26406,1,2,0:0:0:0:
208,176,26469,6,0,L|64:176,3,128,8|8|8|8,0:0|0:0|0:0|0:0,0:0:0:0:
224,176,27351,1,2,0:0:0:0:
288,144,27477,6,0,L|160:144,2,128,8|8|8,0:0|0:0|0:0,0:0:0:0:
320,96,28107,1,8,0:0:0:0:
288,48,28233,1,8,0:0:0:0:
160,96,28485,5,8,0:0:0:0:
96,96,28611,1,8,0:0:0:0:
48,144,28737,1,8,0:0:0:0:
288,144,28990,5,8,0:0:0:0:
352,144,29116,2,8,P|416:192|432:240,1,128
208,272,29494,6,0,P|160:224|144:144,1,128,12|8,0:0|0:0,0:0:0:0:
272,208,29998,2,0,P|253:147|208:103,1,128,8|8,0:0|0:0,0:0:0:0:
368,96,30376,1,2,0:0:0:0:
432,128,30502,6,0,L|448:192,3,64,8|2|8|2,0:0|0:0|0:0|0:0,0:0:0:0:
288,240,31006,2,0,L|144:240,1,128,8|0,0:0|0:0,0:0:0:0:
288,208,31511,6,0,P|368:176|384:112,1,128,8|8,0:0|0:0,0:0:0:0:
144,128,32015,2,0,L|128:208,1,64,8|8,0:0|0:0,0:0:0:0:
208,192,32267,2,0,L|224:272,1,64,8|8,0:0|0:0,0:0:0:0:
64,288,32519,5,2,0:0:0:0:
64,208,32771,2,0,L|128:208,1,64,2|2,0:0|0:0,0:0:0:0:
336,208,33023,6,0,L|480:208,1,128,8|0,0:0|0:0,0:0:0:0:
400,208,33401,1,0,0:0:0:0:
208,224,33527,6,0,L|64:224,1,128,4|8,0:0|0:0,0:0:0:0:
67,143,33906,1,0,0:0:0:0:
144,144,34032,2,0,L|128:64,1,64,0|0,0:0|0:0,0:0:0:0:
208,128,34284,2,0,L|192:48,1,64,8|0,0:0|0:0,0:0:0:0:
416,128,34536,6,0,L|432:48,1,64,0|0,0:0|0:0,0:0:0:0:
352,128,34788,2,0,L|368:48,1,64,8|0,0:0|0:0,0:0:0:0:
288,128,35040,2,0,L|272:48,1,64,0|2,0:0|0:0,0:0:0:0:
352,128,35292,2,0,L|336:48,1,64,8|0,0:0|0:0,0:0:0:0:
144,64,35544,6,0,L|16:64,1,128,4|8,0:0|0:0,0:0:0:0:
80,64,35922,1,0,0:0:0:0:
231,64,36048,1,0,0:0:0:0:
285,93,36174,1,0,0:0:0:0:
296,154,36300,1,8,0:0:0:0:
256,201,36426,1,0,0:0:0:0:
112,208,36553,6,0,L|48:208,2,64,0|2|8,0:0|0:0|0:0,0:0:0:0:
224,208,37057,6,0,L|288:208,1,64,0|2,0:0|0:0,0:0:0:0:
208,176,37309,2,0,L|208:112,1,64,8|0,0:0|0:0,0:0:0:0:
432,192,37561,6,0,P|466:160|416:96,1,128,4|8,0:0|0:0,0:0:0:0:
352,96,37939,1,0,0:0:0:0:
432,112,38065,2,0,L|407:188,1,64,0|0,0:0|0:0,0:0:0:0:
336,160,38317,2,0,L|311:236,1,64,8|0,0:0|0:0,0:0:0:0:
96,192,38569,6,0,L|121:268,1,64,0|0,0:0|0:0,0:0:0:0:
192,240,38821,2,0,L|217:316,1,64,8|0,0:0|0:0,0:0:0:0:
288,192,39074,2,0,L|263:268,1,64,0|2,0:0|0:0,0:0:0:0:
192,240,39326,2,0,L|167:316,1,64,8|0,0:0|0:0,0:0:0:0:
400,320,39578,6,0,P|480:288|480:240,1,128,4|8,0:0|0:0,0:0:0:0:
416,224,39956,1,0,0:0:0:0:
192,224,40208,6,0,L|112:224,2,64,8|8|0,0:0|0:0|0:0,0:0:0:0:
320,224,40712,2,0,L|400:224,1,64,8|8,0:0|0:0,0:0:0:0:
256,192,41090,6,0,L|176:192,1,64,8|0,0:0|0:0,0:0:0:0:
128,192,41343,2,0,L|208:192,1,64,8|0,0:0|0:0,0:0:0:0:
416,304,41595,2,0,P|464:240|304:112,1,320,4|0,0:3|0:0,0:0:0:0:
192,112,42477,1,0,0:0:0:0:
128,176,42603,6,0,P|112:208|136:302,1,128,2|0,0:0|0:0,0:0:0:0:
256,192,43107,2,0,B|294:257|252:313|252:313|128:256,1,256,2|2,0:0|0:0,0:0:0:0:
138,260,43737,5,2,0:0:0:0:
192,160,43864,1,2,0:0:0:0:
192,96,43990,1,2,0:0:0:0:
256,160,44116,1,2,0:0:0:0:
256,96,44242,1,2,0:0:0:0:
320,160,44368,1,2,0:0:0:0:
320,96,44494,1,2,0:0:0:0:
160,96,44620,6,0,P|118:146|170:166,1,128,4|0,0:3|0:0,0:0:0:0:
240,176,44998,1,0,0:0:0:0:
320,176,45124,2,0,L|432:256,1,128,4|4,0:3|0:3,0:0:0:0:
96,336,45628,6,0,L|96:208,1,128,4|8,0:0|0:0,0:0:0:0:
176,208,46006,1,0,0:0:0:0:
336,208,46132,1,4,0:3:0:0:
176,208,46385,2,0,L|176:128,1,64,8|0,0:0|0:0,0:0:0:0:
256,160,46637,6,0,L|256:96,1,64,2|0,0:0|0:0,0:0:0:0:
176,64,46889,1,8,0:0:0:0:
416,96,47141,1,4,0:3:0:0:
272,128,47393,1,8,0:0:0:0:
144,160,47645,6,0,P|112:208|160:272,1,128,2|8,0:0|0:0,0:0:0:0:
384,256,48149,1,4,0:3:0:0:
240,256,48401,1,8,0:0:0:0:
112,256,48653,6,0,P|74:208|115:168,1,128,2|8,0:0|0:0,0:0:0:0:
192,176,49032,1,0,0:0:0:0:
384,176,49158,1,4,0:3:0:0:
448,160,49284,1,2,0:0:0:0:
448,96,49410,1,4,0:3:0:0:
384,80,49536,1,0,0:0:0:0:
188,80,49662,6,0,L|60:80,1,128,4|8,0:0|0:0,0:0:0:0:
80,160,50040,1,0,0:0:0:0:
223,159,50166,1,2,0:0:0:0:
240,240,50292,2,0,L|96:240,1,128,8|2,0:0|0:0,0:0:0:0:
80,320,50670,6,0,L|224:320,1,128,8|8,0:0|0:0,0:0:0:0:
272,320,51048,1,8,0:0:0:0:
432,304,51174,2,0,L|464:304,1,32,2|0,0:0|0:0,0:0:0:0:
480,192,51427,1,8,0:0:0:0:
144,208,51679,6,0,P|80:192|64:128,1,128,2|8,0:0|0:0,0:0:0:0:
112,80,52057,1,0,0:0:0:0:
192,80,52183,1,2,0:0:0:0:
339,92,52309,2,0,L|339:220,1,128,8|0,0:0|0:0,0:0:0:0:
88,285,52687,6,0,P|51:252|96:192,1,128,2|2,0:0|0:0,0:0:0:0:
160,192,53065,1,8,0:0:0:0:
304,192,53191,2,0,L|304:160,1,32,2|8,0:0|0:0,0:0:0:0:
224,128,53443,2,0,L|144:128,1,64,8|0,0:0|0:0,0:0:0:0:
416,336,53695,6,0,L|416:208,1,128,4|8,0:0|0:0,0:0:0:0:
336,208,54073,1,0,0:0:0:0:
176,208,54199,1,4,0:3:0:0:
336,208,54452,2,0,L|336:128,1,64,8|0,0:0|0:0,0:0:0:0:
256,160,54704,6,0,L|256:96,1,64,2|0,0:0|0:0,0:0:0:0:
336,64,54956,1,8,0:0:0:0:
96,96,55208,1,4,0:3:0:0:
240,128,55460,1,8,0:0:0:0:
368,160,55712,6,0,P|400:208|352:272,1,128,2|8,0:0|0:0,0:0:0:0:
128,256,56216,1,4,0:3:0:0:
272,256,56468,1,8,0:0:0:0:
400,256,56720,6,0,P|438:208|397:168,1,128,2|8,0:0|0:0,0:0:0:0:
320,176,57099,1,0,0:0:0:0:
128,176,57225,1,4,0:3:0:0:
64,160,57351,1,2,0:0:0:0:
64,96,57477,1,4,0:3:0:0:
128,80,57603,1,0,0:0:0:0:
322,78,57729,6,0,L|450:78,1,128,4|8,0:0|0:0,0:0:0:0:
432,160,58107,1,0,0:0:0:0:
288,160,58233,1,2,0:0:0:0:
272,240,58359,2,0,L|416:240,1,128,8|2,0:0|0:0,0:0:0:0:
432,320,58737,6,0,L|288:320,1,128,8|8,0:0|0:0,0:0:0:0:
240,320,59115,1,8,0:0:0:0:
80,304,59241,2,0,L|48:304,1,32,2|0,0:0|0:0,0:0:0:0:
32,192,59494,1,8,0:0:0:0:
368,208,59746,6,0,P|432:192|448:128,1,128,2|8,0:0|0:0,0:0:0:0:
368,96,60124,2,0,L|352:176,1,64,2|0,0:0|0:0,0:0:0:0:
448,176,60376,1,8,0:0:0:0:
128,176,60628,6,0,P|96:224|144:288,1,128,2|0,0:0|0:0,0:0:0:0:
192,288,61006,1,8,0:0:0:0:
256,288,61132,1,8,0:0:0:0:
96,288,61258,1,8,0:0:0:0:
16,256,61385,2,0,L|16:224,2,32,8|0|8,0:0|0:0|0:0,0:0:0:0:
144,256,61763,1,0,0:0:0:0:
256,192,61889,12,0,63275,0:0:0:0:
40,303,63780,6,0,P|56:239|463:323,1,640,2|0,0:0|0:0,0:0:0:0:
462,314,65292,6,0,P|257:109|40:303,1,640,0|0,0:0|0:0,0:0:0:0:
48,352,66805,6,0,P|160:336|45:-7,1,640,2|0,0:0|0:0,0:0:0:0:
48,352,68317,6,0,B|144:368|148:223|148:223|160:80|256:96,1,384,0|0,0:0|0:0,0:0:0:0:
256,352,69830,6,0,B|384:320|400:208|368:144|224:32|128:240|32:176|16:0,1,640,2|0,0:0|0:0,0:0:0:0:
16,192,71343,6,0,B|352:144|320:96|336:215|336:215|526:114|496:288,1,640,0|0,0:0|0:0,0:0:0:0:
464,336,72855,6,0,B|336:337|336:337|290:86|290:86|17:88,1,640,2|0,0:0|0:0,0:0:0:0:
32,192,74368,6,0,P|134:319|256:192,1,384,0|0,0:0|0:0,0:0:0:0:
256,160,75880,5,2,0:0:0:0:
336,160,76132,1,0,0:0:0:0:
416,160,76385,1,0,0:0:0:0:
256,160,76637,5,2,0:0:0:0:
160,160,76889,1,0,0:0:0:0:
64,160,77142,1,0,0:0:0:0:
256,160,77393,5,2,0:0:0:0:
368,160,77645,1,0,0:0:0:0:
480,160,77898,1,2,0:0:0:0:
162,157,78149,5,2,0:0:0:0:
256,192,78275,12,0,79662,0:0:0:0:
176,288,79914,5,8,0:0:0:0:
145,259,79998,1,0,0:0:0:0:
143,218,80082,1,0,0:0:0:0:
171,186,80166,1,8,0:0:0:0:
288,160,80418,1,2,0:0:0:0:
32,128,80670,1,8,0:0:0:0:
160,128,80838,1,0,0:0:0:0:
208,160,80922,6,0,P|272:192|304:272,1,128,2|8,0:0|0:0,0:0:0:0:
176,224,81427,2,0,P|112:256|80:336,1,128,2|8,0:0|0:0,0:0:0:0:
336,288,81931,5,8,0:0:0:0:
367,259,82015,1,0,0:0:0:0:
369,218,82099,1,0,0:0:0:0:
341,186,82183,1,8,0:0:0:0:
224,160,82435,1,2,0:0:0:0:
480,128,82687,1,8,0:0:0:0:
352,128,82855,1,8,0:0:0:0:
304,160,82939,6,0,P|288:208|320:304,1,128,2|8,0:0|0:0,0:0:0:0:
432,224,83443,2,0,P|448:272|416:368,1,128,2|8,0:0|0:0,0:0:0:0:
64,336,83948,6,0,L|48:288,3,42.6666666666667,8|0|0|8,0:0|0:0|0:0|0:0,0:0:0:0:
160,240,84452,1,2,0:0:0:0:
400,224,84704,1,8,0:0:0:0:
256,192,84872,1,0,0:0:0:0:
208,192,84956,6,0,P|160:128|160:48,1,128,2|8,0:0|0:0,0:0:0:0:
304,192,85460,2,0,P|352:128|352:48,1,128,2|8,0:0|0:0,0:0:0:0:
128,80,85964,6,0,L|144:144,1,42.6666666666667,8|0,0:0|0:0,0:0:0:0:
192,128,86132,2,0,L|208:192,1,42.6666666666667,0|8,0:0|0:0,0:0:0:0:
80,224,86469,1,2,0:0:0:0:
122,224,86553,1,2,0:0:0:0:
165,224,86637,1,2,0:0:0:0:
224,224,86721,1,2,0:0:0:0:
266,224,86805,1,2,0:0:0:0:
309,224,86889,1,2,0:0:0:0:
384,224,86973,6,0,P|416:160|400:96,1,128,8|8,0:0|0:0,0:0:0:0:
272,160,87477,2,0,P|263:97|294:42,1,128,8|8,0:0|0:0,0:0:0:0:
336,42,87813,2,0,L|256:42,1,42.6666666666667,8|8,0:0|0:0,0:0:0:0:
176,32,87981,6,0,L|16:32,1,128,2|2,0:0|0:0,0:0:0:0:
192,96,88485,2,0,L|32:96,1,128,2|2,0:0|0:0,0:0:0:0:
208,160,88990,2,0,L|48:160,1,128,2|2,0:0|0:0,0:0:0:0:
336,240,89494,2,0,L|176:240,1,128,2|2,0:0|0:0,0:0:0:0:
192,144,89914,1,0,0:0:0:0:
320,144,89998,6,0,L|432:144,1,85.3333333333333,2|0,0:0|0:0,0:0:0:0:
416,208,90250,1,2,0:0:0:0:
304,208,90418,1,0,0:0:0:0:
288,272,90502,2,0,L|400:272,1,85.3333333333333,2|0,0:0|0:0,0:0:0:0:
384,336,90754,1,2,0:0:0:0:
272,336,90922,1,0,0:0:0:0:
224,320,91006,6,0,L|208:240,2,42.6666666666667,2|0|2,0:0|0:0|0:0,0:0:0:0:
176,304,91258,2,0,L|160:224,2,42.6666666666667,2|0|2,0:0|0:0|0:0,0:0:0:0:
224,320,91511,6,0,L|240:240,2,42.6666666666667,2|0|2,0:0|0:0|0:0,0:0:0:0:
272,304,91763,2,0,L|288:224,2,42.6666666666667,2|0|2,0:0|0:0|0:0,0:0:0:0:
238,284,93023,6,0,B|110:284|110:284|238:284|238:284|94:284,1,384,8|0,0:0|0:0,0:0:0:0:
432,288,94032,6,0,P|464:256|419:188,1,128,6|8,0:0|0:0,0:0:0:0:
288,192,94536,2,0,L|432:192,1,128,2|8,0:0|0:0,0:0:0:0:
176,192,94956,1,8,0:0:0:0:
112,192,95040,6,0,P|128:255|208:272,1,128,2|8,0:0|0:0,0:0:0:0:
320,256,95544,2,0,P|376:281|389:341,1,128,2|8,0:0|0:0,0:0:0:0:
144,288,95964,1,0,0:0:0:0:
80,288,96048,6,0,P|48:256|93:188,1,128,6|8,0:0|0:0,0:0:0:0:
224,192,96552,2,0,L|80:192,1,128,2|8,0:0|0:0,0:0:0:0:
336,192,96972,1,8,0:0:0:0:
416,192,97056,6,0,P|400:255|320:272,1,128,2|8,0:0|0:0,0:0:0:0:
208,256,97561,2,0,L|208:208,1,42.6666666666667,2|2,0:0|0:0,0:0:0:0:
288,208,97729,2,0,L|288:160,1,42.6666666666667,2|8,0:0|0:0,0:0:0:0:
96,160,97981,1,0,0:0:0:0:
16,192,98065,6,0,L|128:256,1,128,6|8,0:0|0:0,0:0:0:0:
240,224,98569,2,0,L|128:288,1,128,2|8,0:0|0:0,0:0:0:0:
368,240,98990,1,8,0:0:0:0:
448,240,99074,6,0,P|480:176|432:128,1,128,2|8,0:0|0:0,0:0:0:0:
320,144,99578,2,0,L|192:144,1,128,2|8,0:0|0:0,0:0:0:0:
432,192,99998,1,0,0:0:0:0:
496,192,100082,6,0,L|384:256,1,128,6|8,0:0|0:0,0:0:0:0:
272,224,100586,2,0,L|384:288,1,128,2|8,0:0|0:0,0:0:0:0:
128,240,101007,1,8,0:0:0:0:
48,240,101091,6,0,P|16:176|64:128,1,128,4|4,0:3|0:3,0:0:0:0:
176,112,101595,2,0,L|48:112,1,128,4|4,0:3|0:3,0:0:0:0:
368,160,102099,6,0,L|512:160,1,128,6|8,0:0|0:0,0:0:0:0:
288,208,102603,2,0,L|144:208,1,128,2|8,0:0|0:0,0:0:0:0:
208,192,102939,2,0,L|208:144,1,42.6666666666667,0|8,0:0|0:0,0:0:0:0:
96,128,103107,6,0,P|32:144|16:224,1,128,2|8,0:0|0:0,0:0:0:0:
240,224,103611,2,0,P|214:280|153:292,1,128,2|8,0:0|0:0,0:0:0:0:
496,304,104116,6,0,P|480:240|400:224,1,128,6|8,0:0|0:0,0:0:0:0:
208,208,104620,2,0,L|336:208,1,128,2|8,0:0|0:0,0:0:0:0:
96,208,105040,1,8,0:0:0:0:
32,192,105124,6,0,L|16:144,3,42.6666666666667,2|0|2|8,0:0|0:0|0:0|0:0,0:0:0:0:
272,192,105628,2,0,L|322:193,2,42.6666666666667,2|2|2,0:0|0:0|0:0,0:0:0:0:
174,189,105880,1,8,0:0:0:0:
144,304,106132,6,0,L|288:304,1,128,6|8,0:0|0:0,0:0:0:0:
32,256,106637,2,0,P|48:192|112:160,1,128,2|8,0:0|0:0,0:0:0:0:
400,144,107057,1,8,0:0:0:0:
480,112,107141,6,0,L|336:112,1,128,2|8,0:0|0:0,0:0:0:0:
192,144,107561,1,8,0:0:0:0:
128,192,107645,2,0,L|272:192,1,128,2|8,0:0|0:0,0:0:0:0:
298,192,107981,2,0,L|234:192,1,42.6666666666667,8|8,0:0|0:0,0:0:0:0:
144,288,108149,6,0,L|16:288,1,128,6|8,0:0|0:0,0:0:0:0:
256,224,108653,2,0,L|96:224,1,128,6|8,0:0|0:0,0:0:0:0:
480,208,109158,6,0,L|496:160,3,42.6666666666667,2|2|2|8,0:0|0:0|0:0|0:0,0:0:0:0:
368,192,109662,2,0,L|352:144,3,42.6666666666667,2|0|2|8,0:0|0:0|0:0|0:0,0:0:0:0:
320,112,110166,6,0,L|304:176,3,64,2|0|0|0,0:0|0:0|0:0|0:0,0:0:0:0:
400,208,110670,1,0,0:0:0:0:
144,240,110922,2,0,L|128:160,1,64,2|0,0:0|0:0,0:0:0:0:
240,160,111174,5,2,0:0:0:0:
304,240,111427,2,0,L|320:272,2,32,2|0|0,0:0|0:0|0:0,0:0:0:0:
224,240,111679,2,0,L|223:157,1,64,2|0,0:0|0:0,0:0:0:0:
320,224,111931,2,0,L|384:224,1,64,8|0,0:0|0:0,0:0:0:0:
112,224,112183,6,0,L|48:224,2,64,12|0|8,0:0|0:0|0:0,0:0:0:0:
352,192,112687,1,8,0:0:0:0:
224,192,112939,1,8,0:0:0:0:
464,192,113191,5,8,0:0:0:0:
336,192,113443,1,8,0:0:0:0:
96,192,113695,1,8,0:0:0:0:
176,192,113948,2,0,L|240:192,1,64,8|2,0:0|0:0,0:0:0:0:
480,320,114200,6,0,P|448:256|384:240,1,128,12|8,0:0|0:0,0:0:0:0:
160,192,114704,1,8,0:0:0:0:
288,192,114956,1,8,0:0:0:0:
48,192,115208,5,8,0:0:0:0:
176,192,115460,1,8,0:0:0:0:
416,192,115712,1,8,0:0:0:0:
176,192,115964,2,0,L|176:128,1,64,8|0,0:0|0:0,0:0:0:0:
384,304,116216,6,0,L|400:160,1,128,12|8,0:0|0:0,0:0:0:0:
128,304,116721,2,0,L|112:160,1,128,8|8,0:0|0:0,0:0:0:0:
192,176,117099,1,2,0:0:0:0:
384,304,117225,6,0,P|445:262|462:194,1,128,8|8,0:0|0:0,0:0:0:0:
224,192,117729,2,0,L|208:112,1,64,8|0,0:0|0:0,0:0:0:0:
352,112,117981,2,0,L|368:80,1,32,8|0,0:0|0:0,0:0:0:0:
384,144,118170,2,0,L|370:116,1,32,0|8,0:0|0:0,0:0:0:0:
304,112,118359,5,8,0:0:0:0:
240,112,118485,1,8,0:0:0:0:
176,112,118611,1,8,0:0:0:0:
16,192,118737,1,8,0:0:0:0:
80,192,118864,1,8,0:0:0:0:
144,192,118990,1,8,0:0:0:0:
208,192,119116,1,8,0:0:0:0:
480,224,119242,5,8,0:0:0:0:
480,176,119494,6,0,P|448:112|368:96,1,128,8|8,0:0|0:0,0:0:0:0:
464,64,119872,1,2,0:0:0:0:
400,80,119998,1,8,0:0:0:0:
64,256,120250,6,0,L|64:192,1,64,4|2,0:0|0:0,0:0:0:0:
256,192,120502,1,8,0:0:0:0:
448,192,120754,1,4,0:0:0:0:
128,192,121006,1,8,0:0:0:0:
128,192,121258,5,4,0:0:0:0:
448,192,121510,1,8,0:0:0:0:
448,192,121763,2,0,L|448:144,1,32,4|0,0:0|0:0,0:0:0:0:
400,160,121889,2,0,L|400:112,1,32,2|0,0:0|0:0,0:0:0:0:
448,96,122015,1,8,0:0:0:0:
448,256,122267,6,0,L|448:192,1,64,4|2,0:0|0:0,0:0:0:0:
256,192,122519,1,8,0:0:0:0:
64,192,122771,1,4,0:0:0:0:
384,192,123023,1,8,0:0:0:0:
384,192,123275,5,4,0:0:0:0:
64,192,123527,1,8,0:0:0:0:
64,192,123780,1,4,0:0:0:0:
64,96,123906,2,0,L|112:96,1,32,2|0,0:0|0:0,0:0:0:0:
192,96,124032,2,0,L|272:96,1,64,8|8,0:0|0:0,0:0:0:0:
48,208,124284,6,0,L|40:290,1,64,4|2,0:0|0:0,0:0:0:0:
112,288,124536,1,8,0:0:0:0:
256,256,124662,2,0,L|265:339,1,64,4|2,0:0|0:0,0:0:0:0:
192,336,124914,1,8,0:0:0:0:
48,304,125040,1,8,0:0:0:0:
43,273,125103,1,0,0:0:0:0:
61,247,125166,1,8,0:0:0:0:
294,303,125292,6,0,L|358:303,1,64,4|2,0:0|0:0,0:0:0:0:
426,301,125544,1,8,0:0:0:0:
272,224,125670,2,0,L|208:224,1,64,4|2,0:0|0:0,0:0:0:0:
272,224,125922,1,8,0:0:0:0:
416,192,126048,2,0,L|448:192,2,32,8|0|8,0:0|0:0|0:0,0:0:0:0:
192,208,126301,6,0,L|112:208,1,64,12|8,0:0|0:0,0:0:0:0:
64,208,126553,2,0,L|144:208,1,64,8|8,0:0|0:0,0:0:0:0:
320,209,126805,2,0,L|400:209,1,64,12|8,0:0|0:0,0:0:0:0:
448,209,127057,2,0,L|368:209,1,64,8|8,0:0|0:0,0:0:0:0:
160,320,127309,5,12,0:0:0:0:
101,266,127393,1,0,0:0:0:0:
71,192,127477,1,8,0:0:0:0:
76,113,127561,1,8,0:0:0:0:
114,43,127645,1,0,0:0:0:0:
179,0,127729,1,8,0:0:0:0:
257,0,127813,5,12,0:0:0:0:
333,3,127897,1,0,0:0:0:0:
394,54,127981,1,8,0:0:0:0:
427,126,128065,1,8,0:0:0:0:
425,205,128149,1,0,0:0:0:0:
390,277,128233,1,8,0:0:0:0:
256,288,128317,5,12,0:0:0:0:
