osu file format v14

[General]
AudioFilename: audio.mp3
AudioLeadIn: 0
PreviewTime: 32960
Countdown: 0
SampleSet: Soft
StackLeniency: 0.7
Mode: 2
LetterboxInBreaks: 0
WidescreenStoryboard: 1

[Editor]
DistanceSpacing: 0.6
BeatDivisor: 4
GridSize: 16
TimelineZoom: 2.1

[Metadata]
Title:Ghost Family Living In Graveyard
TitleUnicode:Ghost Family Living In Graveyard
Artist:RoughSketch
ArtistUnicode:RoughSketch
Creator:Rocma
Version:Lumi's Cup
Source:SOUND VOLTEX VIVID WAVE
Tags:-luminate electronic video game instrumental sdvx hardcore ΩDimension Omega Dimension 7
BeatmapID:2147841
BeatmapSetID:1023464

[Difficulty]
HPDrainRate:3
CircleSize:2.6
OverallDifficulty:6
ApproachRate:6
SliderMultiplier:1.25
SliderTickRate:1

[Events]
//Background and Video events
0,0,"BG.png",0,0
//Break Periods
2,61963,62730
//Storyboard Layer 0 (Background)
//Storyboard Layer 1 (Fail)
//Storyboard Layer 2 (Pass)
//Storyboard Layer 3 (Foreground)
//Storyboard Layer 4 (Overlay)
//Storyboard Sound Samples

[TimingPoints]
1259,252.100840336134,4,2,2,40,1,0
5292,-100,4,2,2,50,0,0
9326,-100,4,2,2,60,0,0
15376,-100,4,2,2,50,0,0
15628,-100,4,2,2,40,0,0
15880,-100,4,2,2,30,0,0
16132,-100,4,2,2,20,0,0
17393,-100,4,1,2,100,0,0
20670,-100,4,1,2,60,0,0
20922,-100,4,1,2,30,0,0
21174,-100,4,1,2,10,0,0
21427,-100,4,1,2,80,0,0
24326,-100,4,1,2,100,0,0
33527,-100,4,1,2,100,0,1
41595,-100,4,2,2,60,0,0
45628,-100,4,1,2,100,0,0
63527,-100,4,2,2,60,0,0
79914,-100,4,1,2,80,0,0
87981,-100,4,1,2,30,0,0
88233,-100,4,1,2,35,0,0
88485,-100,4,1,2,40,0,0
88737,-100,4,1,2,45,0,0
88990,-100,4,1,2,50,0,0
89242,-100,4,1,2,55,0,0
89494,-100,4,1,2,60,0,0
89746,-100,4,1,2,65,0,0
89998,-100,4,1,2,70,0,0
90250,-100,4,1,2,75,0,0
90502,-100,4,1,2,80,0,0
90754,-100,4,1,2,85,0,0
91006,-100,4,1,2,90,0,0
92141,-100,4,2,2,60,0,0
93023,-100,4,1,2,100,0,0
94032,-100,4,1,2,100,0,1
101090,-100,4,1,2,60,0,1
101343,-100,4,1,4,70,0,1
101595,-100,4,1,4,80,0,1
101847,-100,4,1,2,90,0,1
102099,-100,4,1,2,100,0,1
110166,-100,4,2,2,60,0,0
111427,-100,4,1,2,70,0,0
111679,-100,4,1,2,80,0,0
111931,-100,4,1,2,90,0,0
112183,-100,4,1,2,100,0,1
119242,-100,4,1,2,80,0,0
120250,-100,4,1,2,100,0,1
128317,-100,4,1,2,100,0,0

[Colours]
Combo1 : 36,68,115
Combo2 : 121,121,200
Combo3 : 184,168,181
Combo4 : 119,230,255

[HitObjects]
133,259,1259,6,0,P|109:173|129:135,1,125,2|0,0:0|0:0,0:0:0:0:
244,170,1763,2,0,P|262:95|248:46,1,125,0|0,0:0|0:0,0:0:0:0:
116,320,2267,6,0,L|102:145,1,125,2|0,0:0|0:0,0:0:0:0:
202,199,2771,1,0,0:0:0:0:
290,201,3023,1,0,0:0:0:0:
382,300,3275,6,0,P|443:212|364:94,1,250,2|0,0:0|0:0,0:0:0:0:
142,252,4284,2,0,L|330:61,1,250,2|0,0:0|0:0,0:0:0:0:
141,308,5292,6,0,L|127:145,1,125,2|0,0:0|0:0,0:0:0:0:
240,202,5796,2,0,L|247:61,1,125,0|0,0:0|0:0,0:0:0:0:
127,77,6301,5,2,0:0:0:0:
298,148,6805,1,0,0:0:0:0:
300,235,7057,1,0,0:0:0:0:
198,235,7309,6,0,P|121:212|74:36,1,250,2|0,0:0|0:0,0:0:0:0:
220,243,8317,2,0,P|297:220|344:44,1,250,2|0,0:0|0:0,0:0:0:0:
114,303,9326,6,0,P|56:239|127:98,1,250,2|2,0:0|0:0,0:0:0:0:
215,115,10082,1,2,0:0:0:0:
317,157,10334,2,0,P|309:261|181:334,1,250,2|2,0:0|0:0,0:0:0:0:
366,65,11343,6,0,P|436:122|448:291,1,250,2|2,0:0|0:0,0:0:0:0:
205,339,12351,2,0,P|130:272|128:125,1,250,2|2,0:0|0:0,0:0:0:0:
284,165,13359,6,0,L|398:67,3,125,2|2|2|2,0:0|0:0|0:0|0:0,0:0:0:0:
236,296,14368,2,0,P|140:244|120:105,1,250,2|2,0:0|0:0,0:0:0:0:
242,116,15124,1,2,0:0:0:0:
256,192,15376,12,0,16385,0:0:0:0:
137,245,17393,6,0,L|128:163,1,62.5,2|0,0:0|0:0,0:0:0:0:
195,154,17645,2,0,L|307:47,2,125,8|8|8,0:0|0:0|0:0,0:0:0:0:
343,308,18401,6,0,L|452:199,3,125,8|8|8|8,0:0|0:0|0:0|0:0,0:0:0:0:
291,210,19410,2,0,L|197:104,2,125,8|8|8,0:0|0:0|0:0,0:0:0:0:
420,207,20166,1,8,0:0:0:0:
285,311,20418,6,0,L|80:137,1,250,8|0,0:0|0:0,0:0:0:0:
315,182,21427,5,2,0:0:0:0:
229,145,21679,1,8,0:0:0:0:
142,103,21931,1,0,0:0:0:0:
229,75,22183,1,8,0:0:0:0:
336,49,22435,1,0,0:0:0:0:
438,98,22687,1,8,0:0:0:0:
339,141,22939,1,0,0:0:0:0:
227,174,23191,1,8,0:0:0:0:
350,223,23443,5,8,0:0:0:0:
203,202,23948,1,8,0:0:0:0:
154,183,24074,1,0,0:0:0:0:
134,128,24200,1,0,0:0:0:0:
161,74,24326,1,8,0:0:0:0:
233,55,24452,5,0,0:0:0:0:
339,110,24704,1,0,0:0:0:0:
341,212,24956,1,0,0:0:0:0:
222,287,25208,1,0,0:0:0:0:
222,287,25334,1,0,0:0:0:0:
157,316,25460,6,0,L|64:219,1,125,12|8,0:0|0:0,0:0:0:0:
196,181,25964,2,0,L|300:75,1,125,8|8,0:0|0:0,0:0:0:0:
385,211,26469,6,0,L|281:111,1,125,8|8,0:0|0:0,0:0:0:0:
172,141,26973,2,0,L|76:42,1,125,8|8,0:0|0:0,0:0:0:0:
87,124,27351,1,2,0:0:0:0:
87,202,27477,5,8,0:0:0:0:
227,244,27729,1,8,0:0:0:0:
84,292,27981,2,0,L|27:354,2,62.5,8|8|8,0:0|0:0|0:0,0:0:0:0:
212,281,28485,5,8,0:0:0:0:
210,198,28611,1,8,0:0:0:0:
160,176,28737,1,8,0:0:0:0:
264,92,28990,1,8,0:0:0:0:
264,92,29116,1,8,0:0:0:0:
365,256,29368,1,8,0:0:0:0:
365,256,29494,5,12,0:0:0:0:
224,272,29746,2,0,L|220:134,1,125,8|8,0:0|0:0,0:0:0:0:
333,168,30250,1,8,0:0:0:0:
375,141,30376,1,2,0:0:0:0:
416,100,30502,1,8,0:0:0:0:
372,56,30628,1,2,0:0:0:0:
327,26,30754,1,8,0:0:0:0:
192,32,31006,2,0,L|295:131,1,125,8|0,0:0|0:0,0:0:0:0:
144,176,31511,5,8,0:0:0:0:
144,176,31763,1,8,0:0:0:0:
256,208,32015,1,8,0:0:0:0:
304,256,32141,1,8,0:0:0:0:
304,304,32267,1,8,0:0:0:0:
256,336,32393,1,8,0:0:0:0:
320,336,32519,5,2,0:0:0:0:
448,336,32771,1,2,0:0:0:0:
320,272,33023,2,0,L|320:128,1,125,8|0,0:0|0:0,0:0:0:0:
256,144,33401,1,0,0:0:0:0:
192,144,33527,6,0,L|96:256,2,125,4|8|0,0:0|0:0|0:0,0:0:0:0:
320,144,34284,2,0,L|416:256,2,125,8|0|8,0:0|0:0|0:0,0:0:0:0:
192,144,35040,1,0,0:0:0:0:
80,224,35292,1,8,0:0:0:0:
80,224,35418,1,0,0:0:0:0:
144,272,35544,6,0,L|240:352,1,125,4|8,0:0|0:0,0:0:0:0:
160,144,36048,1,0,0:0:0:0:
288,144,36301,1,8,0:0:0:0:
432,240,36553,6,0,L|432:160,1,62.5,0|2,0:0|0:0,0:0:0:0:
384,176,36805,1,8,0:0:0:0:
256,160,37057,2,0,L|256:96,1,62.5,0|2,0:0|0:0,0:0:0:0:
304,80,37309,1,8,0:0:0:0:
432,208,37561,6,0,L|320:112,2,125,4|8|0,0:0|0:0|0:0,0:0:0:0:
320,320,38317,1,8,0:0:0:0:
272,288,38443,1,0,0:0:0:0:
224,256,38569,6,0,L|336:160,1,125,0|8,0:0|0:0,0:0:0:0:
192,176,39074,1,0,0:0:0:0:
144,160,39200,1,2,0:0:0:0:
96,128,39326,1,8,0:0:0:0:
192,80,39578,6,0,L|304:192,1,125,4|8,0:0|0:0,0:0:0:0:
281,218,39956,1,0,0:0:0:0:
160,320,40208,1,8,0:0:0:0:
96,304,40334,1,8,0:0:0:0:
48,256,40460,1,0,0:0:0:0:
176,192,40712,5,8,0:0:0:0:
224,160,40838,1,8,0:0:0:0:
352,80,41090,1,8,0:0:0:0:
352,80,41216,1,0,0:0:0:0:
304,112,41343,2,0,L|192:208,1,125,8|4,0:0|0:3,0:0:0:0:
256,192,41847,12,4,44620,0:3:0:0:
176,192,44872,5,0,0:0:0:0:
80,176,45124,1,4,0:3:0:0:
176,112,45376,1,4,0:3:0:0:
304,192,45628,6,0,L|416:96,1,125,4|8,0:0|0:0,0:0:0:0:
256,256,46258,2,0,L|256:176,1,62.5,2|8,0:0|0:0,0:0:0:0:
128,288,46637,5,2,0:0:0:0:
272,256,47015,1,0,0:0:0:0:
336,224,47141,2,0,L|336:144,1,62.5,4|2,0:3|0:0,0:0:0:0:
400,144,47393,1,8,0:0:0:0:
256,128,47645,6,0,L|128:16,1,125,2|8,0:0|0:0,0:0:0:0:
320,96,48275,2,0,L|320:160,1,62.5,2|8,0:0|0:0,0:0:0:0:
192,160,48653,5,2,0:0:0:0:
96,224,48906,1,8,0:0:0:0:
96,272,49032,1,0,0:0:0:0:
144,304,49158,2,0,L|240:384,1,125,4|4,0:3|0:3,0:0:0:0:
384,304,49662,6,0,L|384:160,1,125,4|8,0:0|0:0,0:0:0:0:
256,144,50166,2,0,L|256:80,1,62.5,2|8,0:0|0:0,0:0:0:0:
384,80,50544,1,2,0:0:0:0:
384,144,50670,6,0,L|272:256,1,125,8|8,0:0|0:0,0:0:0:0:
176,224,51174,2,0,L|112:160,2,62.5,2|0|8,0:0|0:0|0:0,0:0:0:0:
304,224,51679,6,0,L|416:336,1,125,2|8,0:0|0:0,0:0:0:0:
256,336,52309,2,0,L|256:256,1,62.5,8|0,0:0|0:0,0:0:0:0:
368,224,52687,6,0,L|256:112,1,125,2|2,0:0|0:0,0:0:0:0:
400,64,53191,1,2,0:0:0:0:
272,80,53443,1,8,0:0:0:0:
272,80,53569,1,0,0:0:0:0:
224,128,53695,6,0,L|128:224,1,125,4|8,0:0|0:0,0:0:0:0:
272,272,54326,2,0,L|224:320,1,62.5,2|8,0:0|0:0,0:0:0:0:
87,254,54704,5,2,0:0:0:0:
202,159,55082,1,0,0:0:0:0:
144,144,55208,2,0,L|144:64,1,62.5,4|2,0:3|0:0,0:0:0:0:
88,67,55460,1,8,0:0:0:0:
224,64,55712,6,0,L|336:160,1,125,2|8,0:0|0:0,0:0:0:0:
176,224,56343,2,0,L|240:288,1,62.5,2|0,0:0|0:0,0:0:0:0:
352,272,56721,5,2,0:0:0:0:
448,192,56973,2,0,L|448:112,1,62.5,8|0,0:0|0:0,0:0:0:0:
400,96,57225,1,4,0:3:0:0:
272,80,57477,1,4,0:3:0:0:
160,288,57729,6,0,L|32:176,1,125,4|8,0:0|0:0,0:0:0:0:
176,160,58233,2,0,L|176:96,1,62.5,2|8,0:0|0:0,0:0:0:0:
64,96,58611,1,2,0:0:0:0:
64,64,58737,6,0,L|176:160,1,125,8|8,0:0|0:0,0:0:0:0:
288,144,59242,2,0,L|352:80,2,62.5,2|0|8,0:0|0:0|0:0,0:0:0:0:
160,224,59746,6,0,L|64:320,1,125,2|8,0:0|0:0,0:0:0:0:
32,288,60124,1,2,0:0:0:0:
32,240,60250,1,0,0:0:0:0:
80,208,60376,1,8,0:0:0:0:
224,208,60628,6,0,L|381:84,1,187.5,2|8,0:0|0:0,0:0:0:0:
256,96,61258,2,0,L|256:240,1,125,8|8,0:0|0:0,0:0:0:0:
400,224,61763,5,0,0:0:0:0:
176,224,63780,6,0,L|64:112,2,125,2|0|0,0:0|0:0|0:0,0:0:0:0:
304,224,64536,1,0,0:0:0:0:
96,320,65040,1,0,0:0:0:0:
208,320,65292,1,0,0:0:0:0:
448,320,66048,5,0,0:0:0:0:
240,224,66805,2,0,L|352:112,2,125,2|0|0,0:0|0:0|0:0,0:0:0:0:
128,224,67561,1,0,0:0:0:0:
304,224,68065,5,0,0:0:0:0:
192,160,68317,2,0,L|192:16,1,125,0|0,0:0|0:0,0:0:0:0:
320,112,68822,2,0,L|320:272,1,125,0|0,0:0|0:0,0:0:0:0:
96,256,69830,6,0,L|-32:128,2,125,2|0|0,0:0|0:0|0:0,0:0:0:0:
192,256,70586,1,0,0:0:0:0:
416,224,71090,1,0,0:0:0:0:
304,224,71343,1,0,0:0:0:0:
32,224,72099,5,0,0:0:0:0:
256,304,72855,2,0,L|256:176,1,125,2|0,0:0|0:0,0:0:0:0:
144,192,73359,2,0,L|144:48,1,125,0|0,0:0|0:0,0:0:0:0:
336,64,74116,5,0,0:0:0:0:
432,128,74368,2,0,L|336:224,1,125,0|0,0:0|0:0,0:0:0:0:
224,256,74872,2,0,L|336:352,1,125,0|0,0:0|0:0,0:0:0:0:
64,320,75880,5,2,0:0:0:0:
48,224,76132,1,0,0:0:0:0:
144,192,76385,1,0,0:0:0:0:
48,144,76637,5,2,0:0:0:0:
64,48,76889,1,0,0:0:0:0:
160,48,77141,1,0,0:0:0:0:
272,48,77393,5,2,0:0:0:0:
192,112,77645,1,0,0:0:0:0:
288,160,77897,1,2,0:0:0:0:
160,208,78149,5,2,0:0:0:0:
320,224,79914,5,8,0:0:0:0:
208,208,80166,2,0,L|80:96,1,125,8|2,0:0|0:0,0:0:0:0:
267,138,80670,1,8,0:0:0:0:
367,201,80922,6,0,L|383:41,1,125,2|8,0:0|0:0,0:0:0:0:
257,303,81427,2,0,L|241:159,1,125,2|8,0:0|0:0,0:0:0:0:
96,176,81931,5,8,0:0:0:0:
208,158,82183,2,0,L|336:46,1,125,8|2,0:0|0:0,0:0:0:0:
192,64,82687,1,8,0:0:0:0:
64,160,82939,6,0,L|48:0,1,125,2|8,0:0|0:0,0:0:0:0:
179,255,83444,2,0,L|307:143,1,125,2|0,0:0|0:0,0:0:0:0:
416,192,83948,6,0,L|432:64,1,125,8|8,0:0|0:0,0:0:0:0:
336,48,84452,1,2,0:0:0:0:
432,32,84704,1,8,0:0:0:0:
304,240,84956,6,0,L|176:112,1,125,2|8,0:0|0:0,0:0:0:0:
320,352,85460,2,0,L|208:240,1,125,2|8,0:0|0:0,0:0:0:0:
96,240,85964,5,8,0:0:0:0:
112,128,86216,1,8,0:0:0:0:
192,64,86469,1,2,0:0:0:0:
288,48,86721,1,2,0:0:0:0:
160,32,86973,5,8,0:0:0:0:
32,128,87477,1,8,0:0:0:0:
224,272,87981,6,0,L|240:144,1,125,2|2,0:0|0:0,0:0:0:0:
352,208,88485,2,0,L|352:80,1,125,2|2,0:0|0:0,0:0:0:0:
464,192,88990,2,0,L|448:48,1,125,2|2,0:0|0:0,0:0:0:0:
356,319,89494,2,0,L|340:191,1,125,2|2,0:0|0:0,0:0:0:0:
209,152,89998,5,2,0:0:0:0:
118,180,90250,1,2,0:0:0:0:
115,263,90502,1,2,0:0:0:0:
209,285,90754,1,2,0:0:0:0:
326,238,91006,6,0,P|294:62|294:238,1,500,2|0,0:0|0:0,0:0:0:0:
112,272,93023,2,0,P|16:224|32:80,1,250,8|8,0:0|0:0,0:0:0:0:
112,81,93780,1,0,0:0:0:0:
224,116,94032,5,6,0:0:0:0:
224,116,94284,1,8,0:0:0:0:
329,162,94536,2,0,P|361:226|329:274,1,125,2|8,0:0|0:0,0:0:0:0:
209,313,95040,6,0,L|113:217,1,125,2|8,0:0|0:0,0:0:0:0:
217,164,95544,1,2,0:0:0:0:
317,164,95796,1,8,0:0:0:0:
457,149,96048,6,0,L|465:22,1,125,6|8,0:0|0:0,0:0:0:0:
352,231,96553,1,2,0:0:0:0:
457,269,96805,1,8,0:0:0:0:
322,333,97057,6,0,L|218:237,1,125,2|8,0:0|0:0,0:0:0:0:
110,209,97561,2,0,L|93:154,2,41.6666666666667,2|2|2,0:0|0:0|0:0,0:0:0:0:
142,207,97813,1,8,0:0:0:0:
270,206,98065,6,0,L|274:73,1,125,6|8,0:0|0:0,0:0:0:0:
394,56,98569,1,2,0:0:0:0:
276,41,98822,1,8,0:0:0:0:
140,218,99074,6,0,L|131:82,1,125,2|8,0:0|0:0,0:0:0:0:
263,307,99578,2,0,L|269:161,1,125,2|8,0:0|0:0,0:0:0:0:
139,170,100082,6,0,L|44:81,3,125,6|8|2|8,0:0|0:0|0:0|0:0,0:0:0:0:
182,80,101090,2,0,P|291:158|186:338,1,375,4|4,0:3|0:3,0:0:0:0:
53,333,102099,6,0,L|72:187,1,125,6|8,0:0|0:0,0:0:0:0:
192,201,102603,2,0,L|204:60,1,125,2|8,0:0|0:0,0:0:0:0:
328,111,103107,5,2,0:0:0:0:
218,132,103359,1,8,0:0:0:0:
104,160,103611,2,0,L|211:256,1,125,2|8,0:0|0:0,0:0:0:0:
330,241,104116,6,0,L|426:143,1,125,6|8,0:0|0:0,0:0:0:0:
316,107,104620,1,2,0:0:0:0:
418,70,104872,1,8,0:0:0:0:
280,282,105124,5,2,0:0:0:0:
242,268,105208,1,0,0:0:0:0:
219,232,105292,1,2,0:0:0:0:
220,183,105376,1,8,0:0:0:0:
291,152,105628,1,2,0:0:0:0:
412,155,105880,1,8,0:0:0:0:
280,282,106132,6,0,L|177:185,2,125,6|8|2,0:0|0:0|0:0,0:0:0:0:
411,291,106889,1,8,0:0:0:0:
280,282,107141,6,0,L|275:129,1,125,2|8,0:0|0:0,0:0:0:0:
156,156,107645,1,2,0:0:0:0:
279,156,107897,1,8,0:0:0:0:
317,142,107981,1,8,0:0:0:0:
340,106,108065,1,8,0:0:0:0:
339,57,108149,5,6,0:0:0:0:
232,306,108401,1,8,0:0:0:0:
122,245,108653,1,6,0:0:0:0:
231,199,108906,1,8,0:0:0:0:
364,275,109158,2,0,P|428:170|344:69,1,250,2|2,0:0|0:0,0:0:0:0:
126,53,111427,5,2,0:0:0:0:
230,97,111679,1,2,0:0:0:0:
333,152,111931,2,0,L|337:234,1,62.5,8|0,0:0|0:0,0:0:0:0:
271,254,112183,6,0,L|217:299,2,62.5,12|0|8,0:0|0:0|0:0,0:0:0:0:
388,203,112687,1,8,0:0:0:0:
278,159,112939,1,8,0:0:0:0:
168,100,113191,1,8,0:0:0:0:
276,59,113443,1,8,0:0:0:0:
386,36,113695,1,8,0:0:0:0:
275,141,113948,2,0,L|270:219,1,62.5,8|2,0:0|0:0,0:0:0:0:
345,221,114200,6,0,L|441:318,1,125,12|8,0:0|0:0,0:0:0:0:
312,328,114704,1,8,0:0:0:0:
197,295,114956,1,8,0:0:0:0:
91,246,115208,1,8,0:0:0:0:
200,203,115460,1,8,0:0:0:0:
321,165,115712,2,0,L|326:97,1,62.5,8|0,0:0|0:0,0:0:0:0:
253,95,115964,6,0,L|151:14,1,125,8|12,0:0|0:0,0:0:0:0:
261,189,116469,1,8,0:0:0:0:
271,288,116721,1,8,0:0:0:0:
144,338,116973,1,8,0:0:0:0:
176,282,117099,1,2,0:0:0:0:
241,245,117225,6,0,L|348:168,1,125,8|8,0:0|0:0,0:0:0:0:
244,138,117729,1,8,0:0:0:0:
138,123,117981,1,8,0:0:0:0:
271,303,118233,6,0,L|281:164,1,125,8|8,0:0|0:0,0:0:0:0:
407,163,118737,1,8,0:0:0:0:
455,130,118864,1,8,0:0:0:0:
454,82,118990,1,8,0:0:0:0:
408,50,119116,1,8,0:0:0:0:
359,77,119242,6,0,L|261:170,1,125,8|8,0:0|0:0,0:0:0:0:
388,231,119746,1,8,0:0:0:0:
388,231,119872,1,2,0:0:0:0:
339,230,119998,1,8,0:0:0:0:
193,227,120250,5,4,0:0:0:0:
138,224,120376,1,2,0:0:0:0:
138,202,120502,2,0,L|245:109,1,125,8|4,0:0|0:0,0:0:0:0:
112,76,121006,1,8,0:0:0:0:
247,72,121258,6,0,L|349:169,1,125,4|8,0:0|0:0,0:0:0:0:
227,239,121763,1,4,0:0:0:0:
115,318,122015,6,0,L|106:168,1,125,8|4,0:0|0:0,0:0:0:0:
112,112,122393,1,2,0:0:0:0:
167,76,122519,1,8,0:0:0:0:
292,102,122771,1,4,0:0:0:0:
185,163,123023,1,8,0:0:0:0:
64,220,123275,5,4,0:0:0:0:
184,262,123527,1,8,0:0:0:0:
312,258,123780,2,0,L|315:186,1,62.5,4|2,0:0|0:0,0:0:0:0:
253,178,124032,1,8,0:0:0:0:
362,79,124284,5,4,0:0:0:0:
362,79,124410,1,2,0:0:0:0:
262,69,124662,1,4,0:0:0:0:
262,69,124788,1,2,0:0:0:0:
367,169,125040,1,8,0:0:0:0:
233,267,125292,6,0,L|186:313,1,62.5,4|2,0:0|0:0,0:0:0:0:
56,221,125670,2,0,L|107:266,1,62.5,4|2,0:0|0:0,0:0:0:0:
221,258,126048,1,8,0:0:0:0:
357,322,126301,5,12,0:0:0:0:
418,300,126427,1,8,0:0:0:0:
450,250,126553,1,8,0:0:0:0:
325,226,126805,1,12,0:0:0:0:
326,170,126931,1,8,0:0:0:0:
327,119,127057,1,8,0:0:0:0:
197,248,127309,6,0,L|102:155,2,125,12|8|12,0:0|0:0|0:0,0:0:0:0:
321,249,128065,1,8,0:0:0:0:
185,337,128317,1,12,0:0:0:0:
