osu file format v14

[General]
AudioFilename: audio.mp3
AudioLeadIn: 0
PreviewTime: 32960
Countdown: 0
SampleSet: Normal
StackLeniency: 0.7
Mode: 2
LetterboxInBreaks: 0
WidescreenStoryboard: 0

[Editor]
DistanceSpacing: 0.6
BeatDivisor: 8
GridSize: 16
TimelineZoom: 3.599999

[Metadata]
Title:Ghost Family Living In Graveyard
TitleUnicode:Ghost Family Living In Graveyard
Artist:RoughSketch
ArtistUnicode:RoughSketch
Creator:Rocma
Version:Deluge
Source:SOUND VOLTEX VIVID WAVE
Tags:-luminate electronic video game instrumental sdvx hardcore ΩDimension Omega Dimension 7
BeatmapID:2140997
BeatmapSetID:1023464

[Difficulty]
HPDrainRate:5
CircleSize:4
OverallDifficulty:9.8
ApproachRate:9.8
SliderMultiplier:2.56
SliderTickRate:2

[Events]
//Background and Video events
0,0,"BG.png",0,0
//Break Periods
//Storyboard Layer 0 (Background)
//Storyboard Layer 1 (Fail)
//Storyboard Layer 2 (Pass)
//Storyboard Layer 3 (Foreground)
//Storyboard Layer 4 (Overlay)
//Storyboard Sound Samples

[TimingPoints]
1259,252.100840336134,4,2,2,40,1,0
1259,-200,4,2,2,40,0,0
5292,-133.333333333333,4,2,2,50,0,0
9326,-100,4,2,2,60,0,0
15376,-100,4,2,2,50,0,0
15628,-100,4,2,2,40,0,0
15880,-100,4,2,2,30,0,0
16132,-100,4,2,2,20,0,0
17393,-133.333333333333,4,1,2,100,0,0
20670,-133.333333333333,4,1,2,60,0,0
20922,-133.333333333333,4,1,2,30,0,0
21174,-133.333333333333,4,1,2,10,0,0
21427,-133.333333333333,4,1,2,80,0,0
24326,-66.6666666666667,4,1,2,100,0,0
25460,-133.333333333333,4,1,2,100,0,0
26216,-40,4,1,2,100,0,0
26469,-133.333333333333,4,1,2,100,0,0
31006,-66.6666666666667,4,1,2,100,0,0
31511,-133.333333333333,4,1,2,100,0,0
33023,-33.3333333333333,4,1,2,100,0,0
33527,-133.333333333333,4,1,2,100,0,1
41595,-133.333333333333,4,2,2,60,0,0
45628,-66.6666666666667,4,1,2,100,0,0
46637,-133.333333333333,4,1,2,100,0,0
47141,-66.6666666666667,4,1,2,100,0,0
47267,-133.333333333333,4,1,2,100,0,0
48149,-66.6666666666667,4,1,2,100,0,0
48275,-133.333333333333,4,1,2,100,0,0
49158,-66.6666666666667,4,1,2,100,0,0
49662,-133.333333333333,4,1,2,100,0,0
53695,-66.6666666666667,4,1,2,100,0,0
54704,-133.333333333333,4,1,2,100,0,0
55208,-66.6666666666667,4,1,2,100,0,0
55334,-133.333333333333,4,1,2,100,0,0
56216,-66.6666666666667,4,1,2,100,0,0
56342,-133.333333333333,4,1,2,100,0,0
57225,-66.6666666666667,4,1,2,100,0,0
57729,-133.333333333333,4,1,2,100,0,0
63275,-133.333333333333,4,2,2,60,0,0
79914,-133.333333333333,4,1,2,80,0,0
87981,-133.333333333333,4,1,2,30,0,0
88233,-133.333333333333,4,1,2,35,0,0
88485,-133.333333333333,4,1,2,40,0,0
88737,-133.333333333333,4,1,2,45,0,0
88990,-133.333333333333,4,1,2,50,0,0
89242,-133.333333333333,4,1,2,55,0,0
89494,-133.333333333333,4,1,2,60,0,0
89746,-133.333333333333,4,1,2,65,0,0
89998,-133.333333333333,4,1,2,70,0,0
90250,-133.333333333333,4,1,2,75,0,0
90502,-133.333333333333,4,1,2,80,0,0
90754,-133.333333333333,4,1,2,85,0,0
91006,-133.333333333333,4,1,2,90,0,0
92141,-133.333333333333,4,2,2,60,0,0
93023,-50,4,1,2,100,0,0
93527,-50,4,1,3,100,0,0
93590,-50,4,1,2,100,0,0
94032,-133.333333333333,4,1,2,100,0,1
101090,-133.333333333333,4,1,2,60,0,1
101343,-133.333333333333,4,1,2,70,0,1
101595,-133.333333333333,4,1,2,80,0,1
101847,-133.333333333333,4,1,2,90,0,1
102099,-133.333333333333,4,1,2,100,0,1
110166,-133.333333333333,4,2,2,60,0,0
111427,-133.333333333333,4,1,2,70,0,0
111679,-133.333333333333,4,1,2,80,0,0
111931,-133.333333333333,4,1,2,90,0,0
112183,-133.333333333333,4,1,2,100,0,1
119242,-133.333333333333,4,1,2,80,0,0
120250,-133.333333333333,4,1,2,100,0,1
120754,-66.6666666666667,4,1,2,100,0,1
121006,-133.333333333333,4,1,2,100,0,1
121258,-66.6666666666667,4,1,2,100,0,1
121510,-133.333333333333,4,1,2,100,0,1
122771,-66.6666666666667,4,1,2,100,0,1
123023,-133.333333333333,4,1,2,100,0,1
123275,-66.6666666666667,4,1,2,100,0,1
123527,-133.333333333333,4,1,2,100,0,1
128317,-133.333333333333,4,1,2,100,0,0

[Colours]
Combo1 : 36,68,115
Combo2 : 121,121,200
Combo3 : 184,168,181
Combo4 : 119,230,255

[HitObjects]
496,192,1259,6,0,L|352:192,2,128,2|0|0,0:0|0:0|0:0,0:0:0:0:
496,128,2267,6,0,L|416:128,4,64,2|0|0|0|0,0:0|0:0|0:0|0:0|0:0,0:0:0:0:
496,288,3275,6,0,B|432:288|432:288|432:160|432:160|352:160,1,256,2|0,0:0|0:0,0:0:0:0:
496,256,4284,6,0,L|416:256,1,64,2|0,0:0|0:0,0:0:0:0:
368,224,4536,2,0,L|448:224,1,64
496,192,4788,1,0,0:0:0:0:
368,208,5040,2,0,L|368:128,1,64
16,192,5292,6,0,L|208:192,2,192,2|0|0,0:0|0:0|0:0,0:0:0:0:
16,128,6301,6,0,L|144:128,4,96.0000036621095,2|0|0|0|0,0:0|0:0|0:0|0:0|0:0,0:0:0:0:
16,288,7309,6,0,B|112:288|112:288|112:96|112:96|224:96,1,384,2|0,0:0|0:0,0:0:0:0:
16,256,8317,6,0,L|128:256,1,96.0000036621095,2|0,0:0|0:0,0:0:0:0:
208,224,8569,2,0,L|96:224,1,96.0000036621095
16,192,8821,1,0,0:0:0:0:
208,176,9073,2,0,L|208:64,1,96.0000036621095
496,336,9326,6,0,L|496:80,1,256,2|0,0:0|0:0,0:0:0:0:
224,64,9830,1,2,0:0:0:0:
496,64,10082,1,2,0:0:0:0:
400,336,10334,6,0,L|400:80,1,256,2|0,0:0|0:0,0:0:0:0:
128,64,10838,1,2,0:0:0:0:
400,64,11090,1,2,0:0:0:0:
400,128,11216,1,2,0:0:0:0:
320,336,11343,6,0,L|320:80,1,256,2|0,0:0|0:0,0:0:0:0:
48,64,11847,1,2,0:0:0:0:
320,64,12099,1,2,0:0:0:0:
208,336,12351,6,0,L|208:80,1,256,2|0,0:0|0:0,0:0:0:0:
480,80,12855,1,2,0:0:0:0:
416,112,12918,2,0,L|416:176,1,64
288,208,13107,2,2,L|288:352,1,128
64,288,13359,5,2,0:0:0:0:
224,256,13422,2,0,L|224:192,1,64
96,192,13611,2,0,L|96:48,1,128,2|0,0:0|0:0,0:0:0:0:
240,160,13864,2,0,L|240:16,1,128,2|0,0:0|0:0,0:0:0:0:
384,192,14116,2,0,L|240:192,1,128,2|0,0:0|0:0,0:0:0:0:
448,288,14368,5,2,0:0:0:0:
288,256,14431,2,0,L|288:192,1,64
416,192,14620,2,0,L|416:48,1,128,2|0,0:0|0:0,0:0:0:0:
272,160,14872,5,2,0:0:0:0:
432,144,14935,2,0,L|432:64,1,64
288,48,15124,2,0,L|416:48,1,128,2|0,0:0|0:0,0:0:0:0:
144,336,15376,5,2,0:0:0:0:
128,304,15439,1,0,0:0:0:0:
205,321,15502,1,0,0:0:0:0:
189,289,15565,1,0,0:0:0:0:
252,278,15628,1,0,0:0:0:0:
236,246,15691,1,0,0:0:0:0:
272,218,15754,1,0,0:0:0:0:
256,186,15817,1,0,0:0:0:0:
160,48,15880,5,0,0:0:0:0:
101,70,15943,1,0,0:0:0:0:
76,127,16006,1,0,0:0:0:0:
99,185,16069,1,0,0:0:0:0:
160,48,16132,1,0,0:0:0:0:
218,70,16195,1,0,0:0:0:0:
243,127,16258,1,0,0:0:0:0:
220,185,16321,1,0,0:0:0:0:
128,224,16385,1,0,0:0:0:0:
256,192,16511,12,0,17141,0:0:0:0:
192,256,17393,6,0,L|192:96,1,144.000005493164,2|0,0:0|0:0,0:0:0:0:
336,96,17645,2,0,L|176:96,1,144.000005493164,8|0,0:0|0:0,0:0:0:0:
336,96,17897,2,0,L|176:96,1,144.000005493164,8|0,0:0|0:0,0:0:0:0:
336,96,18149,2,0,L|176:96,1,144.000005493164,8|0,0:0|0:0,0:0:0:0:
352,336,18401,6,0,L|352:176,1,144.000005493164,8|0,0:0|0:0,0:0:0:0:
256,304,18653,2,0,L|256:144,1,144.000005493164,8|0,0:0|0:0,0:0:0:0:
160,288,18906,2,0,L|160:128,1,144.000005493164,8|0,0:0|0:0,0:0:0:0:
64,256,19158,2,0,L|64:96,1,144.000005493164,8|0,0:0|0:0,0:0:0:0:
240,192,19410,6,0,L|400:192,1,144.000005493164,8|0,0:0|0:0,0:0:0:0:
240,192,19662,2,0,L|400:192,1,144.000005493164,8|0,0:0|0:0,0:0:0:0:
240,192,19914,2,0,L|400:192,1,144.000005493164,8|0,0:0|0:0,0:0:0:0:
240,192,20166,2,0,L|400:192,1,144.000005493164,8|0,0:0|0:0,0:0:0:0:
192,320,20418,6,0,P|128:256|187:216,1,144.000005493164,8|0,0:0|0:0,0:0:0:0:
192,192,20670,2,0,L|368:192,1,144.000005493164,8|0,0:0|0:0,0:0:0:0:
380,98,20922,2,0,P|395:162|335:191,1,144.000005493164
288,176,21174,2,0,P|272:111|332:82,1,144.000005493164
160,144,21427,6,0,L|160:256,1,96.0000036621095,2|0,0:0|0:0,0:0:0:0:
288,224,21679,2,0,L|288:336,1,96.0000036621095,8|0,0:0|0:0,0:0:0:0:
416,144,21931,2,0,L|416:256,1,96.0000036621095
288,224,22183,2,0,L|288:336,1,96.0000036621095,8|0,0:0|0:0,0:0:0:0:
64,288,22435,6,0,L|176:288,1,96.0000036621095
288,256,22687,2,0,L|176:256,1,96.0000036621095,8|0,0:0|0:0,0:0:0:0:
384,192,22939,1,0,0:0:0:0:
320,176,23002,2,0,L|320:128,1,48.0000018310548,0|8,0:0|0:0,0:0:0:0:
448,80,23191,2,0,L|336:80,1,96.0000036621095,8|0,0:0|0:0,0:0:0:0:
112,240,23443,6,0,L|112:176,1,48.0000018310548,8|0,0:0|0:0,0:0:0:0:
256,208,23569,2,0,L|256:112,1,96.0000036621095,0|8,0:0|0:0,0:0:0:0:
128,112,23822,1,8,0:0:0:0:
400,240,23948,6,0,L|400:176,1,48.0000018310548,8|0,0:0|0:0,0:0:0:0:
256,208,24074,2,8,L|352:208,1,96.0000036621095,0|8,0:0|0:0,0:0:0:0:
160,160,24326,2,0,B|352:160|352:160|352:352|352:352|320:352|320:352|320:320|320:320|288:320|288:320|288:288|288:288|256:288|256:288|256:256|256:256|256:64|256:64|64:64|64:64|64:176|64:176|64:256|64:256|256:256,1,1344.00005126953,8|0,0:0|0:0,0:0:0:0:
64,240,25334,1,0,0:0:0:0:
496,320,25460,6,0,L|496:160,1,144.000005493164,12|0,0:0|0:0,0:0:0:0:
336,288,25712,2,0,L|336:128,1,144.000005493164,8|0,0:0|0:0,0:0:0:0:
176,144,25964,2,0,L|176:288,1,144.000005493164,8|0,0:0|0:0,0:0:0:0:
16,48,26216,2,0,B|16:368|16:368|176:368,1,480,8|2,0:0|0:0,0:0:0:0:
16,320,26469,6,0,L|16:160,1,144.000005493164,8|0,0:0|0:0,0:0:0:0:
176,288,26721,2,0,L|176:128,1,144.000005493164,8|0,0:0|0:0,0:0:0:0:
336,144,26973,2,0,L|336:288,1,144.000005493164,8|0,0:0|0:0,0:0:0:0:
496,96,27225,1,8,0:0:0:0:
304,96,27351,1,2,0:0:0:0:
496,320,27477,6,0,L|496:160,1,144.000005493164,8|0,0:0|0:0,0:0:0:0:
336,288,27729,2,0,L|336:128,1,144.000005493164,8|0,0:0|0:0,0:0:0:0:
176,144,27981,2,0,L|176:192,1,48.0000018310548,8|0,0:0|0:0,0:0:0:0:
336,208,28107,2,0,L|336:272,1,48.0000018310548,8|0,0:0|0:0,0:0:0:0:
496,256,28233,2,0,L|496:304,1,48.0000018310548,8|0,0:0|0:0,0:0:0:0:
16,304,28485,6,0,L|16:256,1,48.0000018310548,8|0,0:0|0:0,0:0:0:0:
176,256,28611,2,0,L|176:208,1,48.0000018310548,8|0,0:0|0:0,0:0:0:0:
16,208,28737,2,0,L|16:160,1,48.0000018310548,8|0,0:0|0:0,0:0:0:0:
336,256,28990,2,0,L|336:192,1,48.0000018310548,8|0,0:0|0:0,0:0:0:0:
16,224,29116,2,0,L|16:176,1,48.0000018310548,8|0,0:0|0:0,0:0:0:0:
496,224,29368,2,0,L|496:176,1,48.0000018310548,8|0,0:0|0:0,0:0:0:0:
16,320,29494,6,0,P|41:241|15:186,1,144.000005493164,12|0,0:0|0:0,0:0:0:0:
176,320,29746,2,0,P|201:241|175:186,1,144.000005493164,8|0,0:0|0:0,0:0:0:0:
336,320,29998,2,0,P|361:241|335:186,1,144.000005493164,8|0,0:0|0:0,0:0:0:0:
496,320,30250,1,8,0:0:0:0:
304,304,30376,1,2,0:0:0:0:
16,320,30502,5,8,0:0:0:0:
208,304,30628,1,2,0:0:0:0:
96,256,30754,1,8,0:0:0:0:
288,240,30880,1,2,0:0:0:0:
48,112,31006,2,0,B|240:112|240:112|240:160|240:160|288:160|288:160|288:208|288:208|336:208|336:208|336:304|336:304|400:304|400:304|400:256,1,576.000021972657,8|0,0:0|0:0,0:0:0:0:
16,192,31511,6,0,P|-8:258|17:323,1,144.000005493164,8|0,0:0|0:0,0:0:0:0:
176,192,31763,2,0,P|151:258|177:323,1,144.000005493164,8|0,0:0|0:0,0:0:0:0:
336,192,32015,2,0,L|320:256,1,48.0000018310548,8|0,0:0|0:0,0:0:0:0:
144,240,32141,2,0,L|128:304,1,48.0000018310548,8|0,0:0|0:0,0:0:0:0:
276,238,32267,2,0,L|292:302,1,48.0000018310548,8|0,0:0|0:0,0:0:0:0:
468,286,32393,2,0,L|484:350,1,48.0000018310548,8|0,0:0|0:0,0:0:0:0:
256,336,32519,5,2,0:0:0:0:
192,208,32771,1,2,0:0:0:0:
256,192,32834,1,0,0:0:0:0:
259,138,32897,1,2,0:0:0:0:
496,352,33023,2,0,B|480:352|480:352|480:336|480:336|464:336|464:336|464:320|464:320|448:320|448:320|448:304|448:304|432:304|432:304|432:288|432:288|416:288|416:288|416:272|416:272|400:272|400:272|400:256|400:256|384:256|384:256|384:240|384:240|368:240|368:240|368:224|368:224|352:224|352:224|352:208|352:208|336:208|336:208|336:192|336:192|320:192|320:192|320:176|320:176|304:176|304:176|304:64|304:64|288:64|288:64|288:176|288:176|272:176|272:176|272:64|272:64|256:64|256:64|256:80|256:80|16:80|16:80|16:256,1,1152.00004394531,8|0,0:0|0:0,0:0:0:0:
240,336,33527,6,0,L|256:160,1,144.000005493164,4|0,0:0|0:0,0:0:0:0:
400,160,33780,1,8,0:0:0:0:
288,160,33906,1,0,0:0:0:0:
496,64,34032,1,0,0:0:0:0:
288,64,34158,1,0,0:0:0:0:
496,160,34284,1,8,0:0:0:0:
384,160,34410,1,0,0:0:0:0:
128,160,34536,5,0,0:0:0:0:
240,160,34662,2,0,L|240:240,1,48.0000018310548
96,224,34788,1,8,0:0:0:0:
208,224,34914,1,0,0:0:0:0:
416,288,35040,1,0,0:0:0:0:
304,288,35166,1,2,0:0:0:0:
96,272,35292,1,8,0:0:0:0:
416,272,35418,1,0,0:0:0:0:
144,208,35544,6,0,L|160:48,1,144.000005493164,4|0,0:0|0:0,0:0:0:0:
304,80,35796,1,8,0:0:0:0:
192,80,35922,1,0,0:0:0:0:
432,192,36048,1,0,0:0:0:0:
176,144,36174,1,0,0:0:0:0:
392,256,36301,1,8,0:0:0:0:
272,256,36427,1,0,0:0:0:0:
80,272,36553,5,0,0:0:0:0:
192,256,36679,2,0,L|208:192,1,48.0000018310548,2|0,0:0|0:0,0:0:0:0:
368,208,36805,2,0,L|400:96,1,96.0000036621095,8|0,0:0|0:0,0:0:0:0:
208,96,37057,1,0,0:0:0:0:
400,96,37183,1,2,0:0:0:0:
208,160,37309,2,0,L|336:160,1,96.0000036621095,8|0,0:0|0:0,0:0:0:0:
80,320,37561,6,0,L|64:160,1,144.000005493164,4|0,0:0|0:0,0:0:0:0:
208,160,37813,1,8,0:0:0:0:
96,160,37939,1,0,0:0:0:0:
304,96,38065,1,0,0:0:0:0:
192,96,38191,1,0,0:0:0:0:
400,192,38317,1,8,0:0:0:0:
192,208,38443,1,0,0:0:0:0:
400,320,38569,6,0,L|416:256,1,48.0000018310548
256,256,38695,1,0,0:0:0:0:
464,224,38822,1,8,0:0:0:0:
352,224,38948,1,0,0:0:0:0:
112,176,39074,1,0,0:0:0:0:
304,160,39200,1,2,0:0:0:0:
112,96,39326,2,0,L|96:160,1,48.0000018310548,8|0,0:0|0:0,0:0:0:0:
240,160,39452,1,0,0:0:0:0:
32,256,39578,5,4,0:0:0:0:
144,256,39704,1,0,0:0:0:0:
368,304,39830,1,8,0:0:0:0:
160,304,39956,1,0,0:0:0:0:
480,256,40208,1,8,0:0:0:0:
256,256,40334,1,8,0:0:0:0:
32,256,40460,1,0,0:0:0:0:
368,208,40712,5,8,0:0:0:0:
144,208,40838,1,8,0:0:0:0:
256,208,40964,1,0,0:0:0:0:
64,208,41090,6,0,L|16:208,1,48.0000018310548,8|0,0:0|0:0,0:0:0:0:
208,176,41216,2,0,L|272:176,1,48.0000018310548
80,144,41343,2,0,L|64:80,1,48.0000018310548,8|0,0:0|0:0,0:0:0:0:
144,112,41469,2,0,L|160:48,1,48.0000018310548
80,192,41595,6,0,B|80:288|80:288|176:288|176:288|176:192|176:192|272:192|272:192|176:192|176:192|368:192,1,672.000025634767,4|0,0:3|0:0,0:0:0:0:
176,256,42603,6,0,B|80:256|80:256|208:256,1,192.000007324219,2|0,0:0|0:0,0:0:0:0:
304,256,42981,1,0,0:0:0:0:
176,208,43107,2,0,B|80:208|80:208|176:208|176:208|80:208,1,288.000010986329,2|0,0:0|0:0,0:0:0:0:
400,256,43611,6,0,L|416:176,1,48.0000018310548,2|0,0:0|0:0,0:0:0:0:
336,208,43737,2,0,L|336:160,1,48.0000018310548,2|0,0:0|0:0,0:0:0:0:
256,176,43864,2,0,L|240:96,1,48.0000018310548,2|0,0:0|0:0,0:0:0:0:
176,160,43990,2,0,L|160:80,1,48.0000018310548,2|0,0:0|0:0,0:0:0:0:
432,192,44116,2,0,L|480:144,1,48.0000018310548,2|0,0:0|0:0,0:0:0:0:
384,128,44242,2,0,L|384:80,1,48.0000018310548,2|0,0:0|0:0,0:0:0:0:
304,80,44368,2,0,L|256:32,1,48.0000018310548,2|0,0:0|0:0,0:0:0:0:
432,192,44494,2,0,L|480:144,1,48.0000018310548,2|0,0:0|0:0,0:0:0:0:
160,272,44620,6,0,L|160:256,1,12.0000004577637,4|0,0:3|0:0,0:0:0:0:
208,256,44683,2,0,L|208:240,1,12.0000004577637
256,240,44746,2,0,L|256:224,1,12.0000004577637
80,208,44872,2,0,L|80:192,1,12.0000004577637
176,176,44998,2,0,L|176:160,1,12.0000004577637
80,144,45124,6,0,L|80:112,6,24.0000009155274,4|0|0|0|0|0|0,0:3|0:0|0:0|0:0|0:0|0:0|0:0,0:0:0:0:
160,144,45376,2,0,L|160:112,6,24.0000009155274,4|0|0|0|0|0|0,0:3|0:0|0:0|0:0|0:0|0:0|0:0,0:0:0:0:
432,304,45628,6,0,B|240:304|240:304|240:208,1,288.000010986329,4|0,0:0|0:0,0:0:0:0:
432,208,45880,2,0,L|432:80,1,96.0000036621095,8|0,0:0|0:0,0:0:0:0:
352,176,46006,2,0,L|352:80,1,96.0000036621095
96,128,46132,2,0,L|64:128,1,24.0000009155274,4|0,0:3|0:0,0:0:0:0:
432,208,46258,2,0,L|432:112,1,96.0000036621095,2|0,0:0|0:0,0:0:0:0:
352,176,46385,2,0,L|352:48,1,96.0000036621095,8|0,0:0|0:0,0:0:0:0:
432,208,46511,2,0,L|432:112,1,96.0000036621095
240,288,46637,6,0,B|240:192|240:192|304:192,1,144.000005493164,2|0,0:0|0:0,0:0:0:0:
432,208,46889,2,0,L|432:144,1,48.0000018310548,8|0,0:0|0:0,0:0:0:0:
352,176,47015,2,0,L|352:128,1,48.0000018310548
96,128,47141,2,0,L|64:128,1,24.0000009155274,4|0,0:3|0:0,0:0:0:0:
352,176,47267,2,0,L|352:112,1,48.0000018310548,2|0,0:0|0:0,0:0:0:0:
272,128,47393,2,0,L|272:80,1,48.0000018310548,8|0,0:0|0:0,0:0:0:0:
192,176,47519,2,0,L|192:112,1,48.0000018310548
432,320,47645,6,0,B|480:320|480:320|480:272|480:272|432:272,1,144.000005493164,2|0,0:0|0:0,0:0:0:0:
272,256,47897,2,0,L|272:208,1,48.0000018310548,8|0,0:0|0:0,0:0:0:0:
352,224,48023,2,0,L|352:176,1,48.0000018310548
96,128,48149,2,0,L|64:128,1,24.0000009155274,4|0,0:3|0:0,0:0:0:0:
272,144,48275,2,0,L|272:96,1,48.0000018310548,2|0,0:0|0:0,0:0:0:0:
352,128,48401,2,0,L|352:80,1,48.0000018310548,8|0,0:0|0:0,0:0:0:0:
432,112,48527,2,0,L|432:48,1,48.0000018310548
208,304,48653,6,0,B|208:208|208:208|272:208,1,144.000005493164,2|0,0:0|0:0,0:0:0:0:
448,208,48906,2,0,L|448:160,1,48.0000018310548,8|0,0:0|0:0,0:0:0:0:
384,176,49032,2,0,L|384:112,1,48.0000018310548
160,128,49158,2,0,L|128:128,1,24.0000009155274,4|0,0:3|0:0,0:0:0:0:
384,112,49284,1,2,0:0:0:0:
160,64,49410,2,0,L|192:64,1,24.0000009155274,4|0,0:3|0:0,0:0:0:0:
384,48,49536,1,0,0:0:0:0:
48,272,49662,6,0,L|208:272,1,144.000005493164,4|0,0:0|0:0,0:0:0:0:
352,240,49914,2,0,L|224:240,1,96.0000036621095,8|0,0:0|0:0,0:0:0:0:
448,192,50166,1,2,0:0:0:0:
256,144,50292,2,0,L|464:144,1,192.000007324219,8|2,0:0|0:0,0:0:0:0:
224,224,50670,6,0,L|48:224,1,144.000005493164,8|0,0:0|0:0,0:0:0:0:
240,176,50922,2,8,L|368:176,1,96.0000036621095
128,144,51174,2,0,L|112:96,1,48.0000018310548,2|0,0:0|0:0,0:0:0:0:
256,96,51301,2,0,L|272:48,1,48.0000018310548
128,144,51427,2,0,L|112:32,1,96.0000036621095,8|0,0:0|0:0,0:0:0:0:
400,304,51679,6,0,L|416:144,1,144.000005493164,2|0,0:0|0:0,0:0:0:0:
256,208,51931,2,0,L|240:96,1,96.0000036621095,8|0,0:0|0:0,0:0:0:0:
432,96,52183,1,2,0:0:0:0:
240,48,52309,2,0,L|432:48,1,192.000007324219,8|0,0:0|0:0,0:0:0:0:
224,256,52687,5,2,0:0:0:0:
200,252,52718,1,0,0:0:0:0:
182,237,52750,1,0,0:0:0:0:
174,215,52781,1,0,0:0:0:0:
180,192,52813,1,0,0:0:0:0:
197,175,52844,1,0,0:0:0:0:
220,170,52876,1,0,0:0:0:0:
416,144,52939,1,2,0:0:0:0:
224,112,53065,1,8,0:0:0:0:
416,80,53191,5,2,0:0:0:0:
480,112,53254,2,0,L|480:224,1,96.0000036621095,8|0,0:0|0:0,0:0:0:0:
304,176,53443,2,0,L|304:272,1,96.0000036621095,8|0,0:0|0:0,0:0:0:0:
80,304,53695,6,0,B|272:304|272:304|272:208,1,288.000010986329,4|0,0:0|0:0,0:0:0:0:
80,208,53947,2,0,L|80:80,1,96.0000036621095,8|0,0:0|0:0,0:0:0:0:
160,176,54073,2,0,L|160:80,1,96.0000036621095
416,128,54199,2,0,L|448:128,1,24.0000009155274,4|0,0:3|0:0,0:0:0:0:
80,208,54325,2,0,L|80:112,1,96.0000036621095,2|0,0:0|0:0,0:0:0:0:
160,176,54452,2,0,L|160:48,1,96.0000036621095,8|0,0:0|0:0,0:0:0:0:
80,208,54578,2,0,L|80:112,1,96.0000036621095
272,288,54704,6,0,B|272:192|272:192|208:192,1,144.000005493164,2|0,0:0|0:0,0:0:0:0:
80,208,54956,2,0,L|80:144,1,48.0000018310548,8|0,0:0|0:0,0:0:0:0:
160,176,55082,2,0,L|160:128,1,48.0000018310548
416,128,55208,2,0,L|448:128,1,24.0000009155274,4|0,0:3|0:0,0:0:0:0:
160,176,55334,2,0,L|160:112,1,48.0000018310548,2|0,0:0|0:0,0:0:0:0:
240,128,55460,2,0,L|240:80,1,48.0000018310548,8|0,0:0|0:0,0:0:0:0:
320,176,55586,2,0,L|320:112,1,48.0000018310548
80,336,55712,6,0,B|32:336|32:336|32:288|32:288|80:288,1,144.000005493164,2|0,0:0|0:0,0:0:0:0:
240,256,55964,2,0,L|240:208,1,48.0000018310548,8|0,0:0|0:0,0:0:0:0:
160,224,56090,2,0,L|160:176,1,48.0000018310548
416,128,56216,2,0,L|448:128,1,24.0000009155274,4|0,0:3|0:0,0:0:0:0:
240,144,56342,2,0,L|240:96,1,48.0000018310548,2|0,0:0|0:0,0:0:0:0:
160,128,56468,2,0,L|160:80,1,48.0000018310548,8|0,0:0|0:0,0:0:0:0:
80,112,56594,2,0,L|80:48,1,48.0000018310548
304,304,56720,6,0,B|304:208|304:208|240:208,1,144.000005493164,2|0,0:0|0:0,0:0:0:0:
64,208,56973,2,0,L|64:160,1,48.0000018310548,8|0,0:0|0:0,0:0:0:0:
128,160,57099,2,0,L|128:96,1,48.0000018310548
352,128,57225,2,0,L|384:128,1,24.0000009155274,4|0,0:3|0:0,0:0:0:0:
128,112,57351,1,2,0:0:0:0:
352,64,57477,2,0,L|320:64,1,24.0000009155274,4|0,0:3|0:0,0:0:0:0:
128,48,57603,1,0,0:0:0:0:
464,272,57729,6,0,L|304:272,1,144.000005493164,4|0,0:0|0:0,0:0:0:0:
160,240,57981,2,0,L|288:240,1,96.0000036621095,8|0,0:0|0:0,0:0:0:0:
64,192,58233,1,2,0:0:0:0:
256,144,58359,2,0,L|48:144,1,192.000007324219,8|2,0:0|0:0,0:0:0:0:
288,224,58737,6,0,L|464:224,1,144.000005493164,8|0,0:0|0:0,0:0:0:0:
272,176,58989,2,8,L|144:176,1,96.0000036621095
384,144,59241,2,0,L|400:96,1,48.0000018310548,2|0,0:0|0:0,0:0:0:0:
256,96,59368,2,0,L|240:48,1,48.0000018310548
384,144,59494,2,0,L|400:32,1,96.0000036621095,8|0,0:0|0:0,0:0:0:0:
112,304,59746,6,0,L|96:144,1,144.000005493164,2|0,0:0|0:0,0:0:0:0:
256,208,59998,2,0,L|272:96,1,96.0000036621095,8|2,0:0|0:0,0:0:0:0:
80,96,60250,1,0,0:0:0:0:
432,96,60376,2,0,L|448:96,1,12.0000004577637,8|0,0:0|0:0,0:0:0:0:
80,96,60628,5,2,0:0:0:0:
56,98,60659,1,0,0:0:0:0:
35,109,60691,1,0,0:0:0:0:
20,128,60722,1,0,0:0:0:0:
15,151,60754,1,0,0:0:0:0:
19,175,60785,1,0,0:0:0:0:
32,195,60817,1,0,0:0:0:0:
52,208,60848,1,0,0:0:0:0:
75,212,60880,1,0,0:0:0:0:
320,224,61006,5,8,0:0:0:0:
208,224,61132,1,8,0:0:0:0:
400,304,61258,2,0,L|352:304,1,48.0000018310548,8|0,0:0|0:0,0:0:0:0:
160,304,61385,2,0,L|112:304,1,48.0000018310548,8|0,0:0|0:0,0:0:0:0:
256,272,61511,2,0,L|256:80,1,192.000007324219,8|0,0:0|0:0,0:0:0:0:
256,192,61889,12,0,63275,0:0:0:0:
256,320,63780,6,0,P|208:304|284:220,2,192.000007324219,2|0|0,0:0|0:0|0:0,0:0:0:0:
256,336,64536,2,0,B|352:336|352:336|314:242|314:242|352:160|352:160|256:160,1,384.000014648438
256,336,65292,2,0,B|256:240|256:240|160:240|160:240|256:240|256:240|256:144,1,384.000014648438
256,320,66048,2,0,B|352:320|352:320|352:128|352:128|256:128,1,384.000014648438
112,320,66805,6,0,P|160:304|84:220,2,192.000007324219,2|0|0,0:0|0:0|0:0,0:0:0:0:
112,320,67561,2,0,P|48:272|127:11,1,384.000014648438
112,320,68317,2,0,P|128:240|224:176,2,192.000007324219
112,320,69074,2,0,P|182:233|395:342,1,384.000014648438
400,320,69830,6,0,P|448:304|372:220,2,192.000007324219,2|0|0,0:0|0:0|0:0,0:0:0:0:
400,320,70586,2,0,P|310:278|414:75,1,384.000014648438
400,320,71343,2,0,B|388:217|269:200|269:200|388:217|400:320,1,384.000014648438
400,320,72099,2,0,B|288:352|328:194|328:194|384:32|224:80,1,384.000014648438
256,320,72855,6,0,B|208:320|208:320|208:272|208:272|208:224|208:224|256:224,2,192.000007324219,2|0|0,0:0|0:0|0:0,0:0:0:0:
256,336,73611,2,0,B|284:246|284:246|192:208|192:208|167:118|167:118|256:80,1,384.000014648438
256,336,74368,2,0,B|271:241|271:241|375:242,2,192.000007324219
256,352,75124,1,0,0:0:0:0:
144,208,75880,5,2,0:0:0:0:
256,208,76132,1,0,0:0:0:0:
368,208,76385,1,0,0:0:0:0:
112,160,76637,1,2,0:0:0:0:
256,160,76889,1,0,0:0:0:0:
400,160,77141,1,0,0:0:0:0:
80,112,77393,1,2,0:0:0:0:
256,112,77645,1,0,0:0:0:0:
432,112,77897,1,2,0:0:0:0:
48,64,78149,5,2,0:0:0:0:
256,192,78275,12,0,79662,0:0:0:0:
128,304,79914,6,0,L|208:304,2,64.0000024414063,8|0|0,0:0|0:0|0:0,0:0:0:0:
224,0,80166,2,0,L|240:192,1,192.000007324219,8|2,0:0|0:0,0:0:0:0:
384,32,80670,1,8,0:0:0:0:
208,32,80838,1,0,0:0:0:0:
384,128,80922,5,2,0:0:0:0:
464,128,81006,1,0,0:0:0:0:
384,128,81090,1,2,0:0:0:0:
464,128,81174,2,0,L|464:256,1,128.000004882813,8|2,0:0|0:0,0:0:0:0:
272,208,81427,5,2,0:0:0:0:
352,208,81511,1,0,0:0:0:0:
272,208,81595,1,2,0:0:0:0:
352,208,81679,2,0,L|352:336,1,128.000004882813,8|2,0:0|0:0,0:0:0:0:
160,272,81931,5,8,0:0:0:0:
96,272,82015,1,0,0:0:0:0:
32,272,82099,1,0,0:0:0:0:
112,192,82183,2,0,L|144:0,1,192.000007324219,8|2,0:0|0:0,0:0:0:0:
464,32,82687,1,8,0:0:0:0:
288,32,82855,1,8,0:0:0:0:
112,112,82939,6,0,L|192:112,2,64.0000024414063,2|0|8,0:0|0:0|0:0,0:0:0:0:
32,112,83191,2,0,L|32:256,1,128.000004882813,8|2,0:0|0:0,0:0:0:0:
208,176,83443,6,0,L|128:176,2,64.0000024414063,2|0|8,0:0|0:0|0:0,0:0:0:0:
288,176,83695,2,0,L|288:320,1,128.000004882813,8|2,0:0|0:0,0:0:0:0:
464,240,83948,6,0,L|400:240,2,64.0000024414063,8|0|0,0:0|0:0|0:0,0:0:0:0:
368,16,84200,2,0,L|338:205,1,192.000007324219,8|2,0:0|0:0,0:0:0:0:
128,64,84704,1,8,0:0:0:0:
288,64,84872,1,0,0:0:0:0:
80,160,84956,6,0,L|80:240,1,64.0000024414063,2|0,0:0|0:0,0:0:0:0:
176,240,85124,1,2,0:0:0:0:
176,320,85208,2,0,L|71:224,1,128.000004882813,10|2,0:0|0:0,0:0:0:0:
256,176,85460,6,0,L|256:256,1,64.0000024414063,2|0,0:0|0:0,0:0:0:0:
352,256,85628,1,2,0:0:0:0:
352,352,85712,2,0,L|457:256,1,128.000004882813,10|2,0:0|0:0,0:0:0:0:
208,128,85964,5,8,0:0:0:0:
272,128,86048,1,0,0:0:0:0:
336,128,86132,1,0,0:0:0:0:
256,160,86216,2,0,L|272:368,1,192.000007324219,8|2,0:0|0:0,0:0:0:0:
352,352,86553,1,2,0:0:0:0:
192,352,86637,1,2,0:0:0:0:
352,304,86721,1,2,0:0:0:0:
272,304,86805,1,2,0:0:0:0:
112,304,86889,1,2,0:0:0:0:
368,272,86973,5,8,0:0:0:0:
410,251,87057,1,0,0:0:0:0:
410,164,87141,1,0,0:0:0:0:
368,143,87225,1,8,0:0:0:0:
144,272,87477,5,8,0:0:0:0:
101,251,87561,1,0,0:0:0:0:
101,164,87645,1,0,0:0:0:0:
143,143,87729,1,8,0:0:0:0:
224,128,87813,1,8,0:0:0:0:
304,112,87897,1,8,0:0:0:0:
16,336,87981,6,0,L|16:176,1,160.000006103516,2|0,0:0|0:0,0:0:0:0:
16,176,88233,2,0,L|65:341,1,160.000006103516,2|0,0:0|0:0,0:0:0:0:
80,320,88485,2,0,L|167:177,1,160.000006103516,2|0,0:0|0:0,0:0:0:0:
192,192,88737,2,0,L|309:310,1,160.000006103516,2|0,0:0|0:0,0:0:0:0:
339,300,88990,6,0,L|502:299,1,160.000006103516,2|0,0:0|0:0,0:0:0:0:
453,306,89242,2,0,L|283:306,1,160.000006103516,2|0,0:0|0:0,0:0:0:0:
247,307,89494,2,0,L|68:306,1,160.000006103516,2|0,0:0|0:0,0:0:0:0:
134,238,89746,2,0,L|256:240,1,96.0000036621095,2|0,0:0|0:0,0:0:0:0:
229,239,89914,1,0,0:0:0:0:
432,272,89998,6,0,L|451:113,1,160.000006103516,2|0,0:0|0:0,0:0:0:0:
384,224,90250,2,0,L|323:75,1,160.000006103516,2|0,0:0|0:0,0:0:0:0:
259,182,90502,2,0,L|373:55,1,160.000006103516,2|0,0:0|0:0,0:0:0:0:
296,175,90754,2,0,L|125:129,1,160.000006103516,2|0,0:0|0:0,0:0:0:0:
304,288,91006,6,0,L|320:224,2,64.0000024414063,2|0|2,0:0|0:0|0:0,0:0:0:0:
224,224,91258,2,0,L|281:167,2,64.0000024414063,2|0|2,0:0|0:0|0:0,0:0:0:0:
32,208,91511,2,0,L|112:208,2,64.0000024414063,2|0|2,0:0|0:0|0:0,0:0:0:0:
240,176,91763,1,2,0:0:0:0:
160,176,91847,1,0,0:0:0:0:
368,160,91931,1,2,0:0:0:0:
256,192,92141,12,0,92519,0:0:0:0:
64,64,93023,6,0,B|320:64|320:64|320:80|320:80|336:80|336:80|336:96|336:96|352:96|352:96|352:112|352:112|368:112|368:112|368:128|368:128|384:128|384:128|384:144|384:144|400:144|400:144|400:160|400:160|416:160|416:160|416:176|416:176|432:176|432:176|432:192|432:192|448:192|448:192|192:192|192:192|192:208|192:208|176:208|176:208|176:224|176:224|160:224|160:224|160:240|160:240|144:240|144:240|144:256|144:256|128:256|128:256|128:272|128:272|112:272|112:272|112:288|112:288|96:288|96:288|96:304|96:304|80:304|80:304|80:320|80:320|64:320|64:320|320:320|320:320|320:304|320:304|336:304|336:304|336:288|336:288|352:288|352:288|352:272|352:272|368:272|368:272|368:256|368:256|384:256|384:256|384:240|384:240|400:240|400:240|400:224|400:224|416:224|416:224|416:208|416:208|432:208|432:208|432:224|432:224|448:224,1,1536,8|0,0:0|0:0,0:0:0:0:
256,192,93864,1,2,0:0:0:0:
320,192,93948,1,2,0:0:0:0:
128,144,94032,6,0,L|48:144,2,64.0000024414063,6|0|0,0:0|0:0|0:0,0:0:0:0:
288,208,94284,2,0,L|128:208,1,128.000004882813,8|0,0:0|0:0,0:0:0:0:
320,288,94536,2,0,L|480:288,1,128.000004882813,2|0,0:0|0:0,0:0:0:0:
288,240,94788,2,0,L|208:240,2,64.0000024414063,8|0|8,0:0|0:0|0:0,0:0:0:0:
64,224,95040,6,0,L|48:128,1,64.0000024414063,2|0,0:0|0:0,0:0:0:0:
144,144,95208,1,2,0:0:0:0:
320,96,95292,2,0,L|144:96,1,128.000004882813,8|0,0:0|0:0,0:0:0:0:
448,224,95544,6,2,L|464:128,1,64.0000024414063
368,144,95712,1,2,0:0:0:0:
160,96,95796,1,8,0:0:0:0:
448,64,95964,1,0,0:0:0:0:
240,176,96048,6,0,L|144:176,2,64.0000024414063,6|0|0,0:0|0:0|0:0,0:0:0:0:
80,272,96301,2,0,L|256:272,1,128.000004882813,8|0,0:0|0:0,0:0:0:0:
368,224,96553,2,0,L|208:224,1,128.000004882813,2|0,0:0|0:0,0:0:0:0:
80,160,96805,1,8,0:0:0:0:
144,160,96889,1,0,0:0:0:0:
208,160,96973,1,8,0:0:0:0:
416,160,97057,5,2,0:0:0:0:
256,112,97141,2,0,L|320:112,1,64.0000024414063,0|2,0:0|0:0,0:0:0:0:
160,80,97309,2,0,L|0:80,1,128.000004882813,8|0,0:0|0:0,0:0:0:0:
224,208,97561,5,2,0:0:0:0:
400,240,97645,1,2,0:0:0:0:
224,288,97729,1,2,0:0:0:0:
400,320,97813,1,8,0:0:0:0:
112,320,97981,1,0,0:0:0:0:
320,320,98065,6,0,L|416:320,2,64.0000024414063,6|0|0,0:0|0:0|0:0,0:0:0:0:
144,272,98317,2,0,L|272:272,1,128.000004882813,8|0,0:0|0:0,0:0:0:0:
112,224,98569,2,0,L|288:224,1,128.000004882813,2|0,0:0|0:0,0:0:0:0:
400,176,98822,2,0,L|288:176,2,64.0000024414063,8|0|8,0:0|0:0|0:0,0:0:0:0:
224,160,99074,6,0,L|208:80,1,64.0000024414063,2|0,0:0|0:0,0:0:0:0:
304,80,99242,1,2,0:0:0:0:
96,48,99326,2,0,L|256:48,1,128.000004882813,8|0,0:0|0:0,0:0:0:0:
32,160,99578,6,2,L|16:80,1,64.0000024414063
112,64,99746,1,2,0:0:0:0:
304,48,99830,1,8,0:0:0:0:
16,48,99998,1,0,0:0:0:0:
192,208,100082,6,0,L|288:208,2,64.0000024414063,6|0|0,0:0|0:0|0:0,0:0:0:0:
352,288,100334,2,0,L|176:288,1,128.000004882813,8|0,0:0|0:0,0:0:0:0:
384,240,100586,2,0,L|240:240,1,128.000004882813,2|0,0:0|0:0,0:0:0:0:
96,224,100838,1,8,0:0:0:0:
160,224,100922,1,0,0:0:0:0:
96,224,101006,1,8,0:0:0:0:
320,208,101090,6,0,L|336:112,2,64.0000024414063,4|0|0,0:3|0:0|0:0,0:0:0:0:
240,176,101343,2,0,L|256:80,2,64.0000024414063,4|0|0,0:3|0:0|0:0,0:0:0:0:
144,128,101595,2,0,L|224:128,2,64.0000024414063,4|0|0,0:3|0:0|0:0,0:0:0:0:
368,128,101847,2,0,L|304:128,2,64.0000024414063,4|0|0,0:3|0:0|0:0,0:0:0:0:
192,272,102099,6,0,L|32:272,1,128.000004882813,6|0,0:0|0:0,0:0:0:0:
320,272,102351,2,0,L|480:272,1,128.000004882813,8|0,0:0|0:0,0:0:0:0:
208,208,102603,1,2,0:0:0:0:
288,208,102687,2,0,L|320:208,2,32.0000012207032,2|0|2,0:0|0:0|0:0,0:0:0:0:
96,128,102855,2,0,L|160:128,2,64.0000024414063,8|0|8,0:0|0:0|0:0,0:0:0:0:
304,144,103107,5,2,0:0:0:0:
368,144,103191,1,0,0:0:0:0:
432,144,103275,1,2,0:0:0:0:
272,208,103359,2,0,L|352:208,2,64.0000024414063,8|0|8,0:0|0:0|0:0,0:0:0:0:
96,144,103611,5,2,0:0:0:0:
160,144,103695,1,2,0:0:0:0:
224,144,103779,1,2,0:0:0:0:
384,192,103864,2,0,L|304:192,1,64.0000024414063,8|0,0:0|0:0,0:0:0:0:
160,224,104032,1,8,0:0:0:0:
320,272,104116,6,0,L|448:272,1,128.000004882813,6|0,0:0|0:0,0:0:0:0:
192,272,104368,2,0,L|64:272,1,128.000004882813,8|0,0:0|0:0,0:0:0:0:
304,208,104620,1,2,0:0:0:0:
224,176,104704,1,2,0:0:0:0:
256,176,104746,1,0,0:0:0:0:
288,176,104788,1,2,0:0:0:0:
112,128,104872,2,0,L|32:128,2,64.0000024414063,8|0|8,0:0|0:0|0:0,0:0:0:0:
384,128,105124,5,2,0:0:0:0:
224,112,105208,2,0,L|304:112,1,64.0000024414063,0|2,0:0|0:0,0:0:0:0:
128,128,105376,1,8,0:0:0:0:
288,112,105460,2,0,L|208:112,1,64.0000024414063,0|8,0:0|0:0,0:0:0:0:
400,208,105628,6,2,L|464:208,2,64.0000024414063
304,208,105880,2,0,L|240:208,2,64.0000024414063,8|0|8,0:0|0:0|0:0,0:0:0:0:
64,272,106132,6,0,L|240:272,1,128.000004882813,6|0,0:0|0:0,0:0:0:0:
400,272,106385,2,0,L|224:272,1,128.000004882813,8|0,0:0|0:0,0:0:0:0:
480,208,106637,2,0,L|304:208,1,128.000004882813,2|2,0:0|0:0,0:0:0:0:
144,160,106889,1,8,0:0:0:0:
384,128,107057,1,8,0:0:0:0:
208,96,107141,6,0,L|48:96,1,128.000004882813,2|2,0:0|0:0,0:0:0:0:
240,160,107393,2,0,L|320:160,1,64.0000024414063,8|0,0:0|0:0,0:0:0:0:
144,224,107561,1,8,0:0:0:0:
304,272,107645,6,2,L|464:272,1,128.000004882813
272,208,107897,1,8,0:0:0:0:
432,176,107981,1,8,0:0:0:0:
272,128,108065,1,8,0:0:0:0:
32,64,108149,5,6,0:0:0:0:
96,64,108233,1,0,0:0:0:0:
160,64,108317,1,0,0:0:0:0:
384,64,108401,1,8,0:0:0:0:
320,64,108485,1,0,0:0:0:0:
160,64,108569,1,8,0:0:0:0:
480,64,108653,5,6,0:0:0:0:
416,64,108737,1,0,0:0:0:0:
352,64,108821,1,0,0:0:0:0:
128,64,108905,1,8,0:0:0:0:
192,64,108989,1,0,0:0:0:0:
352,64,109073,1,8,0:0:0:0:
112,240,109158,6,0,L|112:192,1,32.0000012207032,2|0,0:0|0:0,0:0:0:0:
176,224,109242,2,0,L|176:192,1,32.0000012207032,2|0,0:0|0:0,0:0:0:0:
240,208,109326,2,0,L|240:160,1,32.0000012207032,2|0,0:0|0:0,0:0:0:0:
112,176,109410,2,0,P|66:142|112:112,1,128.000004882813,8|0,0:0|0:0,0:0:0:0:
320,80,109662,6,0,L|320:192,1,96.0000036621095,2|0,0:0|0:0,0:0:0:0:
288,176,109830,2,0,L|336:176,1,32.0000012207032,2|0,0:0|0:0,0:0:0:0:
288,176,109914,2,0,L|288:320,1,128.000004882813,8|0,0:0|0:0,0:0:0:0:
480,320,110166,5,2,0:0:0:0:
464,224,110292,1,0,0:0:0:0:
400,128,110418,1,0,0:0:0:0:
288,80,110544,1,0,0:0:0:0:
416,48,110670,1,0,0:0:0:0:
416,192,110922,1,2,0:0:0:0:
288,224,111048,1,0,0:0:0:0:
416,240,111174,5,2,0:0:0:0:
288,288,111427,2,0,L|240:288,2,48.0000018310548,2|0|0,0:0|0:0|0:0,0:0:0:0:
416,320,111679,2,0,P|471:282|464:240,1,96.0000036621095,2|0,0:0|0:0,0:0:0:0:
416,224,111868,1,0,0:0:0:0:
272,192,111931,1,8,0:0:0:0:
384,176,112057,1,0,0:0:0:0:
128,192,112183,5,12,0:0:0:0:
384,128,112309,1,0,0:0:0:0:
112,64,112435,2,0,L|272:64,1,144.000005493164,8|0,0:0|0:0,0:0:0:0:
96,112,112687,2,0,L|256:112,1,144.000005493164,8|0,0:0|0:0,0:0:0:0:
80,160,112939,2,0,L|240:160,1,144.000005493164,8|0,0:0|0:0,0:0:0:0:
64,208,113191,2,0,L|224:208,1,144.000005493164,8|0,0:0|0:0,0:0:0:0:
48,256,113443,2,0,L|208:256,1,144.000005493164,8|0,0:0|0:0,0:0:0:0:
32,304,113695,2,0,L|192:304,1,144.000005493164,8|0,0:0|0:0,0:0:0:0:
384,272,113948,1,8,0:0:0:0:
128,272,114074,1,2,0:0:0:0:
384,192,114200,6,0,L|208:192,1,144.000005493164,12|0,0:0|0:0,0:0:0:0:
112,64,114452,2,0,L|272:64,1,144.000005493164,8|0,0:0|0:0,0:0:0:0:
416,112,114704,2,0,L|256:112,1,144.000005493164,8|0,0:0|0:0,0:0:0:0:
144,160,114956,2,0,L|304:160,1,144.000005493164,8|0,0:0|0:0,0:0:0:0:
448,208,115208,2,0,L|288:208,1,144.000005493164,8|0,0:0|0:0,0:0:0:0:
176,256,115460,2,0,L|336:256,1,144.000005493164,8|0,0:0|0:0,0:0:0:0:
480,304,115712,2,0,L|320:304,1,144.000005493164,8|0,0:0|0:0,0:0:0:0:
128,272,115964,2,0,L|128:96,1,144.000005493164,8|2,0:0|0:0,0:0:0:0:
304,256,116216,6,0,L|448:256,1,144.000005493164,12|0,0:0|0:0,0:0:0:0:
288,208,116469,2,0,L|432:208,1,144.000005493164,8|0,0:0|0:0,0:0:0:0:
272,160,116721,2,0,L|416:160,1,144.000005493164,8|0,0:0|0:0,0:0:0:0:
256,112,116973,1,8,0:0:0:0:
48,112,117099,1,2,0:0:0:0:
256,64,117225,6,0,L|80:64,1,144.000005493164,8|0,0:0|0:0,0:0:0:0:
272,112,117477,2,0,L|432:112,1,144.000005493164,8|0,0:0|0:0,0:0:0:0:
288,160,117729,2,0,L|144:160,1,144.000005493164,8|0,0:0|0:0,0:0:0:0:
304,224,117981,2,0,L|368:224,1,48.0000018310548,8|0,0:0|0:0,0:0:0:0:
192,304,118107,2,0,L|144:304,1,48.0000018310548,8|0,0:0|0:0,0:0:0:0:
304,336,118233,5,8,0:0:0:0:
496,304,118359,1,8,0:0:0:0:
304,336,118485,1,8,0:0:0:0:
496,304,118611,1,8,0:0:0:0:
208,336,118737,1,8,0:0:0:0:
16,304,118864,1,8,0:0:0:0:
208,336,118990,1,8,0:0:0:0:
16,304,119117,1,8,0:0:0:0:
304,336,119242,5,8,0:0:0:0:
112,320,119494,2,0,L|112:160,1,144.000005493164,8|2,0:0|0:0,0:0:0:0:
256,288,119746,2,0,L|256:176,1,96.0000036621095,8|2,0:0|0:0,0:0:0:0:
464,256,119998,2,0,L|464:80,1,144.000005493164,8|0,0:0|0:0,0:0:0:0:
128,176,120250,5,4,0:0:0:0:
384,176,120376,1,2,0:0:0:0:
64,288,120502,2,0,L|64:128,1,144.000005493164,8|0,0:0|0:0,0:0:0:0:
352,224,120754,2,0,B|160:224|160:224|160:128,1,288.000010986329,4|0,0:0|0:0,0:0:0:0:
448,288,121006,2,0,L|448:128,1,144.000005493164,8|0,0:0|0:0,0:0:0:0:
160,224,121258,6,0,B|352:224|352:224|352:128,1,288.000010986329,4|0,0:0|0:0,0:0:0:0:
64,288,121510,2,0,L|64:128,1,144.000005493164,8|0,0:0|0:0,0:0:0:0:
368,224,121763,2,0,L|304:224,1,48.0000018310548,4|0,0:0|0:0,0:0:0:0:
144,224,121889,2,0,L|208:224,1,48.0000018310548,2|0,0:0|0:0,0:0:0:0:
352,224,122015,1,8,0:0:0:0:
160,224,122141,1,8,0:0:0:0:
384,176,122267,5,4,0:0:0:0:
128,176,122393,1,2,0:0:0:0:
448,288,122519,2,0,L|448:128,1,144.000005493164,8|0,0:0|0:0,0:0:0:0:
160,224,122771,2,0,B|352:224|352:224|352:128,1,288.000010986329,4|0,0:0|0:0,0:0:0:0:
64,288,123023,2,0,L|64:128,1,144.000005493164,8|0,0:0|0:0,0:0:0:0:
352,224,123275,6,0,B|160:224|160:224|160:128,1,288.000010986329,4|0,0:0|0:0,0:0:0:0:
448,288,123527,2,0,L|448:128,1,144.000005493164,8|0,0:0|0:0,0:0:0:0:
144,224,123780,1,4,0:0:0:0:
368,224,123906,2,0,L|304:224,1,48.0000018310548,2|0,0:0|0:0,0:0:0:0:
112,224,124032,1,8,0:0:0:0:
400,224,124158,1,8,0:0:0:0:
160,176,124284,5,4,0:0:0:0:
352,176,124410,1,2,0:0:0:0:
80,112,124536,1,8,0:0:0:0:
352,176,124662,1,4,0:0:0:0:
160,176,124788,1,2,0:0:0:0:
432,112,124914,1,8,0:0:0:0:
160,176,125040,2,0,L|92:176,3,48.0000018310548,8|0|8|0,0:0|0:0|0:0|0:0,0:0:0:0:
352,176,125292,5,4,0:0:0:0:
160,176,125418,1,2,0:0:0:0:
432,112,125544,1,8,0:0:0:0:
160,176,125670,1,4,0:0:0:0:
352,176,125796,1,2,0:0:0:0:
80,112,125922,1,8,0:0:0:0:
352,176,126048,2,0,L|432:176,1,48.0000018310548,8|0,0:0|0:0,0:0:0:0:
352,176,126174,2,0,L|320:176,2,24.0000009155274,8|0|0,0:0|0:0|0:0,0:0:0:0:
496,160,126301,5,12,0:0:0:0:
304,160,126427,1,8,0:0:0:0:
496,160,126553,1,8,0:0:0:0:
304,160,126679,1,8,0:0:0:0:
16,160,126805,5,12,0:0:0:0:
208,160,126931,1,8,0:0:0:0:
16,160,127057,1,8,0:0:0:0:
208,160,127183,1,8,0:0:0:0:
464,224,127309,5,12,0:0:0:0:
304,224,127393,2,0,L|384:224,1,64.0000024414063,0|8,0:0|0:0,0:0:0:0:
208,224,127561,1,8,0:0:0:0:
48,224,127645,2,0,L|128:224,1,64.0000024414063,0|8,0:0|0:0,0:0:0:0:
272,224,127813,5,12,0:0:0:0:
112,224,127897,2,0,L|32:224,1,64.0000024414063,0|8,0:0|0:0,0:0:0:0:
208,224,128065,1,8,0:0:0:0:
368,224,128149,2,0,L|288:224,1,64.0000024414063,0|8,0:0|0:0,0:0:0:0:
48,224,128317,5,12,0:0:0:0:
