osu file format v14

[General]
AudioFilename: audio.mp3
AudioLeadIn: 0
PreviewTime: 79660
Countdown: 0
SampleSet: None
StackLeniency: 0.7
Mode: 3
LetterboxInBreaks: 0
SpecialStyle: 0
WidescreenStoryboard: 0

[Editor]
Bookmarks: 910,20910,30910,40910,50910,60910,65910,70910,80910,90910,97160,100910,110910,120910,130910,135910,140910,160910,180910,190910,209660,220910,240910
DistanceSpacing: 1
BeatDivisor: 4
GridSize: 32
TimelineZoom: 1.699999

[Metadata]
Title:Dear Policemen
TitleUnicode:Dear Policemen
Artist:RoughSketch
ArtistUnicode:RoughSketch
Creator:Chronocide
Version:What do you do?
Source:108 Sketches 2
Tags:C.H.S, happy hardcore, speedcore, gabber, hardstyle, hardcore, makina, electronic
BeatmapID:1808767
BeatmapSetID:864966

[Difficulty]
HPDrainRate:8
CircleSize:4
OverallDifficulty:8
ApproachRate:5
SliderMultiplier:1.4
SliderTickRate:1

[Events]
//Background and Video events
0,0,"BG.jpg",0,0
//Break Periods
//Storyboard Layer 0 (Background)
//Storyboard Layer 1 (Fail)
//Storyboard Layer 2 (Pass)
//Storyboard Layer 3 (Foreground)
//Storyboard Sound Samples

[TimingPoints]
910,312.5,4,1,0,30,1,0

[HitObjects]
64,192,910,5,0,0:0:0:0:
448,192,910,1,0,0:0:0:0:
320,192,1066,1,0,0:0:0:0:
192,192,1222,1,0,0:0:0:0:
64,192,1222,1,0,0:0:0:0:
320,192,1378,1,0,0:0:0:0:
64,192,1535,1,0,0:0:0:0:
192,192,1691,1,0,0:0:0:0:
320,192,1847,1,0,0:0:0:0:
448,192,1847,1,0,0:0:0:0:
64,192,1925,1,0,0:0:0:0:
192,192,2003,1,0,0:0:0:0:
448,192,2160,1,0,0:0:0:0:
320,192,2316,1,0,0:0:0:0:
192,192,2472,1,0,0:0:0:0:
64,192,2472,1,0,0:0:0:0:
320,192,2628,1,0,0:0:0:0:
320,192,2785,1,0,0:0:0:0:
64,192,2785,1,0,0:0:0:0:
192,192,2941,1,0,0:0:0:0:
448,192,2941,1,0,0:0:0:0:
192,192,3097,1,0,0:0:0:0:
448,192,3097,1,0,0:0:0:0:
448,192,3253,1,0,0:0:0:0:
64,192,3410,1,0,0:0:0:0:
320,192,3566,1,0,0:0:0:0:
192,192,3722,1,0,0:0:0:0:
64,192,3722,1,0,0:0:0:0:
320,192,3878,1,0,0:0:0:0:
64,192,4035,1,0,0:0:0:0:
192,192,4191,1,0,0:0:0:0:
320,192,4347,1,0,0:0:0:0:
448,192,4347,1,0,0:0:0:0:
64,192,4425,1,0,0:0:0:0:
192,192,4503,1,0,0:0:0:0:
320,192,4660,1,0,0:0:0:0:
192,192,4816,1,0,0:0:0:0:
320,192,4972,1,0,0:0:0:0:
448,192,4972,1,0,0:0:0:0:
192,192,5128,1,0,0:0:0:0:
192,192,5285,1,0,0:0:0:0:
64,192,5285,1,0,0:0:0:0:
320,192,5441,1,0,0:0:0:0:
448,192,5441,1,0,0:0:0:0:
192,192,5519,1,0,0:0:0:0:
448,192,5597,1,0,0:0:0:0:
320,192,5597,1,0,0:0:0:0:
64,192,5753,1,0,0:0:0:0:
448,192,5910,1,0,0:0:0:0:
192,192,6066,1,0,0:0:0:0:
320,192,6222,1,0,0:0:0:0:
448,192,6222,1,0,0:0:0:0:
192,192,6378,1,0,0:0:0:0:
64,192,6535,1,0,0:0:0:0:
320,192,6691,1,0,0:0:0:0:
192,192,6847,1,0,0:0:0:0:
64,192,6847,1,0,0:0:0:0:
448,192,6925,1,0,0:0:0:0:
320,192,7003,1,0,0:0:0:0:
64,192,7160,1,0,0:0:0:0:
192,192,7316,1,0,0:0:0:0:
320,192,7472,1,0,0:0:0:0:
448,192,7472,1,0,0:0:0:0:
64,192,7628,1,0,0:0:0:0:
64,192,7785,1,0,0:0:0:0:
192,192,7785,1,0,0:0:0:0:
320,192,7941,1,0,0:0:0:0:
448,192,7941,1,0,0:0:0:0:
448,192,8097,1,0,0:0:0:0:
320,192,8097,1,0,0:0:0:0:
320,192,8253,1,0,0:0:0:0:
64,192,8410,1,0,0:0:0:0:
192,192,8566,1,0,0:0:0:0:
320,192,8722,1,0,0:0:0:0:
448,192,8722,1,0,0:0:0:0:
192,192,8878,1,0,0:0:0:0:
448,192,9035,1,0,0:0:0:0:
320,192,9191,1,0,0:0:0:0:
192,192,9347,1,0,0:0:0:0:
64,192,9347,1,0,0:0:0:0:
448,192,9425,1,0,0:0:0:0:
320,192,9503,1,0,0:0:0:0:
64,192,9660,1,0,0:0:0:0:
448,192,9660,1,0,0:0:0:0:
192,192,9816,1,0,0:0:0:0:
64,192,9972,1,0,0:0:0:0:
320,192,9972,1,0,0:0:0:0:
448,192,10128,1,0,0:0:0:0:
192,192,10285,1,0,0:0:0:0:
320,192,10285,1,0,0:0:0:0:
64,192,10441,1,0,0:0:0:0:
448,192,10441,1,0,0:0:0:0:
448,192,10597,1,0,0:0:0:0:
64,192,10597,1,0,0:0:0:0:
320,192,10753,1,0,0:0:0:0:
192,192,10910,1,0,0:0:0:0:
64,192,10910,1,0,0:0:0:0:
448,192,10910,1,0,0:0:0:0:
320,192,11066,1,0,0:0:0:0:
192,192,11222,1,0,0:0:0:0:
448,192,11222,1,0,0:0:0:0:
320,192,11378,1,0,0:0:0:0:
192,192,11535,1,0,0:0:0:0:
320,192,11535,1,0,0:0:0:0:
192,192,11691,1,0,0:0:0:0:
64,192,11847,1,0,0:0:0:0:
320,192,11847,1,0,0:0:0:0:
192,192,11925,1,0,0:0:0:0:
320,192,12003,1,0,0:0:0:0:
192,192,12160,1,0,0:0:0:0:
320,192,12160,1,0,0:0:0:0:
320,192,12316,1,0,0:0:0:0:
192,192,12472,1,0,0:0:0:0:
448,192,12472,1,0,0:0:0:0:
320,192,12628,1,0,0:0:0:0:
320,192,12785,1,0,0:0:0:0:
192,192,12785,1,0,0:0:0:0:
64,192,12941,1,0,0:0:0:0:
448,192,12941,1,0,0:0:0:0:
448,192,13097,1,0,0:0:0:0:
64,192,13097,1,0,0:0:0:0:
192,192,13253,1,0,0:0:0:0:
320,192,13410,1,0,0:0:0:0:
448,192,13410,1,0,0:0:0:0:
192,192,13566,1,0,0:0:0:0:
320,192,13722,1,0,0:0:0:0:
64,192,13722,1,0,0:0:0:0:
192,192,13878,1,0,0:0:0:0:
192,192,14035,1,0,0:0:0:0:
64,192,14035,1,0,0:0:0:0:
320,192,14191,1,0,0:0:0:0:
192,192,14347,1,0,0:0:0:0:
448,192,14347,1,0,0:0:0:0:
320,192,14425,1,0,0:0:0:0:
192,192,14503,1,0,0:0:0:0:
320,192,14660,1,0,0:0:0:0:
448,192,14660,1,0,0:0:0:0:
192,192,14816,1,0,0:0:0:0:
64,192,14972,1,0,0:0:0:0:
320,192,14972,1,0,0:0:0:0:
448,192,15128,1,0,0:0:0:0:
448,192,15285,1,0,0:0:0:0:
320,192,15285,1,0,0:0:0:0:
64,192,15441,1,0,0:0:0:0:
320,192,15441,1,0,0:0:0:0:
320,192,15597,1,0,0:0:0:0:
64,192,15597,1,0,0:0:0:0:
192,192,15753,1,0,0:0:0:0:
64,192,15910,1,0,0:0:0:0:
192,192,15910,1,0,0:0:0:0:
320,192,16066,1,0,0:0:0:0:
64,192,16222,1,0,0:0:0:0:
448,192,16222,1,0,0:0:0:0:
192,192,16378,1,0,0:0:0:0:
320,192,16535,1,0,0:0:0:0:
448,192,16535,1,0,0:0:0:0:
192,192,16691,1,0,0:0:0:0:
64,192,16847,1,0,0:0:0:0:
448,192,16847,1,0,0:0:0:0:
320,192,16925,1,0,0:0:0:0:
192,192,17003,1,0,0:0:0:0:
320,192,17160,1,0,0:0:0:0:
448,192,17160,1,0,0:0:0:0:
192,192,17316,1,0,0:0:0:0:
64,192,17472,1,0,0:0:0:0:
448,192,17472,1,0,0:0:0:0:
320,192,17628,1,0,0:0:0:0:
192,192,17785,1,0,0:0:0:0:
64,192,17785,1,0,0:0:0:0:
64,192,17941,1,0,0:0:0:0:
448,192,17941,1,0,0:0:0:0:
448,192,18097,1,0,0:0:0:0:
64,192,18097,1,0,0:0:0:0:
448,192,18253,1,0,0:0:0:0:
320,192,18410,1,0,0:0:0:0:
192,192,18410,1,0,0:0:0:0:
64,192,18566,1,0,0:0:0:0:
192,192,18722,1,0,0:0:0:0:
448,192,18722,1,0,0:0:0:0:
320,192,18878,1,0,0:0:0:0:
320,192,19035,1,0,0:0:0:0:
192,192,19035,1,0,0:0:0:0:
192,192,19191,1,0,0:0:0:0:
64,192,19347,1,0,0:0:0:0:
320,192,19347,1,0,0:0:0:0:
192,192,19425,1,0,0:0:0:0:
320,192,19503,1,0,0:0:0:0:
64,192,20910,1,0,0:0:0:0:
192,192,20910,1,0,0:0:0:0:
320,192,20910,1,0,0:0:0:0:
448,192,20910,1,0,0:0:0:0:
320,192,21066,1,0,0:0:0:0:
192,192,21222,1,0,0:0:0:0:
320,192,21222,1,0,0:0:0:0:
448,192,21222,1,0,0:0:0:0:
64,192,21378,1,0,0:0:0:0:
320,192,21535,1,0,0:0:0:0:
192,192,21535,1,0,0:0:0:0:
192,192,21691,1,0,0:0:0:0:
320,192,21847,1,0,0:0:0:0:
192,192,21847,1,0,0:0:0:0:
64,192,21847,1,0,0:0:0:0:
448,192,21925,1,0,0:0:0:0:
320,192,22003,1,0,0:0:0:0:
192,192,22160,1,0,0:0:0:0:
320,192,22160,1,0,0:0:0:0:
64,192,22316,1,0,0:0:0:0:
192,192,22472,1,0,0:0:0:0:
320,192,22472,1,0,0:0:0:0:
448,192,22472,1,0,0:0:0:0:
320,192,22628,1,0,0:0:0:0:
320,192,22785,1,0,0:0:0:0:
192,192,22785,1,0,0:0:0:0:
64,192,22941,1,0,0:0:0:0:
448,192,22941,1,0,0:0:0:0:
192,192,23097,1,0,0:0:0:0:
64,192,23097,1,0,0:0:0:0:
448,192,23097,1,0,0:0:0:0:
320,192,23097,1,0,0:0:0:0:
192,192,23253,1,0,0:0:0:0:
448,192,23410,1,0,0:0:0:0:
320,192,23410,1,0,0:0:0:0:
64,192,23566,1,0,0:0:0:0:
192,192,23722,1,0,0:0:0:0:
448,192,23722,1,0,0:0:0:0:
320,192,23722,1,0,0:0:0:0:
320,192,23878,1,0,0:0:0:0:
192,192,24035,1,0,0:0:0:0:
64,192,24035,1,0,0:0:0:0:
320,192,24191,1,0,0:0:0:0:
320,192,24347,1,0,0:0:0:0:
64,192,24347,1,0,0:0:0:0:
192,192,24347,1,0,0:0:0:0:
448,192,24425,1,0,0:0:0:0:
320,192,24503,1,0,0:0:0:0:
320,192,24660,1,0,0:0:0:0:
448,192,24660,1,0,0:0:0:0:
64,192,24816,1,0,0:0:0:0:
448,192,24972,1,0,0:0:0:0:
192,192,24972,1,0,0:0:0:0:
320,192,24972,1,0,0:0:0:0:
320,192,25128,1,0,0:0:0:0:
192,192,25285,1,0,0:0:0:0:
64,192,25285,1,0,0:0:0:0:
192,192,25441,1,0,0:0:0:0:
448,192,25441,1,0,0:0:0:0:
320,192,25441,1,0,0:0:0:0:
64,192,25519,1,0,0:0:0:0:
448,192,25597,1,0,0:0:0:0:
192,192,25597,1,0,0:0:0:0:
320,192,25597,1,0,0:0:0:0:
320,192,25910,1,0,0:0:0:0:
448,192,25910,1,0,0:0:0:0:
64,192,25910,1,0,0:0:0:0:
192,192,25910,1,0,0:0:0:0:
320,192,26066,1,0,0:0:0:0:
448,192,26222,1,0,0:0:0:0:
192,192,26222,1,0,0:0:0:0:
64,192,26222,1,0,0:0:0:0:
192,192,26378,1,0,0:0:0:0:
320,192,26535,1,0,0:0:0:0:
448,192,26535,1,0,0:0:0:0:
192,192,26691,1,0,0:0:0:0:
64,192,26847,1,0,0:0:0:0:
448,192,26847,1,0,0:0:0:0:
320,192,26847,1,0,0:0:0:0:
192,192,26925,1,0,0:0:0:0:
320,192,27003,1,0,0:0:0:0:
192,192,27160,1,0,0:0:0:0:
64,192,27160,1,0,0:0:0:0:
320,192,27316,1,0,0:0:0:0:
64,192,27472,1,0,0:0:0:0:
192,192,27472,1,0,0:0:0:0:
448,192,27472,1,0,0:0:0:0:
192,192,27628,1,0,0:0:0:0:
320,192,27785,1,0,0:0:0:0:
64,192,27785,1,0,0:0:0:0:
192,192,27941,1,0,0:0:0:0:
448,192,27941,1,0,0:0:0:0:
448,192,28097,1,0,0:0:0:0:
320,192,28097,1,0,0:0:0:0:
64,192,28097,1,0,0:0:0:0:
192,192,28097,1,0,0:0:0:0:
64,192,28253,1,0,0:0:0:0:
320,192,28410,1,0,0:0:0:0:
192,192,28410,1,0,0:0:0:0:
448,192,28566,1,0,0:0:0:0:
320,192,28722,1,0,0:0:0:0:
192,192,28722,1,0,0:0:0:0:
64,192,28722,1,0,0:0:0:0:
64,192,28878,1,0,0:0:0:0:
320,192,29035,1,0,0:0:0:0:
192,192,29035,1,0,0:0:0:0:
448,192,29191,1,0,0:0:0:0:
320,192,29347,1,0,0:0:0:0:
192,192,29347,1,0,0:0:0:0:
448,192,29347,1,0,0:0:0:0:
64,192,29503,1,0,0:0:0:0:
320,192,29503,1,0,0:0:0:0:
320,192,29660,1,0,0:0:0:0:
64,192,29660,1,0,0:0:0:0:
192,192,29660,1,0,0:0:0:0:
448,192,29660,1,0,0:0:0:0:
192,192,29816,1,0,0:0:0:0:
320,192,29972,1,0,0:0:0:0:
192,192,29972,1,0,0:0:0:0:
64,192,29972,1,0,0:0:0:0:
192,192,30128,1,0,0:0:0:0:
448,192,30206,1,0,0:0:0:0:
320,192,30206,1,0,0:0:0:0:
192,192,30285,1,0,0:0:0:0:
64,192,30285,1,0,0:0:0:0:
320,192,30441,1,0,0:0:0:0:
448,192,30441,1,0,0:0:0:0:
64,192,30519,1,0,0:0:0:0:
192,192,30519,1,0,0:0:0:0:
320,192,30597,1,0,0:0:0:0:
448,192,30597,1,0,0:0:0:0:
448,192,30910,1,0,0:0:0:0:
320,192,30910,1,0,0:0:0:0:
192,192,30910,1,0,0:0:0:0:
64,192,30910,1,0,0:0:0:0:
192,192,31066,1,0,0:0:0:0:
448,192,31066,1,0,0:0:0:0:
320,192,31222,1,0,0:0:0:0:
192,192,31222,1,0,0:0:0:0:
64,192,31222,1,0,0:0:0:0:
448,192,31378,1,0,0:0:0:0:
192,192,31378,1,0,0:0:0:0:
192,192,31535,1,0,0:0:0:0:
320,192,31535,1,0,0:0:0:0:
320,192,31691,1,0,0:0:0:0:
64,192,31691,1,0,0:0:0:0:
192,192,31847,1,0,0:0:0:0:
320,192,31847,1,0,0:0:0:0:
448,192,31847,1,0,0:0:0:0:
64,192,31925,1,0,0:0:0:0:
192,192,32003,1,0,0:0:0:0:
448,192,32003,1,0,0:0:0:0:
320,192,32160,1,0,0:0:0:0:
192,192,32160,1,0,0:0:0:0:
448,192,32316,1,0,0:0:0:0:
64,192,32316,1,0,0:0:0:0:
320,192,32472,1,0,0:0:0:0:
192,192,32472,1,0,0:0:0:0:
64,192,32472,1,0,0:0:0:0:
192,192,32628,1,0,0:0:0:0:
448,192,32628,1,0,0:0:0:0:
192,192,32785,1,0,0:0:0:0:
320,192,32785,1,0,0:0:0:0:
448,192,32941,1,0,0:0:0:0:
64,192,32941,1,0,0:0:0:0:
320,192,33097,1,0,0:0:0:0:
448,192,33097,1,0,0:0:0:0:
64,192,33097,1,0,0:0:0:0:
192,192,33097,1,0,0:0:0:0:
320,192,33253,1,0,0:0:0:0:
64,192,33253,1,0,0:0:0:0:
64,192,33410,1,0,0:0:0:0:
192,192,33410,1,0,0:0:0:0:
448,192,33566,1,0,0:0:0:0:
320,192,33566,1,0,0:0:0:0:
320,192,33722,1,0,0:0:0:0:
64,192,33722,1,0,0:0:0:0:
192,192,33722,1,0,0:0:0:0:
192,192,33878,1,0,0:0:0:0:
448,192,33878,1,0,0:0:0:0:
320,192,34035,1,0,0:0:0:0:
448,192,34035,1,0,0:0:0:0:
192,192,34191,1,0,0:0:0:0:
64,192,34191,1,0,0:0:0:0:
192,192,34347,1,0,0:0:0:0:
448,192,34347,1,0,0:0:0:0:
320,192,34347,1,0,0:0:0:0:
64,192,34425,1,0,0:0:0:0:
192,192,34503,1,0,0:0:0:0:
448,192,34503,1,0,0:0:0:0:
192,192,34660,1,0,0:0:0:0:
64,192,34660,1,0,0:0:0:0:
448,192,34816,1,0,0:0:0:0:
320,192,34816,1,0,0:0:0:0:
64,192,34972,1,0,0:0:0:0:
320,192,34972,1,0,0:0:0:0:
192,192,34972,1,0,0:0:0:0:
192,192,35128,1,0,0:0:0:0:
448,192,35128,1,0,0:0:0:0:
320,192,35285,1,0,0:0:0:0:
448,192,35285,1,0,0:0:0:0:
320,192,35441,1,0,0:0:0:0:
64,192,35441,1,0,0:0:0:0:
192,192,35441,1,0,0:0:0:0:
448,192,35519,1,0,0:0:0:0:
64,192,35597,1,0,0:0:0:0:
320,192,35597,1,0,0:0:0:0:
192,192,35597,1,0,0:0:0:0:
64,192,35753,1,0,0:0:0:0:
448,192,35753,1,0,0:0:0:0:
192,192,35910,1,0,0:0:0:0:
64,192,35910,1,0,0:0:0:0:
448,192,35910,1,0,0:0:0:0:
320,192,35910,1,0,0:0:0:0:
192,192,36066,1,0,0:0:0:0:
320,192,36066,1,0,0:0:0:0:
64,192,36222,1,0,0:0:0:0:
320,192,36222,1,0,0:0:0:0:
448,192,36222,1,0,0:0:0:0:
320,192,36378,1,0,0:0:0:0:
192,192,36378,1,0,0:0:0:0:
192,192,36535,1,0,0:0:0:0:
64,192,36535,1,0,0:0:0:0:
320,192,36691,1,0,0:0:0:0:
448,192,36691,1,0,0:0:0:0:
448,192,36847,1,0,0:0:0:0:
64,192,36847,1,0,0:0:0:0:
192,192,36847,1,0,0:0:0:0:
320,192,36925,1,0,0:0:0:0:
192,192,37003,1,0,0:0:0:0:
64,192,37003,1,0,0:0:0:0:
320,192,37160,1,0,0:0:0:0:
448,192,37160,1,0,0:0:0:0:
192,192,37316,5,0,0:0:0:0:
448,192,37316,1,0,0:0:0:0:
448,192,37472,1,0,0:0:0:0:
320,192,37472,1,0,0:0:0:0:
64,192,37472,1,0,0:0:0:0:
320,192,37628,1,0,0:0:0:0:
192,192,37628,1,0,0:0:0:0:
192,192,37785,1,0,0:0:0:0:
448,192,37785,1,0,0:0:0:0:
320,192,37941,1,0,0:0:0:0:
64,192,37941,1,0,0:0:0:0:
64,192,38097,1,0,0:0:0:0:
192,192,38097,1,0,0:0:0:0:
448,192,38097,1,0,0:0:0:0:
320,192,38097,1,0,0:0:0:0:
64,192,38253,1,0,0:0:0:0:
320,192,38253,1,0,0:0:0:0:
320,192,38410,1,0,0:0:0:0:
448,192,38410,1,0,0:0:0:0:
192,192,38488,1,0,0:0:0:0:
320,192,38566,1,0,0:0:0:0:
448,192,38566,1,0,0:0:0:0:
192,192,38644,1,0,0:0:0:0:
320,192,38722,1,0,0:0:0:0:
448,192,38722,1,0,0:0:0:0:
192,192,38800,1,0,0:0:0:0:
320,192,38878,1,0,0:0:0:0:
448,192,38878,1,0,0:0:0:0:
192,192,38956,1,0,0:0:0:0:
320,192,39035,1,0,0:0:0:0:
448,192,39035,1,0,0:0:0:0:
192,192,39113,1,0,0:0:0:0:
320,192,39191,1,0,0:0:0:0:
448,192,39191,1,0,0:0:0:0:
192,192,39269,1,0,0:0:0:0:
320,192,39347,1,0,0:0:0:0:
448,192,39347,1,0,0:0:0:0:
192,192,39425,1,0,0:0:0:0:
320,192,39503,1,0,0:0:0:0:
448,192,39503,1,0,0:0:0:0:
192,192,39581,1,0,0:0:0:0:
320,192,39660,1,0,0:0:0:0:
448,192,39660,1,0,0:0:0:0:
64,192,39972,1,0,0:0:0:0:
192,192,40050,1,0,0:0:0:0:
320,192,40128,1,0,0:0:0:0:
448,192,40206,1,0,0:0:0:0:
320,192,40285,1,0,0:0:0:0:
192,192,40363,1,0,0:0:0:0:
64,192,40441,1,0,0:0:0:0:
192,192,40519,1,0,0:0:0:0:
320,192,40597,1,0,0:0:0:0:
448,192,40675,1,0,0:0:0:0:
320,192,40753,1,0,0:0:0:0:
192,192,40831,1,0,0:0:0:0:
64,192,40910,1,0,0:0:0:0:
320,192,40910,1,0,0:0:0:0:
448,192,40910,1,0,0:0:0:0:
448,192,41066,1,0,0:0:0:0:
192,192,41144,1,0,0:0:0:0:
448,192,41222,1,0,0:0:0:0:
64,192,41300,1,0,0:0:0:0:
320,192,41378,1,0,0:0:0:0:
64,192,41456,1,0,0:0:0:0:
320,192,41535,1,0,0:0:0:0:
192,192,41574,1,0,0:0:0:0:
64,192,41613,1,0,0:0:0:0:
192,192,41691,1,0,0:0:0:0:
320,192,41730,1,0,0:0:0:0:
448,192,41769,1,0,0:0:0:0:
64,192,41847,1,0,0:0:0:0:
320,192,41925,1,0,0:0:0:0:
448,192,42003,128,0,42160:0:0:0:0:
64,192,42160,1,0,0:0:0:0:
192,192,42199,1,0,0:0:0:0:
320,192,42238,1,0,0:0:0:0:
448,192,42277,1,0,0:0:0:0:
64,192,42316,1,0,0:0:0:0:
320,192,42394,1,0,0:0:0:0:
192,192,42472,128,0,42550:0:0:0:0:
192,192,42628,1,0,0:0:0:0:
64,192,42628,1,0,0:0:0:0:
448,192,42628,1,0,0:0:0:0:
320,192,42706,1,0,0:0:0:0:
64,192,42785,1,0,0:0:0:0:
192,192,42824,1,0,0:0:0:0:
320,192,42863,1,0,0:0:0:0:
448,192,42941,1,0,0:0:0:0:
320,192,42980,1,0,0:0:0:0:
192,192,43019,1,0,0:0:0:0:
64,192,43097,1,0,0:0:0:0:
320,192,43097,1,0,0:0:0:0:
448,192,43097,1,0,0:0:0:0:
192,192,43175,1,0,0:0:0:0:
320,192,43253,128,0,43331:0:0:0:0:
64,192,43410,1,0,0:0:0:0:
192,192,43410,1,0,0:0:0:0:
320,192,43410,1,0,0:0:0:0:
448,192,43410,1,0,0:0:0:0:
64,192,43566,1,0,0:0:0:0:
320,192,43644,1,0,0:0:0:0:
64,192,43722,1,0,0:0:0:0:
448,192,43800,1,0,0:0:0:0:
192,192,43878,1,0,0:0:0:0:
448,192,43956,1,0,0:0:0:0:
64,192,44035,1,0,0:0:0:0:
192,192,44074,1,0,0:0:0:0:
320,192,44113,1,0,0:0:0:0:
448,192,44191,1,0,0:0:0:0:
320,192,44230,1,0,0:0:0:0:
192,192,44269,1,0,0:0:0:0:
64,192,44347,1,0,0:0:0:0:
320,192,44425,1,0,0:0:0:0:
448,192,44503,128,0,44660:0:0:0:0:
64,192,44660,1,0,0:0:0:0:
192,192,44699,1,0,0:0:0:0:
320,192,44738,1,0,0:0:0:0:
448,192,44777,1,0,0:0:0:0:
64,192,44816,1,0,0:0:0:0:
320,192,44894,1,0,0:0:0:0:
192,192,44972,1,0,0:0:0:0:
448,192,45050,1,0,0:0:0:0:
64,192,45128,1,0,0:0:0:0:
320,192,45206,1,0,0:0:0:0:
192,192,45245,1,0,0:0:0:0:
448,192,45285,1,0,0:0:0:0:
64,192,45324,1,0,0:0:0:0:
320,192,45363,1,0,0:0:0:0:
192,192,45441,1,0,0:0:0:0:
320,192,45480,1,0,0:0:0:0:
64,192,45519,1,0,0:0:0:0:
448,192,45558,1,0,0:0:0:0:
192,192,45597,1,0,0:0:0:0:
320,192,45675,1,0,0:0:0:0:
64,192,45753,128,0,45831:0:0:0:0:
64,192,45910,1,0,0:0:0:0:
320,192,45910,1,0,0:0:0:0:
448,192,45910,1,0,0:0:0:0:
192,192,45910,1,0,0:0:0:0:
448,192,46066,1,0,0:0:0:0:
192,192,46144,1,0,0:0:0:0:
448,192,46222,1,0,0:0:0:0:
64,192,46300,1,0,0:0:0:0:
320,192,46378,1,0,0:0:0:0:
64,192,46456,1,0,0:0:0:0:
320,192,46535,1,0,0:0:0:0:
192,192,46574,1,0,0:0:0:0:
64,192,46613,1,0,0:0:0:0:
192,192,46691,1,0,0:0:0:0:
320,192,46730,1,0,0:0:0:0:
448,192,46769,1,0,0:0:0:0:
64,192,46847,1,0,0:0:0:0:
320,192,46925,1,0,0:0:0:0:
448,192,47003,128,0,47160:0:0:0:0:
64,192,47160,1,0,0:0:0:0:
192,192,47199,1,0,0:0:0:0:
320,192,47238,1,0,0:0:0:0:
448,192,47277,1,0,0:0:0:0:
64,192,47316,1,0,0:0:0:0:
320,192,47394,1,0,0:0:0:0:
192,192,47472,128,0,47550:0:0:0:0:
192,192,47628,1,0,0:0:0:0:
64,192,47628,1,0,0:0:0:0:
448,192,47628,1,0,0:0:0:0:
320,192,47706,1,0,0:0:0:0:
64,192,47785,1,0,0:0:0:0:
192,192,47824,1,0,0:0:0:0:
320,192,47863,1,0,0:0:0:0:
448,192,47941,1,0,0:0:0:0:
192,192,47941,1,0,0:0:0:0:
64,192,47941,1,0,0:0:0:0:
192,192,48097,1,0,0:0:0:0:
320,192,48097,1,0,0:0:0:0:
448,192,48097,1,0,0:0:0:0:
64,192,48175,1,0,0:0:0:0:
320,192,48253,128,0,48331:0:0:0:0:
64,192,48410,1,0,0:0:0:0:
192,192,48410,1,0,0:0:0:0:
320,192,48410,1,0,0:0:0:0:
448,192,48410,1,0,0:0:0:0:
64,192,48566,1,0,0:0:0:0:
320,192,48644,1,0,0:0:0:0:
64,192,48722,1,0,0:0:0:0:
448,192,48800,1,0,0:0:0:0:
192,192,48878,1,0,0:0:0:0:
448,192,48956,1,0,0:0:0:0:
64,192,49035,1,0,0:0:0:0:
192,192,49074,1,0,0:0:0:0:
320,192,49113,1,0,0:0:0:0:
448,192,49191,1,0,0:0:0:0:
320,192,49230,1,0,0:0:0:0:
192,192,49269,1,0,0:0:0:0:
64,192,49347,1,0,0:0:0:0:
320,192,49425,1,0,0:0:0:0:
448,192,49503,128,0,49660:0:0:0:0:
64,192,49660,1,0,0:0:0:0:
192,192,49699,1,0,0:0:0:0:
320,192,49738,1,0,0:0:0:0:
448,192,49777,1,0,0:0:0:0:
64,192,49816,1,0,0:0:0:0:
320,192,49894,1,0,0:0:0:0:
192,192,49972,1,0,0:0:0:0:
448,192,50050,1,0,0:0:0:0:
64,192,50128,1,0,0:0:0:0:
320,192,50206,1,0,0:0:0:0:
192,192,50245,1,0,0:0:0:0:
448,192,50285,1,0,0:0:0:0:
64,192,50324,1,0,0:0:0:0:
320,192,50363,1,0,0:0:0:0:
192,192,50441,1,0,0:0:0:0:
320,192,50480,1,0,0:0:0:0:
64,192,50519,1,0,0:0:0:0:
448,192,50558,1,0,0:0:0:0:
192,192,50597,1,0,0:0:0:0:
320,192,50675,1,0,0:0:0:0:
64,192,50753,1,0,0:0:0:0:
448,192,50831,1,0,0:0:0:0:
320,192,50910,1,0,0:0:0:0:
64,192,50910,1,0,0:0:0:0:
192,192,50910,1,0,0:0:0:0:
448,192,51066,1,0,0:0:0:0:
192,192,51144,1,0,0:0:0:0:
448,192,51222,1,0,0:0:0:0:
320,192,51222,1,0,0:0:0:0:
64,192,51300,1,0,0:0:0:0:
320,192,51378,1,0,0:0:0:0:
64,192,51456,1,0,0:0:0:0:
320,192,51535,1,0,0:0:0:0:
448,192,51535,1,0,0:0:0:0:
192,192,51574,1,0,0:0:0:0:
64,192,51613,1,0,0:0:0:0:
192,192,51691,1,0,0:0:0:0:
320,192,51730,1,0,0:0:0:0:
448,192,51769,1,0,0:0:0:0:
64,192,51847,1,0,0:0:0:0:
192,192,51847,1,0,0:0:0:0:
320,192,51925,1,0,0:0:0:0:
448,192,52003,128,0,52160:0:0:0:0:
64,192,52160,1,0,0:0:0:0:
192,192,52199,1,0,0:0:0:0:
320,192,52238,1,0,0:0:0:0:
448,192,52277,1,0,0:0:0:0:
64,192,52316,1,0,0:0:0:0:
320,192,52394,1,0,0:0:0:0:
192,192,52472,128,0,52550:0:0:0:0:
64,192,52472,1,0,0:0:0:0:
448,192,52628,1,0,0:0:0:0:
192,192,52628,1,0,0:0:0:0:
64,192,52628,1,0,0:0:0:0:
320,192,52706,1,0,0:0:0:0:
64,192,52785,1,0,0:0:0:0:
448,192,52785,1,0,0:0:0:0:
192,192,52824,1,0,0:0:0:0:
320,192,52863,1,0,0:0:0:0:
448,192,52941,1,0,0:0:0:0:
320,192,52980,1,0,0:0:0:0:
192,192,53019,1,0,0:0:0:0:
320,192,53097,1,0,0:0:0:0:
448,192,53097,1,0,0:0:0:0:
64,192,53097,1,0,0:0:0:0:
192,192,53175,1,0,0:0:0:0:
320,192,53253,128,0,53331:0:0:0:0:
320,192,53410,1,0,0:0:0:0:
448,192,53410,1,0,0:0:0:0:
64,192,53410,1,0,0:0:0:0:
192,192,53410,1,0,0:0:0:0:
64,192,53566,1,0,0:0:0:0:
320,192,53644,1,0,0:0:0:0:
64,192,53722,1,0,0:0:0:0:
192,192,53722,1,0,0:0:0:0:
448,192,53800,1,0,0:0:0:0:
192,192,53878,1,0,0:0:0:0:
448,192,53956,1,0,0:0:0:0:
64,192,54035,1,0,0:0:0:0:
192,192,54074,1,0,0:0:0:0:
320,192,54113,1,0,0:0:0:0:
448,192,54191,1,0,0:0:0:0:
320,192,54230,1,0,0:0:0:0:
192,192,54269,1,0,0:0:0:0:
64,192,54347,1,0,0:0:0:0:
448,192,54347,1,0,0:0:0:0:
320,192,54425,1,0,0:0:0:0:
448,192,54503,128,0,54660:0:0:0:0:
64,192,54660,1,0,0:0:0:0:
192,192,54699,1,0,0:0:0:0:
320,192,54738,1,0,0:0:0:0:
448,192,54777,1,0,0:0:0:0:
64,192,54816,1,0,0:0:0:0:
320,192,54894,1,0,0:0:0:0:
192,192,54972,1,0,0:0:0:0:
64,192,54972,1,0,0:0:0:0:
448,192,55050,1,0,0:0:0:0:
64,192,55128,1,0,0:0:0:0:
320,192,55206,1,0,0:0:0:0:
192,192,55245,1,0,0:0:0:0:
448,192,55285,1,0,0:0:0:0:
64,192,55324,1,0,0:0:0:0:
320,192,55363,1,0,0:0:0:0:
192,192,55441,1,0,0:0:0:0:
320,192,55480,1,0,0:0:0:0:
64,192,55519,1,0,0:0:0:0:
448,192,55558,1,0,0:0:0:0:
192,192,55597,1,0,0:0:0:0:
320,192,55597,1,0,0:0:0:0:
448,192,55675,1,0,0:0:0:0:
64,192,55753,128,0,55831:0:0:0:0:
192,192,55910,1,0,0:0:0:0:
448,192,55910,1,0,0:0:0:0:
320,192,55910,1,0,0:0:0:0:
64,192,55910,1,0,0:0:0:0:
64,192,56066,1,0,0:0:0:0:
320,192,56144,1,0,0:0:0:0:
64,192,56222,1,0,0:0:0:0:
192,192,56222,1,0,0:0:0:0:
448,192,56300,1,0,0:0:0:0:
192,192,56378,1,0,0:0:0:0:
448,192,56456,1,0,0:0:0:0:
192,192,56535,1,0,0:0:0:0:
64,192,56535,1,0,0:0:0:0:
320,192,56574,1,0,0:0:0:0:
448,192,56613,1,0,0:0:0:0:
320,192,56691,1,0,0:0:0:0:
192,192,56730,1,0,0:0:0:0:
64,192,56769,1,0,0:0:0:0:
448,192,56847,1,0,0:0:0:0:
320,192,56847,1,0,0:0:0:0:
192,192,56925,1,0,0:0:0:0:
64,192,57003,128,0,57160:0:0:0:0:
448,192,57160,1,0,0:0:0:0:
320,192,57199,1,0,0:0:0:0:
192,192,57238,1,0,0:0:0:0:
64,192,57277,1,0,0:0:0:0:
448,192,57316,1,0,0:0:0:0:
192,192,57394,1,0,0:0:0:0:
320,192,57472,128,0,57550:0:0:0:0:
448,192,57472,1,0,0:0:0:0:
64,192,57628,1,0,0:0:0:0:
320,192,57628,1,0,0:0:0:0:
448,192,57628,1,0,0:0:0:0:
192,192,57706,1,0,0:0:0:0:
448,192,57785,1,0,0:0:0:0:
64,192,57785,1,0,0:0:0:0:
320,192,57824,1,0,0:0:0:0:
192,192,57863,1,0,0:0:0:0:
64,192,57941,1,0,0:0:0:0:
192,192,57980,1,0,0:0:0:0:
320,192,58019,1,0,0:0:0:0:
192,192,58097,1,0,0:0:0:0:
64,192,58097,1,0,0:0:0:0:
448,192,58097,1,0,0:0:0:0:
320,192,58175,1,0,0:0:0:0:
192,192,58253,128,0,58331:0:0:0:0:
192,192,58410,1,0,0:0:0:0:
64,192,58410,1,0,0:0:0:0:
448,192,58410,1,0,0:0:0:0:
320,192,58410,1,0,0:0:0:0:
448,192,58566,1,0,0:0:0:0:
192,192,58644,1,0,0:0:0:0:
448,192,58722,1,0,0:0:0:0:
320,192,58722,1,0,0:0:0:0:
64,192,58800,1,0,0:0:0:0:
320,192,58878,1,0,0:0:0:0:
64,192,58956,1,0,0:0:0:0:
448,192,59035,1,0,0:0:0:0:
320,192,59074,1,0,0:0:0:0:
192,192,59113,1,0,0:0:0:0:
64,192,59191,1,0,0:0:0:0:
192,192,59230,1,0,0:0:0:0:
320,192,59269,1,0,0:0:0:0:
448,192,59347,1,0,0:0:0:0:
64,192,59347,1,0,0:0:0:0:
192,192,59425,1,0,0:0:0:0:
64,192,59503,128,0,59660:0:0:0:0:
448,192,59660,1,0,0:0:0:0:
448,192,60597,1,0,0:0:0:0:
320,192,60597,1,0,0:0:0:0:
64,192,60910,1,0,0:0:0:0:
192,192,60910,1,0,0:0:0:0:
320,192,60949,1,0,0:0:0:0:
448,192,60988,1,0,0:0:0:0:
64,192,61027,1,0,0:0:0:0:
192,192,61066,1,0,0:0:0:0:
448,192,61144,1,0,0:0:0:0:
64,192,61222,1,0,0:0:0:0:
192,192,61222,1,0,0:0:0:0:
320,192,61261,1,0,0:0:0:0:
448,192,61300,1,0,0:0:0:0:
192,192,61339,1,0,0:0:0:0:
64,192,61378,1,0,0:0:0:0:
320,192,61456,1,0,0:0:0:0:
192,192,61535,1,0,0:0:0:0:
64,192,61535,1,0,0:0:0:0:
320,192,61574,1,0,0:0:0:0:
448,192,61613,1,0,0:0:0:0:
192,192,61691,1,0,0:0:0:0:
64,192,61730,1,0,0:0:0:0:
448,192,61808,1,0,0:0:0:0:
192,192,61847,1,0,0:0:0:0:
64,192,61847,1,0,0:0:0:0:
320,192,61886,1,0,0:0:0:0:
448,192,61925,1,0,0:0:0:0:
192,192,62003,128,0,62081:0:0:0:0:
448,192,62160,1,0,0:0:0:0:
320,192,62160,1,0,0:0:0:0:
192,192,62199,1,0,0:0:0:0:
64,192,62238,1,0,0:0:0:0:
448,192,62277,1,0,0:0:0:0:
320,192,62316,1,0,0:0:0:0:
64,192,62394,1,0,0:0:0:0:
448,192,62472,1,0,0:0:0:0:
320,192,62472,1,0,0:0:0:0:
192,192,62511,1,0,0:0:0:0:
64,192,62550,1,0,0:0:0:0:
320,192,62589,1,0,0:0:0:0:
448,192,62628,1,0,0:0:0:0:
192,192,62706,1,0,0:0:0:0:
320,192,62785,1,0,0:0:0:0:
448,192,62785,1,0,0:0:0:0:
192,192,62824,1,0,0:0:0:0:
64,192,62863,1,0,0:0:0:0:
320,192,62941,1,0,0:0:0:0:
448,192,62980,1,0,0:0:0:0:
64,192,63058,1,0,0:0:0:0:
320,192,63097,1,0,0:0:0:0:
448,192,63097,1,0,0:0:0:0:
192,192,63136,1,0,0:0:0:0:
64,192,63175,1,0,0:0:0:0:
320,192,63253,128,0,63331:0:0:0:0:
192,192,63410,1,0,0:0:0:0:
64,192,63410,1,0,0:0:0:0:
320,192,63449,1,0,0:0:0:0:
448,192,63488,1,0,0:0:0:0:
64,192,63527,1,0,0:0:0:0:
192,192,63566,1,0,0:0:0:0:
448,192,63644,1,0,0:0:0:0:
192,192,63722,1,0,0:0:0:0:
64,192,63722,1,0,0:0:0:0:
320,192,63761,1,0,0:0:0:0:
448,192,63800,1,0,0:0:0:0:
192,192,63839,1,0,0:0:0:0:
64,192,63878,1,0,0:0:0:0:
320,192,63956,1,0,0:0:0:0:
64,192,64035,1,0,0:0:0:0:
192,192,64035,1,0,0:0:0:0:
320,192,64074,1,0,0:0:0:0:
448,192,64113,1,0,0:0:0:0:
192,192,64191,1,0,0:0:0:0:
64,192,64230,1,0,0:0:0:0:
448,192,64308,1,0,0:0:0:0:
64,192,64347,1,0,0:0:0:0:
192,192,64347,1,0,0:0:0:0:
320,192,64386,1,0,0:0:0:0:
448,192,64425,1,0,0:0:0:0:
192,192,64503,128,0,64581:0:0:0:0:
448,192,64660,1,0,0:0:0:0:
320,192,64660,1,0,0:0:0:0:
192,192,64699,1,0,0:0:0:0:
64,192,64738,1,0,0:0:0:0:
448,192,64777,1,0,0:0:0:0:
320,192,64816,1,0,0:0:0:0:
64,192,64894,1,0,0:0:0:0:
448,192,64972,1,0,0:0:0:0:
320,192,64972,1,0,0:0:0:0:
192,192,65011,1,0,0:0:0:0:
64,192,65050,1,0,0:0:0:0:
320,192,65089,1,0,0:0:0:0:
448,192,65128,1,0,0:0:0:0:
192,192,65206,1,0,0:0:0:0:
320,192,65285,1,0,0:0:0:0:
448,192,65285,1,0,0:0:0:0:
192,192,65324,1,0,0:0:0:0:
64,192,65363,1,0,0:0:0:0:
320,192,65441,1,0,0:0:0:0:
448,192,65441,1,0,0:0:0:0:
192,192,65480,1,0,0:0:0:0:
64,192,65519,1,0,0:0:0:0:
320,192,65597,1,0,0:0:0:0:
448,192,65597,1,0,0:0:0:0:
192,192,65636,1,0,0:0:0:0:
64,192,65675,1,0,0:0:0:0:
320,192,65753,128,0,65831:0:0:0:0:
64,192,65910,1,0,0:0:0:0:
192,192,65910,1,0,0:0:0:0:
320,192,65949,1,0,0:0:0:0:
448,192,65988,1,0,0:0:0:0:
64,192,66027,1,0,0:0:0:0:
192,192,66066,1,0,0:0:0:0:
448,192,66144,1,0,0:0:0:0:
64,192,66222,1,0,0:0:0:0:
192,192,66222,1,0,0:0:0:0:
320,192,66261,1,0,0:0:0:0:
448,192,66300,1,0,0:0:0:0:
192,192,66339,1,0,0:0:0:0:
64,192,66378,1,0,0:0:0:0:
320,192,66456,1,0,0:0:0:0:
192,192,66535,1,0,0:0:0:0:
64,192,66535,1,0,0:0:0:0:
320,192,66574,1,0,0:0:0:0:
448,192,66613,1,0,0:0:0:0:
192,192,66691,1,0,0:0:0:0:
64,192,66730,1,0,0:0:0:0:
448,192,66808,1,0,0:0:0:0:
192,192,66847,1,0,0:0:0:0:
64,192,66847,1,0,0:0:0:0:
320,192,66886,1,0,0:0:0:0:
448,192,66925,1,0,0:0:0:0:
192,192,67003,128,0,67081:0:0:0:0:
448,192,67160,1,0,0:0:0:0:
320,192,67160,1,0,0:0:0:0:
192,192,67199,1,0,0:0:0:0:
64,192,67238,1,0,0:0:0:0:
448,192,67277,1,0,0:0:0:0:
320,192,67316,1,0,0:0:0:0:
64,192,67394,1,0,0:0:0:0:
448,192,67472,1,0,0:0:0:0:
320,192,67472,1,0,0:0:0:0:
192,192,67511,1,0,0:0:0:0:
64,192,67550,1,0,0:0:0:0:
320,192,67589,1,0,0:0:0:0:
448,192,67628,1,0,0:0:0:0:
192,192,67706,1,0,0:0:0:0:
320,192,67785,1,0,0:0:0:0:
448,192,67785,1,0,0:0:0:0:
192,192,67824,1,0,0:0:0:0:
64,192,67863,1,0,0:0:0:0:
320,192,67941,1,0,0:0:0:0:
448,192,67980,1,0,0:0:0:0:
64,192,68058,1,0,0:0:0:0:
320,192,68097,1,0,0:0:0:0:
448,192,68097,1,0,0:0:0:0:
192,192,68136,1,0,0:0:0:0:
64,192,68175,1,0,0:0:0:0:
320,192,68253,128,0,68331:0:0:0:0:
192,192,68410,1,0,0:0:0:0:
64,192,68410,1,0,0:0:0:0:
320,192,68449,1,0,0:0:0:0:
448,192,68488,1,0,0:0:0:0:
64,192,68527,1,0,0:0:0:0:
192,192,68566,1,0,0:0:0:0:
448,192,68644,1,0,0:0:0:0:
192,192,68722,1,0,0:0:0:0:
64,192,68722,1,0,0:0:0:0:
320,192,68761,1,0,0:0:0:0:
448,192,68800,1,0,0:0:0:0:
192,192,68839,1,0,0:0:0:0:
64,192,68878,1,0,0:0:0:0:
320,192,68956,1,0,0:0:0:0:
64,192,69035,1,0,0:0:0:0:
192,192,69035,1,0,0:0:0:0:
320,192,69074,1,0,0:0:0:0:
448,192,69113,1,0,0:0:0:0:
192,192,69191,1,0,0:0:0:0:
64,192,69230,1,0,0:0:0:0:
448,192,69308,1,0,0:0:0:0:
64,192,69347,1,0,0:0:0:0:
192,192,69347,1,0,0:0:0:0:
320,192,69386,1,0,0:0:0:0:
448,192,69425,1,0,0:0:0:0:
192,192,69503,128,0,69581:0:0:0:0:
64,192,69503,1,0,0:0:0:0:
448,192,69660,1,0,0:0:0:0:
320,192,69660,1,0,0:0:0:0:
192,192,69699,1,0,0:0:0:0:
64,192,69738,1,0,0:0:0:0:
448,192,69777,1,0,0:0:0:0:
320,192,69816,1,0,0:0:0:0:
64,192,69894,1,0,0:0:0:0:
448,192,69972,1,0,0:0:0:0:
320,192,69972,1,0,0:0:0:0:
192,192,70011,1,0,0:0:0:0:
64,192,70050,1,0,0:0:0:0:
320,192,70089,1,0,0:0:0:0:
448,192,70128,1,0,0:0:0:0:
192,192,70206,1,0,0:0:0:0:
320,192,70285,1,0,0:0:0:0:
448,192,70285,1,0,0:0:0:0:
192,192,70324,1,0,0:0:0:0:
64,192,70363,1,0,0:0:0:0:
320,192,70441,1,0,0:0:0:0:
448,192,70441,1,0,0:0:0:0:
64,192,70519,1,0,0:0:0:0:
192,192,70519,1,0,0:0:0:0:
320,192,70597,1,0,0:0:0:0:
448,192,70597,1,0,0:0:0:0:
192,192,70636,1,0,0:0:0:0:
64,192,70675,1,0,0:0:0:0:
448,192,70753,1,0,0:0:0:0:
320,192,70753,128,0,70831:0:0:0:0:
64,192,70910,1,0,0:0:0:0:
192,192,70910,1,0,0:0:0:0:
320,192,70949,1,0,0:0:0:0:
448,192,70988,1,0,0:0:0:0:
64,192,71027,1,0,0:0:0:0:
192,192,71066,1,0,0:0:0:0:
320,192,71066,1,0,0:0:0:0:
448,192,71144,1,0,0:0:0:0:
64,192,71222,1,0,0:0:0:0:
192,192,71222,1,0,0:0:0:0:
320,192,71261,1,0,0:0:0:0:
448,192,71300,1,0,0:0:0:0:
192,192,71339,1,0,0:0:0:0:
64,192,71378,1,0,0:0:0:0:
320,192,71378,1,0,0:0:0:0:
448,192,71456,1,0,0:0:0:0:
192,192,71535,1,0,0:0:0:0:
64,192,71535,1,0,0:0:0:0:
320,192,71574,1,0,0:0:0:0:
448,192,71613,1,0,0:0:0:0:
192,192,71691,1,0,0:0:0:0:
320,192,71691,1,0,0:0:0:0:
64,192,71730,1,0,0:0:0:0:
448,192,71808,1,0,0:0:0:0:
192,192,71847,1,0,0:0:0:0:
64,192,71847,1,0,0:0:0:0:
320,192,71886,1,0,0:0:0:0:
448,192,71925,1,0,0:0:0:0:
192,192,72003,128,0,72081:0:0:0:0:
320,192,72003,1,0,0:0:0:0:
448,192,72160,1,0,0:0:0:0:
320,192,72160,1,0,0:0:0:0:
192,192,72199,1,0,0:0:0:0:
64,192,72238,1,0,0:0:0:0:
448,192,72277,1,0,0:0:0:0:
320,192,72316,1,0,0:0:0:0:
192,192,72316,1,0,0:0:0:0:
64,192,72394,1,0,0:0:0:0:
448,192,72472,1,0,0:0:0:0:
320,192,72472,1,0,0:0:0:0:
192,192,72511,1,0,0:0:0:0:
64,192,72550,1,0,0:0:0:0:
320,192,72589,1,0,0:0:0:0:
448,192,72628,1,0,0:0:0:0:
192,192,72628,1,0,0:0:0:0:
64,192,72706,1,0,0:0:0:0:
320,192,72785,1,0,0:0:0:0:
448,192,72785,1,0,0:0:0:0:
192,192,72824,1,0,0:0:0:0:
64,192,72863,1,0,0:0:0:0:
320,192,72941,1,0,0:0:0:0:
192,192,72941,1,0,0:0:0:0:
448,192,72980,1,0,0:0:0:0:
64,192,73058,1,0,0:0:0:0:
320,192,73097,1,0,0:0:0:0:
448,192,73097,1,0,0:0:0:0:
192,192,73136,1,0,0:0:0:0:
64,192,73175,1,0,0:0:0:0:
320,192,73253,128,0,73331:0:0:0:0:
192,192,73253,1,0,0:0:0:0:
192,192,73410,1,0,0:0:0:0:
64,192,73410,1,0,0:0:0:0:
320,192,73449,1,0,0:0:0:0:
448,192,73488,1,0,0:0:0:0:
64,192,73527,1,0,0:0:0:0:
192,192,73566,1,0,0:0:0:0:
320,192,73566,1,0,0:0:0:0:
448,192,73644,1,0,0:0:0:0:
192,192,73722,1,0,0:0:0:0:
64,192,73722,1,0,0:0:0:0:
320,192,73761,1,0,0:0:0:0:
448,192,73800,1,0,0:0:0:0:
192,192,73839,1,0,0:0:0:0:
64,192,73878,1,0,0:0:0:0:
320,192,73878,1,0,0:0:0:0:
448,192,73956,1,0,0:0:0:0:
64,192,74035,1,0,0:0:0:0:
192,192,74035,1,0,0:0:0:0:
320,192,74074,1,0,0:0:0:0:
448,192,74113,1,0,0:0:0:0:
192,192,74191,1,0,0:0:0:0:
320,192,74191,1,0,0:0:0:0:
64,192,74230,1,0,0:0:0:0:
448,192,74308,1,0,0:0:0:0:
64,192,74347,1,0,0:0:0:0:
192,192,74347,1,0,0:0:0:0:
320,192,74386,1,0,0:0:0:0:
448,192,74425,1,0,0:0:0:0:
192,192,74503,128,0,74581:0:0:0:0:
320,192,74503,1,0,0:0:0:0:
448,192,74660,1,0,0:0:0:0:
320,192,74660,1,0,0:0:0:0:
192,192,74699,1,0,0:0:0:0:
64,192,74738,1,0,0:0:0:0:
448,192,74777,1,0,0:0:0:0:
320,192,74816,1,0,0:0:0:0:
192,192,74816,1,0,0:0:0:0:
64,192,74894,1,0,0:0:0:0:
448,192,74972,1,0,0:0:0:0:
320,192,74972,1,0,0:0:0:0:
192,192,75011,1,0,0:0:0:0:
64,192,75050,1,0,0:0:0:0:
320,192,75089,1,0,0:0:0:0:
448,192,75128,1,0,0:0:0:0:
192,192,75128,1,0,0:0:0:0:
64,192,75206,1,0,0:0:0:0:
320,192,75285,1,0,0:0:0:0:
448,192,75285,1,0,0:0:0:0:
192,192,75324,1,0,0:0:0:0:
64,192,75363,1,0,0:0:0:0:
320,192,75441,1,0,0:0:0:0:
448,192,75441,1,0,0:0:0:0:
192,192,75480,1,0,0:0:0:0:
64,192,75519,1,0,0:0:0:0:
320,192,75597,1,0,0:0:0:0:
448,192,75597,1,0,0:0:0:0:
192,192,75636,1,0,0:0:0:0:
64,192,75675,1,0,0:0:0:0:
320,192,75753,128,0,75831:0:0:0:0:
192,192,75753,1,0,0:0:0:0:
64,192,75910,1,0,0:0:0:0:
192,192,75910,1,0,0:0:0:0:
320,192,75949,1,0,0:0:0:0:
448,192,75988,1,0,0:0:0:0:
64,192,76027,1,0,0:0:0:0:
192,192,76066,1,0,0:0:0:0:
320,192,76066,1,0,0:0:0:0:
448,192,76144,1,0,0:0:0:0:
64,192,76222,1,0,0:0:0:0:
192,192,76222,1,0,0:0:0:0:
320,192,76261,1,0,0:0:0:0:
448,192,76300,1,0,0:0:0:0:
192,192,76339,1,0,0:0:0:0:
64,192,76378,1,0,0:0:0:0:
320,192,76378,1,0,0:0:0:0:
448,192,76456,1,0,0:0:0:0:
192,192,76535,1,0,0:0:0:0:
64,192,76535,1,0,0:0:0:0:
320,192,76574,1,0,0:0:0:0:
448,192,76613,1,0,0:0:0:0:
192,192,76691,1,0,0:0:0:0:
320,192,76691,1,0,0:0:0:0:
64,192,76730,1,0,0:0:0:0:
448,192,76808,1,0,0:0:0:0:
192,192,76847,1,0,0:0:0:0:
64,192,76847,1,0,0:0:0:0:
320,192,76886,1,0,0:0:0:0:
448,192,76925,1,0,0:0:0:0:
192,192,77003,128,0,77081:0:0:0:0:
320,192,77003,1,0,0:0:0:0:
448,192,77160,1,0,0:0:0:0:
320,192,77160,1,0,0:0:0:0:
192,192,77199,1,0,0:0:0:0:
64,192,77238,1,0,0:0:0:0:
448,192,77277,1,0,0:0:0:0:
320,192,77316,1,0,0:0:0:0:
192,192,77316,1,0,0:0:0:0:
64,192,77394,1,0,0:0:0:0:
448,192,77472,1,0,0:0:0:0:
320,192,77472,1,0,0:0:0:0:
192,192,77511,1,0,0:0:0:0:
64,192,77550,1,0,0:0:0:0:
320,192,77589,1,0,0:0:0:0:
448,192,77628,1,0,0:0:0:0:
192,192,77628,1,0,0:0:0:0:
64,192,77706,1,0,0:0:0:0:
320,192,77785,1,0,0:0:0:0:
448,192,77785,1,0,0:0:0:0:
192,192,77824,1,0,0:0:0:0:
64,192,77863,1,0,0:0:0:0:
320,192,77941,1,0,0:0:0:0:
192,192,77941,1,0,0:0:0:0:
448,192,77980,1,0,0:0:0:0:
64,192,78058,1,0,0:0:0:0:
320,192,78097,1,0,0:0:0:0:
448,192,78097,1,0,0:0:0:0:
192,192,78136,1,0,0:0:0:0:
64,192,78175,1,0,0:0:0:0:
320,192,78253,128,0,78331:0:0:0:0:
192,192,78253,1,0,0:0:0:0:
192,192,78410,1,0,0:0:0:0:
64,192,78410,1,0,0:0:0:0:
320,192,78449,1,0,0:0:0:0:
448,192,78488,1,0,0:0:0:0:
64,192,78527,1,0,0:0:0:0:
192,192,78566,1,0,0:0:0:0:
320,192,78566,1,0,0:0:0:0:
448,192,78644,1,0,0:0:0:0:
192,192,78722,1,0,0:0:0:0:
64,192,78722,1,0,0:0:0:0:
320,192,78761,1,0,0:0:0:0:
448,192,78800,1,0,0:0:0:0:
320,192,78878,1,0,0:0:0:0:
192,192,78956,1,0,0:0:0:0:
64,192,78956,1,0,0:0:0:0:
448,192,79035,1,0,0:0:0:0:
320,192,79035,1,0,0:0:0:0:
192,192,79074,1,0,0:0:0:0:
64,192,79113,1,0,0:0:0:0:
192,192,79191,1,0,0:0:0:0:
320,192,79269,1,0,0:0:0:0:
448,192,79269,1,0,0:0:0:0:
64,192,79347,1,0,0:0:0:0:
192,192,79347,1,0,0:0:0:0:
320,192,79425,1,0,0:0:0:0:
192,192,79503,128,0,79581:0:0:0:0:
64,192,79503,1,0,0:0:0:0:
448,192,79503,1,0,0:0:0:0:
320,192,79660,1,0,0:0:0:0:
448,192,79738,1,0,0:0:0:0:
320,192,79816,1,0,0:0:0:0:
192,192,79894,1,0,0:0:0:0:
64,192,79972,1,0,0:0:0:0:
192,192,80050,1,0,0:0:0:0:
320,192,80128,1,0,0:0:0:0:
448,192,80206,1,0,0:0:0:0:
320,192,80285,1,0,0:0:0:0:
192,192,80363,1,0,0:0:0:0:
64,192,80441,1,0,0:0:0:0:
192,192,80519,1,0,0:0:0:0:
320,192,80597,1,0,0:0:0:0:
448,192,80675,1,0,0:0:0:0:
320,192,80753,1,0,0:0:0:0:
192,192,80831,1,0,0:0:0:0:
320,192,80910,1,0,0:0:0:0:
448,192,80910,1,0,0:0:0:0:
192,192,80949,1,0,0:0:0:0:
64,192,80988,1,0,0:0:0:0:
448,192,81027,1,0,0:0:0:0:
320,192,81066,1,0,0:0:0:0:
192,192,81066,1,0,0:0:0:0:
64,192,81144,1,0,0:0:0:0:
448,192,81222,1,0,0:0:0:0:
320,192,81222,1,0,0:0:0:0:
192,192,81261,1,0,0:0:0:0:
64,192,81300,1,0,0:0:0:0:
320,192,81339,1,0,0:0:0:0:
448,192,81378,1,0,0:0:0:0:
192,192,81378,1,0,0:0:0:0:
64,192,81456,1,0,0:0:0:0:
320,192,81535,1,0,0:0:0:0:
448,192,81535,1,0,0:0:0:0:
192,192,81574,1,0,0:0:0:0:
64,192,81613,1,0,0:0:0:0:
320,192,81691,1,0,0:0:0:0:
192,192,81691,1,0,0:0:0:0:
448,192,81730,1,0,0:0:0:0:
64,192,81808,1,0,0:0:0:0:
320,192,81847,1,0,0:0:0:0:
448,192,81847,1,0,0:0:0:0:
192,192,81886,1,0,0:0:0:0:
64,192,81925,1,0,0:0:0:0:
320,192,82003,128,0,82081:0:0:0:0:
192,192,82003,1,0,0:0:0:0:
64,192,82160,1,0,0:0:0:0:
192,192,82160,1,0,0:0:0:0:
320,192,82199,1,0,0:0:0:0:
448,192,82238,1,0,0:0:0:0:
64,192,82277,1,0,0:0:0:0:
192,192,82316,1,0,0:0:0:0:
320,192,82316,1,0,0:0:0:0:
448,192,82394,1,0,0:0:0:0:
64,192,82472,1,0,0:0:0:0:
192,192,82472,1,0,0:0:0:0:
320,192,82511,1,0,0:0:0:0:
448,192,82550,1,0,0:0:0:0:
192,192,82589,1,0,0:0:0:0:
64,192,82628,1,0,0:0:0:0:
320,192,82628,1,0,0:0:0:0:
448,192,82706,1,0,0:0:0:0:
192,192,82785,1,0,0:0:0:0:
64,192,82785,1,0,0:0:0:0:
320,192,82824,1,0,0:0:0:0:
448,192,82863,1,0,0:0:0:0:
192,192,82941,1,0,0:0:0:0:
320,192,82941,1,0,0:0:0:0:
64,192,82980,1,0,0:0:0:0:
448,192,83058,1,0,0:0:0:0:
192,192,83097,1,0,0:0:0:0:
64,192,83097,1,0,0:0:0:0:
320,192,83136,1,0,0:0:0:0:
448,192,83175,1,0,0:0:0:0:
192,192,83253,128,0,83331:0:0:0:0:
320,192,83253,1,0,0:0:0:0:
320,192,83410,1,0,0:0:0:0:
448,192,83410,1,0,0:0:0:0:
192,192,83449,1,0,0:0:0:0:
64,192,83488,1,0,0:0:0:0:
448,192,83527,1,0,0:0:0:0:
320,192,83566,1,0,0:0:0:0:
192,192,83566,1,0,0:0:0:0:
64,192,83644,1,0,0:0:0:0:
320,192,83722,1,0,0:0:0:0:
448,192,83722,1,0,0:0:0:0:
192,192,83761,1,0,0:0:0:0:
64,192,83800,1,0,0:0:0:0:
320,192,83839,1,0,0:0:0:0:
448,192,83878,1,0,0:0:0:0:
192,192,83878,1,0,0:0:0:0:
64,192,83956,1,0,0:0:0:0:
448,192,84035,1,0,0:0:0:0:
320,192,84035,1,0,0:0:0:0:
192,192,84074,1,0,0:0:0:0:
64,192,84113,1,0,0:0:0:0:
320,192,84191,1,0,0:0:0:0:
192,192,84191,1,0,0:0:0:0:
448,192,84230,1,0,0:0:0:0:
64,192,84308,1,0,0:0:0:0:
448,192,84347,1,0,0:0:0:0:
320,192,84347,1,0,0:0:0:0:
192,192,84386,1,0,0:0:0:0:
64,192,84425,1,0,0:0:0:0:
320,192,84503,128,0,84581:0:0:0:0:
192,192,84503,1,0,0:0:0:0:
64,192,84660,1,0,0:0:0:0:
192,192,84660,1,0,0:0:0:0:
320,192,84699,1,0,0:0:0:0:
448,192,84738,1,0,0:0:0:0:
64,192,84777,1,0,0:0:0:0:
192,192,84816,1,0,0:0:0:0:
320,192,84816,1,0,0:0:0:0:
448,192,84894,1,0,0:0:0:0:
64,192,84972,1,0,0:0:0:0:
192,192,84972,1,0,0:0:0:0:
320,192,85011,1,0,0:0:0:0:
448,192,85050,1,0,0:0:0:0:
192,192,85089,1,0,0:0:0:0:
64,192,85128,1,0,0:0:0:0:
320,192,85128,1,0,0:0:0:0:
448,192,85206,1,0,0:0:0:0:
192,192,85285,1,0,0:0:0:0:
64,192,85285,1,0,0:0:0:0:
320,192,85324,1,0,0:0:0:0:
448,192,85363,1,0,0:0:0:0:
192,192,85441,1,0,0:0:0:0:
64,192,85441,1,0,0:0:0:0:
320,192,85480,1,0,0:0:0:0:
448,192,85519,1,0,0:0:0:0:
192,192,85597,1,0,0:0:0:0:
64,192,85597,1,0,0:0:0:0:
320,192,85636,1,0,0:0:0:0:
448,192,85675,1,0,0:0:0:0:
192,192,85753,128,0,85831:0:0:0:0:
320,192,85753,1,0,0:0:0:0:
448,192,85910,1,0,0:0:0:0:
320,192,85910,1,0,0:0:0:0:
192,192,85949,1,0,0:0:0:0:
64,192,85988,1,0,0:0:0:0:
448,192,86027,1,0,0:0:0:0:
320,192,86066,1,0,0:0:0:0:
192,192,86066,1,0,0:0:0:0:
64,192,86144,1,0,0:0:0:0:
448,192,86222,1,0,0:0:0:0:
320,192,86222,1,0,0:0:0:0:
192,192,86261,1,0,0:0:0:0:
64,192,86300,1,0,0:0:0:0:
320,192,86339,1,0,0:0:0:0:
448,192,86378,1,0,0:0:0:0:
192,192,86378,1,0,0:0:0:0:
64,192,86456,1,0,0:0:0:0:
320,192,86535,1,0,0:0:0:0:
448,192,86535,1,0,0:0:0:0:
192,192,86574,1,0,0:0:0:0:
64,192,86613,1,0,0:0:0:0:
320,192,86691,1,0,0:0:0:0:
192,192,86691,1,0,0:0:0:0:
448,192,86730,1,0,0:0:0:0:
64,192,86808,1,0,0:0:0:0:
320,192,86847,1,0,0:0:0:0:
448,192,86847,1,0,0:0:0:0:
192,192,86886,1,0,0:0:0:0:
64,192,86925,1,0,0:0:0:0:
320,192,87003,128,0,87081:0:0:0:0:
192,192,87003,1,0,0:0:0:0:
64,192,87160,1,0,0:0:0:0:
192,192,87160,1,0,0:0:0:0:
320,192,87199,1,0,0:0:0:0:
448,192,87238,1,0,0:0:0:0:
64,192,87277,1,0,0:0:0:0:
192,192,87316,1,0,0:0:0:0:
320,192,87316,1,0,0:0:0:0:
448,192,87394,1,0,0:0:0:0:
64,192,87472,1,0,0:0:0:0:
192,192,87472,1,0,0:0:0:0:
320,192,87511,1,0,0:0:0:0:
448,192,87550,1,0,0:0:0:0:
192,192,87589,1,0,0:0:0:0:
64,192,87628,1,0,0:0:0:0:
320,192,87628,1,0,0:0:0:0:
448,192,87706,1,0,0:0:0:0:
192,192,87785,1,0,0:0:0:0:
64,192,87785,1,0,0:0:0:0:
320,192,87824,1,0,0:0:0:0:
448,192,87863,1,0,0:0:0:0:
192,192,87941,1,0,0:0:0:0:
320,192,87941,1,0,0:0:0:0:
64,192,87980,1,0,0:0:0:0:
448,192,88058,1,0,0:0:0:0:
192,192,88097,1,0,0:0:0:0:
64,192,88097,1,0,0:0:0:0:
320,192,88136,1,0,0:0:0:0:
448,192,88175,1,0,0:0:0:0:
192,192,88253,128,0,88331:0:0:0:0:
320,192,88253,1,0,0:0:0:0:
448,192,88410,1,0,0:0:0:0:
320,192,88410,1,0,0:0:0:0:
192,192,88449,1,0,0:0:0:0:
64,192,88488,1,0,0:0:0:0:
448,192,88527,1,0,0:0:0:0:
320,192,88566,1,0,0:0:0:0:
192,192,88566,1,0,0:0:0:0:
64,192,88644,1,0,0:0:0:0:
448,192,88722,1,0,0:0:0:0:
320,192,88722,1,0,0:0:0:0:
192,192,88761,1,0,0:0:0:0:
64,192,88800,1,0,0:0:0:0:
320,192,88839,1,0,0:0:0:0:
448,192,88878,1,0,0:0:0:0:
192,192,88878,1,0,0:0:0:0:
64,192,88956,1,0,0:0:0:0:
320,192,89035,1,0,0:0:0:0:
448,192,89035,1,0,0:0:0:0:
192,192,89074,1,0,0:0:0:0:
64,192,89113,1,0,0:0:0:0:
320,192,89191,1,0,0:0:0:0:
192,192,89191,1,0,0:0:0:0:
448,192,89230,1,0,0:0:0:0:
64,192,89308,1,0,0:0:0:0:
320,192,89347,1,0,0:0:0:0:
448,192,89347,1,0,0:0:0:0:
192,192,89386,1,0,0:0:0:0:
64,192,89425,1,0,0:0:0:0:
320,192,89503,128,0,89581:0:0:0:0:
192,192,89503,1,0,0:0:0:0:
192,192,89660,1,0,0:0:0:0:
64,192,89660,1,0,0:0:0:0:
320,192,89699,1,0,0:0:0:0:
448,192,89738,1,0,0:0:0:0:
64,192,89777,1,0,0:0:0:0:
320,192,89816,1,0,0:0:0:0:
192,192,89816,1,0,0:0:0:0:
448,192,89894,1,0,0:0:0:0:
192,192,89972,1,0,0:0:0:0:
64,192,89972,1,0,0:0:0:0:
320,192,90011,1,0,0:0:0:0:
448,192,90050,1,0,0:0:0:0:
192,192,90089,1,0,0:0:0:0:
320,192,90128,1,0,0:0:0:0:
64,192,90128,1,0,0:0:0:0:
448,192,90206,1,0,0:0:0:0:
192,192,90206,1,0,0:0:0:0:
64,192,90285,1,0,0:0:0:0:
320,192,90285,1,0,0:0:0:0:
192,192,90324,1,0,0:0:0:0:
448,192,90363,1,0,0:0:0:0:
192,192,90441,1,0,0:0:0:0:
64,192,90441,1,0,0:0:0:0:
320,192,90519,1,0,0:0:0:0:
448,192,90519,1,0,0:0:0:0:
64,192,90597,1,0,0:0:0:0:
192,192,90597,1,0,0:0:0:0:
320,192,90636,1,0,0:0:0:0:
448,192,90675,1,0,0:0:0:0:
320,192,90753,1,0,0:0:0:0:
192,192,90753,128,0,90831:0:0:0:0:
192,192,90910,1,0,0:0:0:0:
64,192,90910,1,0,0:0:0:0:
320,192,90949,1,0,0:0:0:0:
448,192,90988,1,0,0:0:0:0:
64,192,91027,1,0,0:0:0:0:
320,192,91066,1,0,0:0:0:0:
192,192,91066,1,0,0:0:0:0:
448,192,91144,1,0,0:0:0:0:
192,192,91222,1,0,0:0:0:0:
64,192,91222,1,0,0:0:0:0:
320,192,91261,1,0,0:0:0:0:
448,192,91300,1,0,0:0:0:0:
192,192,91339,1,0,0:0:0:0:
320,192,91378,1,0,0:0:0:0:
64,192,91378,1,0,0:0:0:0:
448,192,91456,1,0,0:0:0:0:
64,192,91535,1,0,0:0:0:0:
192,192,91535,1,0,0:0:0:0:
320,192,91574,1,0,0:0:0:0:
448,192,91613,1,0,0:0:0:0:
320,192,91691,1,0,0:0:0:0:
192,192,91691,1,0,0:0:0:0:
64,192,91730,1,0,0:0:0:0:
448,192,91808,1,0,0:0:0:0:
64,192,91847,1,0,0:0:0:0:
192,192,91847,1,0,0:0:0:0:
320,192,91886,1,0,0:0:0:0:
448,192,91925,1,0,0:0:0:0:
320,192,92003,1,0,0:0:0:0:
192,192,92003,128,0,92081:0:0:0:0:
320,192,92160,1,0,0:0:0:0:
448,192,92160,1,0,0:0:0:0:
192,192,92199,1,0,0:0:0:0:
64,192,92238,1,0,0:0:0:0:
448,192,92277,1,0,0:0:0:0:
192,192,92316,1,0,0:0:0:0:
320,192,92316,1,0,0:0:0:0:
64,192,92394,1,0,0:0:0:0:
320,192,92472,1,0,0:0:0:0:
448,192,92472,1,0,0:0:0:0:
192,192,92511,1,0,0:0:0:0:
64,192,92550,1,0,0:0:0:0:
320,192,92589,1,0,0:0:0:0:
192,192,92628,1,0,0:0:0:0:
448,192,92628,1,0,0:0:0:0:
64,192,92706,1,0,0:0:0:0:
448,192,92785,1,0,0:0:0:0:
320,192,92785,1,0,0:0:0:0:
192,192,92824,1,0,0:0:0:0:
64,192,92863,1,0,0:0:0:0:
192,192,92941,1,0,0:0:0:0:
320,192,92941,1,0,0:0:0:0:
448,192,92980,1,0,0:0:0:0:
64,192,93058,1,0,0:0:0:0:
448,192,93097,1,0,0:0:0:0:
320,192,93097,1,0,0:0:0:0:
192,192,93136,1,0,0:0:0:0:
64,192,93175,1,0,0:0:0:0:
192,192,93253,1,0,0:0:0:0:
320,192,93253,128,0,93331:0:0:0:0:
64,192,93410,1,0,0:0:0:0:
192,192,93410,1,0,0:0:0:0:
320,192,93449,1,0,0:0:0:0:
448,192,93488,1,0,0:0:0:0:
64,192,93527,1,0,0:0:0:0:
320,192,93566,1,0,0:0:0:0:
192,192,93566,1,0,0:0:0:0:
448,192,93644,1,0,0:0:0:0:
64,192,93722,1,0,0:0:0:0:
192,192,93722,1,0,0:0:0:0:
320,192,93761,1,0,0:0:0:0:
448,192,93800,1,0,0:0:0:0:
192,192,93839,1,0,0:0:0:0:
320,192,93878,1,0,0:0:0:0:
64,192,93878,1,0,0:0:0:0:
448,192,93956,1,0,0:0:0:0:
192,192,94035,1,0,0:0:0:0:
64,192,94035,1,0,0:0:0:0:
320,192,94074,1,0,0:0:0:0:
448,192,94113,1,0,0:0:0:0:
320,192,94191,1,0,0:0:0:0:
192,192,94191,1,0,0:0:0:0:
64,192,94230,1,0,0:0:0:0:
448,192,94308,1,0,0:0:0:0:
192,192,94347,1,0,0:0:0:0:
64,192,94347,1,0,0:0:0:0:
320,192,94386,1,0,0:0:0:0:
448,192,94425,1,0,0:0:0:0:
320,192,94503,1,0,0:0:0:0:
192,192,94503,128,0,94581:0:0:0:0:
320,192,94660,1,0,0:0:0:0:
448,192,94660,1,0,0:0:0:0:
192,192,94699,1,0,0:0:0:0:
64,192,94738,1,0,0:0:0:0:
448,192,94777,1,0,0:0:0:0:
192,192,94816,1,0,0:0:0:0:
320,192,94816,1,0,0:0:0:0:
64,192,94894,1,0,0:0:0:0:
320,192,94972,1,0,0:0:0:0:
448,192,94972,1,0,0:0:0:0:
192,192,95011,1,0,0:0:0:0:
64,192,95050,1,0,0:0:0:0:
320,192,95089,1,0,0:0:0:0:
192,192,95128,1,0,0:0:0:0:
448,192,95128,1,0,0:0:0:0:
64,192,95206,1,0,0:0:0:0:
448,192,95285,1,0,0:0:0:0:
320,192,95285,1,0,0:0:0:0:
192,192,95324,1,0,0:0:0:0:
64,192,95363,1,0,0:0:0:0:
448,192,95441,1,0,0:0:0:0:
320,192,95441,1,0,0:0:0:0:
192,192,95480,1,0,0:0:0:0:
64,192,95519,1,0,0:0:0:0:
448,192,95597,1,0,0:0:0:0:
320,192,95597,1,0,0:0:0:0:
192,192,95636,1,0,0:0:0:0:
64,192,95675,1,0,0:0:0:0:
192,192,95753,1,0,0:0:0:0:
320,192,95753,128,0,95831:0:0:0:0:
192,192,95910,1,0,0:0:0:0:
64,192,95910,1,0,0:0:0:0:
320,192,95949,1,0,0:0:0:0:
448,192,95988,1,0,0:0:0:0:
64,192,96027,1,0,0:0:0:0:
320,192,96066,1,0,0:0:0:0:
192,192,96066,1,0,0:0:0:0:
448,192,96144,1,0,0:0:0:0:
192,192,96222,1,0,0:0:0:0:
64,192,96222,1,0,0:0:0:0:
320,192,96261,1,0,0:0:0:0:
448,192,96300,1,0,0:0:0:0:
192,192,96339,1,0,0:0:0:0:
320,192,96378,1,0,0:0:0:0:
64,192,96378,1,0,0:0:0:0:
448,192,96456,1,0,0:0:0:0:
64,192,96535,1,0,0:0:0:0:
192,192,96535,1,0,0:0:0:0:
320,192,96574,1,0,0:0:0:0:
448,192,96613,1,0,0:0:0:0:
320,192,96691,1,0,0:0:0:0:
192,192,96691,1,0,0:0:0:0:
64,192,96730,1,0,0:0:0:0:
448,192,96808,1,0,0:0:0:0:
64,192,96847,1,0,0:0:0:0:
192,192,96847,1,0,0:0:0:0:
320,192,96886,1,0,0:0:0:0:
448,192,96925,1,0,0:0:0:0:
320,192,97003,1,0,0:0:0:0:
192,192,97003,128,0,97081:0:0:0:0:
320,192,97160,1,0,0:0:0:0:
448,192,97160,1,0,0:0:0:0:
192,192,97160,1,0,0:0:0:0:
64,192,97199,1,0,0:0:0:0:
192,192,97238,1,0,0:0:0:0:
448,192,97277,1,0,0:0:0:0:
320,192,97316,1,0,0:0:0:0:
64,192,97316,1,0,0:0:0:0:
192,192,97394,1,0,0:0:0:0:
320,192,97472,1,0,0:0:0:0:
448,192,97472,1,0,0:0:0:0:
192,192,97511,1,0,0:0:0:0:
64,192,97550,1,0,0:0:0:0:
320,192,97589,1,0,0:0:0:0:
192,192,97628,1,0,0:0:0:0:
448,192,97628,1,0,0:0:0:0:
64,192,97706,1,0,0:0:0:0:
448,192,97785,1,0,0:0:0:0:
320,192,97785,1,0,0:0:0:0:
192,192,97824,1,0,0:0:0:0:
64,192,97863,1,0,0:0:0:0:
192,192,97941,1,0,0:0:0:0:
320,192,97941,1,0,0:0:0:0:
448,192,97980,1,0,0:0:0:0:
64,192,98058,1,0,0:0:0:0:
448,192,98097,1,0,0:0:0:0:
320,192,98097,1,0,0:0:0:0:
192,192,98136,1,0,0:0:0:0:
64,192,98175,1,0,0:0:0:0:
192,192,98253,1,0,0:0:0:0:
320,192,98253,128,0,98331:0:0:0:0:
64,192,98410,1,0,0:0:0:0:
192,192,98410,1,0,0:0:0:0:
320,192,98410,1,0,0:0:0:0:
448,192,98449,1,0,0:0:0:0:
320,192,98488,1,0,0:0:0:0:
64,192,98527,1,0,0:0:0:0:
192,192,98566,1,0,0:0:0:0:
448,192,98566,1,0,0:0:0:0:
320,192,98644,1,0,0:0:0:0:
64,192,98722,1,0,0:0:0:0:
192,192,98722,1,0,0:0:0:0:
320,192,98761,1,0,0:0:0:0:
448,192,98800,1,0,0:0:0:0:
320,192,98878,1,0,0:0:0:0:
64,192,98956,1,0,0:0:0:0:
192,192,98956,1,0,0:0:0:0:
320,192,99035,1,0,0:0:0:0:
448,192,99035,1,0,0:0:0:0:
192,192,99074,1,0,0:0:0:0:
64,192,99113,1,0,0:0:0:0:
192,192,99191,1,0,0:0:0:0:
448,192,99269,1,0,0:0:0:0:
320,192,99269,1,0,0:0:0:0:
192,192,99347,1,0,0:0:0:0:
64,192,99347,1,0,0:0:0:0:
320,192,99425,1,0,0:0:0:0:
448,192,99503,1,0,0:0:0:0:
64,192,99503,1,0,0:0:0:0:
192,192,99503,128,0,99581:0:0:0:0:
320,192,99660,1,0,0:0:0:0:
448,192,99660,1,0,0:0:0:0:
448,192,100597,1,0,0:0:0:0:
448,192,100910,1,0,0:0:0:0:
64,192,100910,128,0,100988:0:0:0:0:
320,192,101222,1,0,0:0:0:0:
64,192,101378,128,0,101456:0:0:0:0:
64,192,101691,128,0,101769:0:0:0:0:
320,192,101847,1,0,0:0:0:0:
64,192,102003,128,0,102081:0:0:0:0:
64,192,102316,128,0,102394:0:0:0:0:
448,192,102472,128,0,102550:0:0:0:0:
320,192,102472,1,0,0:0:0:0:
64,192,102628,128,0,102706:0:0:0:0:
64,192,102941,128,0,103019:0:0:0:0:
320,192,102941,1,0,0:0:0:0:
448,192,103097,128,0,103331:0:0:0:0:
192,192,103097,1,0,0:0:0:0:
448,192,103410,128,0,103488:0:0:0:0:
64,192,103410,1,0,0:0:0:0:
192,192,103722,1,0,0:0:0:0:
448,192,103878,128,0,103956:0:0:0:0:
320,192,104191,128,0,104269:0:0:0:0:
192,192,104347,1,0,0:0:0:0:
448,192,104503,128,0,104581:0:0:0:0:
448,192,104816,128,0,104894:0:0:0:0:
64,192,104972,128,0,105050:0:0:0:0:
192,192,104972,1,0,0:0:0:0:
448,192,105128,128,0,105206:0:0:0:0:
448,192,105285,128,0,105363:0:0:0:0:
448,192,105441,128,0,105480:0:0:0:0:
192,192,105441,1,0,0:0:0:0:
320,192,105519,128,0,105558:0:0:0:0:
64,192,105597,128,0,105831:0:0:0:0:
448,192,105597,1,0,0:0:0:0:
64,192,105910,128,0,105988:0:0:0:0:
448,192,105910,1,0,0:0:0:0:
320,192,106222,1,0,0:0:0:0:
64,192,106378,128,0,106456:0:0:0:0:
192,192,106691,128,0,106769:0:0:0:0:
320,192,106847,1,0,0:0:0:0:
64,192,107003,128,0,107081:0:0:0:0:
64,192,107316,128,0,107394:0:0:0:0:
448,192,107472,128,0,107550:0:0:0:0:
320,192,107472,1,0,0:0:0:0:
64,192,107628,128,0,107706:0:0:0:0:
64,192,107941,128,0,108019:0:0:0:0:
320,192,107941,1,0,0:0:0:0:
448,192,108097,128,0,108331:0:0:0:0:
192,192,108097,1,0,0:0:0:0:
64,192,108410,1,0,0:0:0:0:
448,192,108410,128,0,108488:0:0:0:0:
192,192,108722,1,0,0:0:0:0:
448,192,108878,128,0,108956:0:0:0:0:
320,192,109191,128,0,109269:0:0:0:0:
192,192,109347,1,0,0:0:0:0:
448,192,109503,128,0,109581:0:0:0:0:
448,192,109816,128,0,109894:0:0:0:0:
64,192,109972,128,0,110050:0:0:0:0:
192,192,109972,1,0,0:0:0:0:
448,192,110128,128,0,110206:0:0:0:0:
448,192,110441,128,0,110519:0:0:0:0:
192,192,110441,1,0,0:0:0:0:
192,192,110597,1,0,0:0:0:0:
64,192,110597,128,0,110675:0:0:0:0:
320,192,110753,128,0,110831:0:0:0:0:
448,192,110910,1,0,0:0:0:0:
64,192,110910,128,0,110988:0:0:0:0:
192,192,110910,1,0,0:0:0:0:
320,192,111222,1,0,0:0:0:0:
448,192,111222,1,0,0:0:0:0:
64,192,111378,128,0,111456:0:0:0:0:
192,192,111535,1,0,0:0:0:0:
448,192,111535,1,0,0:0:0:0:
64,192,111691,128,0,111769:0:0:0:0:
320,192,111847,1,0,0:0:0:0:
192,192,111847,1,0,0:0:0:0:
64,192,112003,128,0,112081:0:0:0:0:
192,192,112160,1,0,0:0:0:0:
448,192,112160,1,0,0:0:0:0:
64,192,112316,128,0,112394:0:0:0:0:
448,192,112472,128,0,112550:0:0:0:0:
320,192,112472,1,0,0:0:0:0:
64,192,112628,128,0,112706:0:0:0:0:
192,192,112785,1,0,0:0:0:0:
448,192,112785,1,0,0:0:0:0:
64,192,112941,128,0,113019:0:0:0:0:
320,192,112941,1,0,0:0:0:0:
448,192,113097,128,0,113331:0:0:0:0:
192,192,113097,1,0,0:0:0:0:
448,192,113410,128,0,113488:0:0:0:0:
64,192,113410,1,0,0:0:0:0:
320,192,113410,1,0,0:0:0:0:
192,192,113722,1,0,0:0:0:0:
320,192,113722,1,0,0:0:0:0:
448,192,113878,128,0,113956:0:0:0:0:
320,192,114035,1,0,0:0:0:0:
64,192,114035,1,0,0:0:0:0:
320,192,114191,128,0,114269:0:0:0:0:
192,192,114347,1,0,0:0:0:0:
64,192,114347,1,0,0:0:0:0:
448,192,114503,128,0,114581:0:0:0:0:
64,192,114660,1,0,0:0:0:0:
320,192,114660,1,0,0:0:0:0:
448,192,114816,128,0,114894:0:0:0:0:
64,192,114972,128,0,115050:0:0:0:0:
192,192,114972,1,0,0:0:0:0:
448,192,115128,128,0,115206:0:0:0:0:
320,192,115285,1,0,0:0:0:0:
64,192,115285,1,0,0:0:0:0:
448,192,115441,128,0,115480:0:0:0:0:
192,192,115441,1,0,0:0:0:0:
320,192,115519,128,0,115558:0:0:0:0:
64,192,115597,128,0,115831:0:0:0:0:
448,192,115597,1,0,0:0:0:0:
192,192,115597,1,0,0:0:0:0:
64,192,115910,128,0,115988:0:0:0:0:
448,192,115910,1,0,0:0:0:0:
192,192,115910,1,0,0:0:0:0:
320,192,116222,1,0,0:0:0:0:
192,192,116222,1,0,0:0:0:0:
64,192,116378,128,0,116456:0:0:0:0:
192,192,116535,1,0,0:0:0:0:
448,192,116535,1,0,0:0:0:0:
192,192,116691,128,0,116769:0:0:0:0:
320,192,116847,1,0,0:0:0:0:
448,192,116847,1,0,0:0:0:0:
64,192,117003,128,0,117081:0:0:0:0:
192,192,117160,1,0,0:0:0:0:
448,192,117160,1,0,0:0:0:0:
64,192,117316,128,0,117394:0:0:0:0:
448,192,117472,128,0,117550:0:0:0:0:
320,192,117472,1,0,0:0:0:0:
64,192,117628,128,0,117706:0:0:0:0:
192,192,117785,1,0,0:0:0:0:
448,192,117785,1,0,0:0:0:0:
64,192,117941,128,0,118019:0:0:0:0:
320,192,117941,1,0,0:0:0:0:
448,192,118097,128,0,118331:0:0:0:0:
192,192,118097,1,0,0:0:0:0:
64,192,118410,1,0,0:0:0:0:
448,192,118410,128,0,118488:0:0:0:0:
320,192,118410,1,0,0:0:0:0:
192,192,118722,1,0,0:0:0:0:
64,192,118722,1,0,0:0:0:0:
448,192,118878,128,0,118956:0:0:0:0:
320,192,119035,1,0,0:0:0:0:
64,192,119035,1,0,0:0:0:0:
320,192,119191,128,0,119269:0:0:0:0:
192,192,119347,1,0,0:0:0:0:
64,192,119347,1,0,0:0:0:0:
448,192,119503,128,0,119581:0:0:0:0:
192,192,119503,1,0,0:0:0:0:
320,192,119503,1,0,0:0:0:0:
64,192,119660,1,0,0:0:0:0:
320,192,119660,1,0,0:0:0:0:
448,192,119816,128,0,119894:0:0:0:0:
64,192,119972,128,0,120050:0:0:0:0:
192,192,119972,1,0,0:0:0:0:
448,192,120128,128,0,120206:0:0:0:0:
192,192,120206,1,0,0:0:0:0:
64,192,120206,1,0,0:0:0:0:
320,192,120285,1,0,0:0:0:0:
448,192,120285,1,0,0:0:0:0:
448,192,120441,128,0,120519:0:0:0:0:
192,192,120441,1,0,0:0:0:0:
320,192,120519,1,0,0:0:0:0:
64,192,120519,1,0,0:0:0:0:
192,192,120597,1,0,0:0:0:0:
64,192,120597,128,0,120675:0:0:0:0:
320,192,120753,128,0,120831:0:0:0:0:
448,192,120910,1,0,0:0:0:0:
64,192,120910,128,0,120988:0:0:0:0:
192,192,120910,1,0,0:0:0:0:
320,192,121222,1,0,0:0:0:0:
448,192,121222,1,0,0:0:0:0:
192,192,121300,1,0,0:0:0:0:
64,192,121378,128,0,121456:0:0:0:0:
320,192,121456,1,0,0:0:0:0:
192,192,121535,1,0,0:0:0:0:
448,192,121535,1,0,0:0:0:0:
64,192,121691,128,0,121769:0:0:0:0:
448,192,121691,1,0,0:0:0:0:
320,192,121847,1,0,0:0:0:0:
192,192,121847,1,0,0:0:0:0:
64,192,122003,128,0,122081:0:0:0:0:
192,192,122160,1,0,0:0:0:0:
448,192,122160,1,0,0:0:0:0:
320,192,122238,1,0,0:0:0:0:
64,192,122316,128,0,122394:0:0:0:0:
448,192,122316,1,0,0:0:0:0:
192,192,122394,1,0,0:0:0:0:
448,192,122472,128,0,122550:0:0:0:0:
320,192,122472,1,0,0:0:0:0:
64,192,122628,128,0,122706:0:0:0:0:
192,192,122785,1,0,0:0:0:0:
448,192,122785,1,0,0:0:0:0:
64,192,122941,128,0,123019:0:0:0:0:
320,192,122941,1,0,0:0:0:0:
448,192,123097,128,0,123331:0:0:0:0:
192,192,123097,1,0,0:0:0:0:
320,192,123175,1,0,0:0:0:0:
64,192,123253,1,0,0:0:0:0:
192,192,123331,1,0,0:0:0:0:
448,192,123410,128,0,123488:0:0:0:0:
64,192,123410,1,0,0:0:0:0:
320,192,123410,1,0,0:0:0:0:
192,192,123722,1,0,0:0:0:0:
320,192,123722,1,0,0:0:0:0:
64,192,123800,1,0,0:0:0:0:
448,192,123878,128,0,123956:0:0:0:0:
320,192,123878,1,0,0:0:0:0:
192,192,123956,1,0,0:0:0:0:
320,192,124035,1,0,0:0:0:0:
64,192,124035,1,0,0:0:0:0:
320,192,124191,128,0,124269:0:0:0:0:
192,192,124347,1,0,0:0:0:0:
64,192,124347,1,0,0:0:0:0:
320,192,124425,1,0,0:0:0:0:
448,192,124503,128,0,124581:0:0:0:0:
64,192,124503,1,0,0:0:0:0:
192,192,124581,1,0,0:0:0:0:
64,192,124660,1,0,0:0:0:0:
320,192,124660,1,0,0:0:0:0:
448,192,124816,128,0,124894:0:0:0:0:
192,192,124816,1,0,0:0:0:0:
64,192,124972,128,0,125050:0:0:0:0:
192,192,124972,1,0,0:0:0:0:
448,192,125128,128,0,125206:0:0:0:0:
320,192,125285,1,0,0:0:0:0:
64,192,125285,1,0,0:0:0:0:
448,192,125441,128,0,125480:0:0:0:0:
192,192,125441,1,0,0:0:0:0:
320,192,125519,128,0,125558:0:0:0:0:
64,192,125597,128,0,125831:0:0:0:0:
448,192,125597,1,0,0:0:0:0:
192,192,125597,1,0,0:0:0:0:
64,192,125910,1,0,0:0:0:0:
448,192,125910,128,0,125988:0:0:0:0:
320,192,125910,1,0,0:0:0:0:
192,192,126222,1,0,0:0:0:0:
64,192,126222,1,0,0:0:0:0:
320,192,126300,1,0,0:0:0:0:
448,192,126378,128,0,126456:0:0:0:0:
192,192,126456,1,0,0:0:0:0:
320,192,126535,1,0,0:0:0:0:
64,192,126535,1,0,0:0:0:0:
448,192,126691,128,0,126769:0:0:0:0:
64,192,126691,1,0,0:0:0:0:
192,192,126847,1,0,0:0:0:0:
320,192,126847,1,0,0:0:0:0:
448,192,127003,128,0,127081:0:0:0:0:
320,192,127160,1,0,0:0:0:0:
64,192,127160,1,0,0:0:0:0:
192,192,127238,1,0,0:0:0:0:
448,192,127316,128,0,127394:0:0:0:0:
64,192,127316,1,0,0:0:0:0:
320,192,127394,1,0,0:0:0:0:
64,192,127472,128,0,127550:0:0:0:0:
192,192,127472,1,0,0:0:0:0:
448,192,127628,128,0,127706:0:0:0:0:
320,192,127785,1,0,0:0:0:0:
64,192,127785,1,0,0:0:0:0:
448,192,127941,128,0,128019:0:0:0:0:
192,192,127941,1,0,0:0:0:0:
64,192,128097,128,0,128331:0:0:0:0:
320,192,128097,1,0,0:0:0:0:
192,192,128175,1,0,0:0:0:0:
448,192,128253,1,0,0:0:0:0:
320,192,128331,1,0,0:0:0:0:
64,192,128410,128,0,128488:0:0:0:0:
448,192,128410,1,0,0:0:0:0:
192,192,128410,1,0,0:0:0:0:
320,192,128722,1,0,0:0:0:0:
192,192,128722,1,0,0:0:0:0:
448,192,128800,1,0,0:0:0:0:
64,192,128878,128,0,128956:0:0:0:0:
192,192,128878,1,0,0:0:0:0:
320,192,128956,1,0,0:0:0:0:
192,192,129035,1,0,0:0:0:0:
448,192,129035,1,0,0:0:0:0:
192,192,129191,128,0,129269:0:0:0:0:
320,192,129347,1,0,0:0:0:0:
448,192,129347,1,0,0:0:0:0:
192,192,129425,1,0,0:0:0:0:
64,192,129503,128,0,129581:0:0:0:0:
448,192,129503,1,0,0:0:0:0:
320,192,129581,1,0,0:0:0:0:
448,192,129660,1,0,0:0:0:0:
192,192,129660,1,0,0:0:0:0:
64,192,130910,128,0,130988:0:0:0:0:
448,192,131066,1,0,0:0:0:0:
320,192,131144,1,0,0:0:0:0:
320,192,131222,128,0,131300:0:0:0:0:
192,192,131378,128,0,131456:0:0:0:0:
448,192,131535,128,0,131613:0:0:0:0:
64,192,131691,128,0,131769:0:0:0:0:
320,192,131847,1,0,0:0:0:0:
192,192,131925,1,0,0:0:0:0:
448,192,132003,128,0,132081:0:0:0:0:
64,192,132160,128,0,132238:0:0:0:0:
320,192,132316,128,0,132394:0:0:0:0:
64,192,132472,128,0,132550:0:0:0:0:
448,192,132628,128,0,132706:0:0:0:0:
320,192,132785,1,0,0:0:0:0:
64,192,132863,1,0,0:0:0:0:
448,192,132941,128,0,133019:0:0:0:0:
64,192,133097,128,0,133175:0:0:0:0:
320,192,133253,128,0,133331:0:0:0:0:
64,192,133410,128,0,133488:0:0:0:0:
192,192,133566,1,0,0:0:0:0:
448,192,133644,1,0,0:0:0:0:
448,192,133722,128,0,133800:0:0:0:0:
320,192,133878,128,0,133956:0:0:0:0:
64,192,134035,128,0,134113:0:0:0:0:
192,192,134191,128,0,134269:0:0:0:0:
64,192,134347,1,0,0:0:0:0:
320,192,134425,1,0,0:0:0:0:
64,192,134503,128,0,134581:0:0:0:0:
448,192,134660,128,0,134738:0:0:0:0:
192,192,134816,128,0,134894:0:0:0:0:
320,192,134972,128,0,135050:0:0:0:0:
64,192,135128,128,0,135206:0:0:0:0:
448,192,135285,1,0,0:0:0:0:
192,192,135363,1,0,0:0:0:0:
320,192,135441,128,0,135519:0:0:0:0:
64,192,135597,128,0,135675:0:0:0:0:
320,192,135753,128,0,135831:0:0:0:0:
64,192,135910,128,0,135988:0:0:0:0:
192,192,135910,1,0,0:0:0:0:
448,192,136066,1,0,0:0:0:0:
320,192,136144,1,0,0:0:0:0:
320,192,136222,128,0,136300:0:0:0:0:
64,192,136222,1,0,0:0:0:0:
192,192,136378,128,0,136456:0:0:0:0:
448,192,136535,128,0,136613:0:0:0:0:
64,192,136691,128,0,136769:0:0:0:0:
320,192,136847,1,0,0:0:0:0:
192,192,136925,1,0,0:0:0:0:
448,192,137003,128,0,137081:0:0:0:0:
64,192,137160,128,0,137238:0:0:0:0:
320,192,137316,128,0,137394:0:0:0:0:
64,192,137472,128,0,137550:0:0:0:0:
448,192,137628,128,0,137706:0:0:0:0:
320,192,137785,1,0,0:0:0:0:
64,192,137863,1,0,0:0:0:0:
448,192,137941,128,0,138019:0:0:0:0:
64,192,138097,128,0,138175:0:0:0:0:
320,192,138253,128,0,138331:0:0:0:0:
64,192,138410,128,0,138488:0:0:0:0:
192,192,138410,1,0,0:0:0:0:
192,192,138566,1,0,0:0:0:0:
448,192,138644,1,0,0:0:0:0:
448,192,138722,128,0,138800:0:0:0:0:
64,192,138722,1,0,0:0:0:0:
320,192,138878,128,0,138956:0:0:0:0:
64,192,139035,128,0,139113:0:0:0:0:
192,192,139191,128,0,139269:0:0:0:0:
64,192,139347,1,0,0:0:0:0:
320,192,139425,1,0,0:0:0:0:
64,192,139503,128,0,139581:0:0:0:0:
448,192,139660,1,0,0:0:0:0:
192,192,139738,1,0,0:0:0:0:
448,192,139816,1,0,0:0:0:0:
192,192,139894,1,0,0:0:0:0:
448,192,139972,1,0,0:0:0:0:
192,192,140050,1,0,0:0:0:0:
448,192,140128,1,0,0:0:0:0:
192,192,140206,1,0,0:0:0:0:
448,192,140285,1,0,0:0:0:0:
320,192,140285,1,0,0:0:0:0:
192,192,140363,1,0,0:0:0:0:
320,192,140441,1,0,0:0:0:0:
448,192,140441,1,0,0:0:0:0:
192,192,140519,1,0,0:0:0:0:
320,192,140597,1,0,0:0:0:0:
448,192,140597,1,0,0:0:0:0:
192,192,140675,1,0,0:0:0:0:
320,192,140753,1,0,0:0:0:0:
448,192,140753,1,0,0:0:0:0:
192,192,140831,1,0,0:0:0:0:
64,192,140910,128,0,140988:0:0:0:0:
320,192,140910,1,0,0:0:0:0:
448,192,140910,1,0,0:0:0:0:
448,192,141066,1,0,0:0:0:0:
320,192,141144,1,0,0:0:0:0:
320,192,141222,128,0,141300:0:0:0:0:
64,192,141222,1,0,0:0:0:0:
192,192,141378,128,0,141456:0:0:0:0:
448,192,141535,128,0,141613:0:0:0:0:
320,192,141535,1,0,0:0:0:0:
64,192,141535,1,0,0:0:0:0:
64,192,141691,128,0,141769:0:0:0:0:
192,192,141691,1,0,0:0:0:0:
320,192,141847,1,0,0:0:0:0:
448,192,141847,1,0,0:0:0:0:
192,192,141925,1,0,0:0:0:0:
448,192,142003,128,0,142081:0:0:0:0:
64,192,142160,128,0,142238:0:0:0:0:
192,192,142160,1,0,0:0:0:0:
320,192,142160,1,0,0:0:0:0:
320,192,142316,128,0,142394:0:0:0:0:
64,192,142472,128,0,142550:0:0:0:0:
192,192,142472,1,0,0:0:0:0:
448,192,142628,128,0,142706:0:0:0:0:
320,192,142785,1,0,0:0:0:0:
192,192,142785,1,0,0:0:0:0:
64,192,142863,1,0,0:0:0:0:
448,192,142941,128,0,143019:0:0:0:0:
320,192,142941,1,0,0:0:0:0:
64,192,143097,128,0,143175:0:0:0:0:
192,192,143097,1,0,0:0:0:0:
448,192,143097,1,0,0:0:0:0:
320,192,143253,128,0,143331:0:0:0:0:
64,192,143410,128,0,143488:0:0:0:0:
192,192,143410,1,0,0:0:0:0:
448,192,143410,1,0,0:0:0:0:
192,192,143566,1,0,0:0:0:0:
448,192,143644,1,0,0:0:0:0:
448,192,143722,128,0,143800:0:0:0:0:
64,192,143722,1,0,0:0:0:0:
320,192,143878,128,0,143956:0:0:0:0:
64,192,144035,128,0,144113:0:0:0:0:
192,192,144035,1,0,0:0:0:0:
448,192,144035,1,0,0:0:0:0:
192,192,144191,128,0,144269:0:0:0:0:
64,192,144347,1,0,0:0:0:0:
448,192,144347,1,0,0:0:0:0:
320,192,144425,1,0,0:0:0:0:
64,192,144503,128,0,144581:0:0:0:0:
448,192,144660,128,0,144738:0:0:0:0:
320,192,144660,1,0,0:0:0:0:
192,192,144660,1,0,0:0:0:0:
192,192,144816,128,0,144894:0:0:0:0:
320,192,144972,128,0,145050:0:0:0:0:
64,192,144972,1,0,0:0:0:0:
64,192,145128,128,0,145206:0:0:0:0:
448,192,145285,1,0,0:0:0:0:
320,192,145285,1,0,0:0:0:0:
192,192,145363,1,0,0:0:0:0:
320,192,145441,128,0,145519:0:0:0:0:
448,192,145441,1,0,0:0:0:0:
64,192,145597,128,0,145675:0:0:0:0:
192,192,145597,1,0,0:0:0:0:
448,192,145597,1,0,0:0:0:0:
320,192,145753,128,0,145831:0:0:0:0:
448,192,145910,128,0,145988:0:0:0:0:
192,192,145910,1,0,0:0:0:0:
64,192,145910,1,0,0:0:0:0:
64,192,146066,1,0,0:0:0:0:
192,192,146144,1,0,0:0:0:0:
192,192,146222,128,0,146300:0:0:0:0:
448,192,146222,1,0,0:0:0:0:
320,192,146378,128,0,146456:0:0:0:0:
64,192,146535,128,0,146613:0:0:0:0:
192,192,146535,1,0,0:0:0:0:
448,192,146535,1,0,0:0:0:0:
448,192,146691,128,0,146769:0:0:0:0:
320,192,146691,1,0,0:0:0:0:
192,192,146847,1,0,0:0:0:0:
64,192,146847,1,0,0:0:0:0:
320,192,146925,1,0,0:0:0:0:
64,192,147003,128,0,147081:0:0:0:0:
448,192,147160,128,0,147238:0:0:0:0:
320,192,147160,1,0,0:0:0:0:
192,192,147160,1,0,0:0:0:0:
192,192,147316,128,0,147394:0:0:0:0:
448,192,147472,128,0,147550:0:0:0:0:
320,192,147472,1,0,0:0:0:0:
64,192,147628,128,0,147706:0:0:0:0:
192,192,147785,1,0,0:0:0:0:
320,192,147785,1,0,0:0:0:0:
448,192,147863,1,0,0:0:0:0:
64,192,147941,128,0,148019:0:0:0:0:
192,192,147941,1,0,0:0:0:0:
448,192,148097,128,0,148175:0:0:0:0:
320,192,148097,1,0,0:0:0:0:
64,192,148097,1,0,0:0:0:0:
192,192,148253,128,0,148331:0:0:0:0:
448,192,148410,128,0,148488:0:0:0:0:
320,192,148410,1,0,0:0:0:0:
64,192,148410,1,0,0:0:0:0:
320,192,148566,1,0,0:0:0:0:
64,192,148644,1,0,0:0:0:0:
64,192,148722,128,0,148800:0:0:0:0:
448,192,148722,1,0,0:0:0:0:
192,192,148878,128,0,148956:0:0:0:0:
448,192,149035,128,0,149113:0:0:0:0:
320,192,149035,1,0,0:0:0:0:
64,192,149035,1,0,0:0:0:0:
320,192,149191,128,0,149269:0:0:0:0:
448,192,149347,1,0,0:0:0:0:
64,192,149347,1,0,0:0:0:0:
192,192,149425,1,0,0:0:0:0:
448,192,149503,128,0,149581:0:0:0:0:
64,192,149660,128,0,149738:0:0:0:0:
192,192,149660,1,0,0:0:0:0:
320,192,149660,1,0,0:0:0:0:
320,192,149816,128,0,149894:0:0:0:0:
192,192,149972,128,0,150050:0:0:0:0:
448,192,149972,1,0,0:0:0:0:
448,192,150128,128,0,150206:0:0:0:0:
64,192,150285,1,0,0:0:0:0:
192,192,150285,1,0,0:0:0:0:
320,192,150363,1,0,0:0:0:0:
192,192,150441,128,0,150519:0:0:0:0:
64,192,150441,1,0,0:0:0:0:
448,192,150597,128,0,150675:0:0:0:0:
320,192,150597,1,0,0:0:0:0:
64,192,150597,1,0,0:0:0:0:
192,192,150753,128,0,150831:0:0:0:0:
64,192,150910,128,0,150988:0:0:0:0:
320,192,150910,1,0,0:0:0:0:
448,192,150910,1,0,0:0:0:0:
448,192,151066,1,0,0:0:0:0:
192,192,151066,1,0,0:0:0:0:
320,192,151144,1,0,0:0:0:0:
320,192,151222,128,0,151300:0:0:0:0:
64,192,151222,1,0,0:0:0:0:
192,192,151378,128,0,151456:0:0:0:0:
448,192,151378,1,0,0:0:0:0:
448,192,151535,128,0,151613:0:0:0:0:
320,192,151535,1,0,0:0:0:0:
64,192,151535,1,0,0:0:0:0:
64,192,151691,128,0,151769:0:0:0:0:
192,192,151691,1,0,0:0:0:0:
320,192,151691,1,0,0:0:0:0:
320,192,151847,1,0,0:0:0:0:
448,192,151847,1,0,0:0:0:0:
192,192,151925,1,0,0:0:0:0:
448,192,152003,128,0,152081:0:0:0:0:
64,192,152003,1,0,0:0:0:0:
64,192,152160,128,0,152238:0:0:0:0:
192,192,152160,1,0,0:0:0:0:
320,192,152160,1,0,0:0:0:0:
320,192,152316,128,0,152394:0:0:0:0:
448,192,152316,1,0,0:0:0:0:
64,192,152472,128,0,152550:0:0:0:0:
192,192,152472,1,0,0:0:0:0:
448,192,152628,128,0,152706:0:0:0:0:
320,192,152628,1,0,0:0:0:0:
320,192,152785,1,0,0:0:0:0:
192,192,152785,1,0,0:0:0:0:
64,192,152863,1,0,0:0:0:0:
448,192,152941,128,0,153019:0:0:0:0:
320,192,152941,1,0,0:0:0:0:
64,192,153097,128,0,153175:0:0:0:0:
192,192,153097,1,0,0:0:0:0:
448,192,153097,1,0,0:0:0:0:
320,192,153253,128,0,153331:0:0:0:0:
192,192,153253,1,0,0:0:0:0:
64,192,153410,128,0,153488:0:0:0:0:
192,192,153410,1,0,0:0:0:0:
448,192,153410,1,0,0:0:0:0:
192,192,153566,1,0,0:0:0:0:
320,192,153566,1,0,0:0:0:0:
448,192,153644,1,0,0:0:0:0:
448,192,153722,128,0,153800:0:0:0:0:
64,192,153722,1,0,0:0:0:0:
320,192,153878,128,0,153956:0:0:0:0:
192,192,153878,1,0,0:0:0:0:
64,192,154035,128,0,154113:0:0:0:0:
192,192,154035,1,0,0:0:0:0:
448,192,154035,1,0,0:0:0:0:
192,192,154191,128,0,154269:0:0:0:0:
320,192,154191,1,0,0:0:0:0:
64,192,154347,1,0,0:0:0:0:
448,192,154347,1,0,0:0:0:0:
320,192,154425,1,0,0:0:0:0:
64,192,154503,128,0,154581:0:0:0:0:
192,192,154503,1,0,0:0:0:0:
448,192,154660,128,0,154738:0:0:0:0:
320,192,154660,1,0,0:0:0:0:
192,192,154660,1,0,0:0:0:0:
192,192,154816,128,0,154894:0:0:0:0:
320,192,154816,1,0,0:0:0:0:
320,192,154972,128,0,155050:0:0:0:0:
64,192,154972,1,0,0:0:0:0:
64,192,155128,128,0,155206:0:0:0:0:
192,192,155128,1,0,0:0:0:0:
448,192,155285,1,0,0:0:0:0:
320,192,155285,1,0,0:0:0:0:
192,192,155363,1,0,0:0:0:0:
320,192,155441,128,0,155519:0:0:0:0:
448,192,155441,1,0,0:0:0:0:
64,192,155597,128,0,155675:0:0:0:0:
192,192,155597,1,0,0:0:0:0:
448,192,155597,1,0,0:0:0:0:
320,192,155753,128,0,155831:0:0:0:0:
192,192,155753,1,0,0:0:0:0:
448,192,155910,128,0,155988:0:0:0:0:
192,192,155910,1,0,0:0:0:0:
64,192,155910,1,0,0:0:0:0:
64,192,156066,1,0,0:0:0:0:
320,192,156066,1,0,0:0:0:0:
192,192,156144,1,0,0:0:0:0:
192,192,156222,128,0,156300:0:0:0:0:
448,192,156222,1,0,0:0:0:0:
320,192,156378,128,0,156456:0:0:0:0:
64,192,156378,1,0,0:0:0:0:
64,192,156535,128,0,156613:0:0:0:0:
192,192,156535,1,0,0:0:0:0:
448,192,156535,1,0,0:0:0:0:
448,192,156691,128,0,156769:0:0:0:0:
320,192,156691,1,0,0:0:0:0:
192,192,156847,1,0,0:0:0:0:
64,192,156847,1,0,0:0:0:0:
320,192,156925,1,0,0:0:0:0:
64,192,157003,128,0,157081:0:0:0:0:
192,192,157003,1,0,0:0:0:0:
448,192,157160,128,0,157238:0:0:0:0:
320,192,157160,1,0,0:0:0:0:
192,192,157160,1,0,0:0:0:0:
192,192,157316,128,0,157394:0:0:0:0:
64,192,157316,1,0,0:0:0:0:
448,192,157472,128,0,157550:0:0:0:0:
320,192,157472,1,0,0:0:0:0:
64,192,157628,128,0,157706:0:0:0:0:
320,192,157628,1,0,0:0:0:0:
192,192,157785,1,0,0:0:0:0:
320,192,157785,1,0,0:0:0:0:
448,192,157863,1,0,0:0:0:0:
64,192,157941,128,0,158019:0:0:0:0:
192,192,157941,1,0,0:0:0:0:
448,192,158097,128,0,158175:0:0:0:0:
320,192,158097,1,0,0:0:0:0:
64,192,158097,1,0,0:0:0:0:
192,192,158253,128,0,158331:0:0:0:0:
64,192,158253,1,0,0:0:0:0:
448,192,158410,128,0,158488:0:0:0:0:
320,192,158410,1,0,0:0:0:0:
64,192,158410,1,0,0:0:0:0:
320,192,158566,1,0,0:0:0:0:
192,192,158566,1,0,0:0:0:0:
64,192,158644,1,0,0:0:0:0:
64,192,158722,128,0,158800:0:0:0:0:
448,192,158722,1,0,0:0:0:0:
192,192,158878,128,0,158956:0:0:0:0:
320,192,158878,1,0,0:0:0:0:
64,192,158956,1,0,0:0:0:0:
448,192,159035,128,0,159113:0:0:0:0:
320,192,159035,1,0,0:0:0:0:
64,192,159035,1,0,0:0:0:0:
320,192,159191,128,0,159269:0:0:0:0:
192,192,159191,1,0,0:0:0:0:
64,192,159269,1,0,0:0:0:0:
448,192,159347,1,0,0:0:0:0:
64,192,159347,1,0,0:0:0:0:
192,192,159425,1,0,0:0:0:0:
448,192,159503,128,0,159581:0:0:0:0:
320,192,159503,1,0,0:0:0:0:
64,192,159503,1,0,0:0:0:0:
192,192,159660,1,0,0:0:0:0:
320,192,159660,1,0,0:0:0:0:
64,192,159660,1,0,0:0:0:0:
64,192,160910,128,0,160988:0:0:0:0:
320,192,160910,1,0,0:0:0:0:
448,192,160910,1,0,0:0:0:0:
192,192,160910,1,0,0:0:0:0:
448,192,161066,1,0,0:0:0:0:
192,192,161066,1,0,0:0:0:0:
320,192,161144,1,0,0:0:0:0:
320,192,161222,128,0,161300:0:0:0:0:
64,192,161222,1,0,0:0:0:0:
192,192,161378,128,0,161456:0:0:0:0:
448,192,161378,1,0,0:0:0:0:
448,192,161535,128,0,161613:0:0:0:0:
320,192,161535,1,0,0:0:0:0:
64,192,161535,1,0,0:0:0:0:
64,192,161691,128,0,161769:0:0:0:0:
192,192,161691,1,0,0:0:0:0:
320,192,161847,1,0,0:0:0:0:
448,192,161847,1,0,0:0:0:0:
192,192,161925,1,0,0:0:0:0:
448,192,162003,128,0,162081:0:0:0:0:
64,192,162003,1,0,0:0:0:0:
64,192,162160,128,0,162238:0:0:0:0:
192,192,162160,1,0,0:0:0:0:
320,192,162160,1,0,0:0:0:0:
320,192,162316,128,0,162394:0:0:0:0:
448,192,162316,1,0,0:0:0:0:
64,192,162472,128,0,162550:0:0:0:0:
192,192,162472,1,0,0:0:0:0:
448,192,162628,128,0,162706:0:0:0:0:
320,192,162628,1,0,0:0:0:0:
320,192,162785,1,0,0:0:0:0:
192,192,162785,1,0,0:0:0:0:
64,192,162863,1,0,0:0:0:0:
448,192,162941,128,0,163019:0:0:0:0:
320,192,162941,1,0,0:0:0:0:
64,192,163097,128,0,163175:0:0:0:0:
192,192,163097,1,0,0:0:0:0:
448,192,163097,1,0,0:0:0:0:
320,192,163253,128,0,163331:0:0:0:0:
192,192,163253,1,0,0:0:0:0:
64,192,163410,128,0,163488:0:0:0:0:
192,192,163410,1,0,0:0:0:0:
448,192,163410,1,0,0:0:0:0:
192,192,163566,1,0,0:0:0:0:
320,192,163566,1,0,0:0:0:0:
448,192,163644,1,0,0:0:0:0:
448,192,163722,128,0,163800:0:0:0:0:
64,192,163722,1,0,0:0:0:0:
320,192,163878,128,0,163956:0:0:0:0:
192,192,163878,1,0,0:0:0:0:
64,192,164035,128,0,164113:0:0:0:0:
192,192,164035,1,0,0:0:0:0:
448,192,164035,1,0,0:0:0:0:
192,192,164191,128,0,164269:0:0:0:0:
320,192,164191,1,0,0:0:0:0:
64,192,164347,1,0,0:0:0:0:
448,192,164347,1,0,0:0:0:0:
320,192,164425,1,0,0:0:0:0:
64,192,164503,128,0,164581:0:0:0:0:
192,192,164503,1,0,0:0:0:0:
448,192,164660,128,0,164738:0:0:0:0:
320,192,164660,1,0,0:0:0:0:
192,192,164660,1,0,0:0:0:0:
192,192,164816,128,0,164894:0:0:0:0:
320,192,164816,1,0,0:0:0:0:
320,192,164972,128,0,165050:0:0:0:0:
64,192,164972,1,0,0:0:0:0:
64,192,165128,128,0,165206:0:0:0:0:
192,192,165128,1,0,0:0:0:0:
448,192,165285,1,0,0:0:0:0:
320,192,165285,1,0,0:0:0:0:
192,192,165363,1,0,0:0:0:0:
320,192,165441,128,0,165519:0:0:0:0:
448,192,165441,1,0,0:0:0:0:
64,192,165441,1,0,0:0:0:0:
64,192,165597,128,0,165675:0:0:0:0:
192,192,165597,1,0,0:0:0:0:
448,192,165597,1,0,0:0:0:0:
320,192,165753,128,0,165831:0:0:0:0:
192,192,165753,1,0,0:0:0:0:
448,192,165910,128,0,165988:0:0:0:0:
192,192,165910,1,0,0:0:0:0:
64,192,165910,1,0,0:0:0:0:
64,192,166066,1,0,0:0:0:0:
320,192,166066,1,0,0:0:0:0:
192,192,166144,1,0,0:0:0:0:
192,192,166222,128,0,166300:0:0:0:0:
448,192,166222,1,0,0:0:0:0:
320,192,166378,128,0,166456:0:0:0:0:
64,192,166378,1,0,0:0:0:0:
64,192,166535,128,0,166613:0:0:0:0:
192,192,166535,1,0,0:0:0:0:
448,192,166535,1,0,0:0:0:0:
448,192,166691,128,0,166769:0:0:0:0:
320,192,166691,1,0,0:0:0:0:
192,192,166847,1,0,0:0:0:0:
64,192,166847,1,0,0:0:0:0:
320,192,166925,1,0,0:0:0:0:
64,192,167003,128,0,167081:0:0:0:0:
448,192,167003,1,0,0:0:0:0:
448,192,167160,128,0,167238:0:0:0:0:
320,192,167160,1,0,0:0:0:0:
192,192,167160,1,0,0:0:0:0:
192,192,167316,128,0,167394:0:0:0:0:
64,192,167316,1,0,0:0:0:0:
448,192,167472,128,0,167550:0:0:0:0:
320,192,167472,1,0,0:0:0:0:
64,192,167628,128,0,167706:0:0:0:0:
192,192,167628,1,0,0:0:0:0:
192,192,167785,1,0,0:0:0:0:
320,192,167785,1,0,0:0:0:0:
448,192,167863,1,0,0:0:0:0:
64,192,167941,128,0,168019:0:0:0:0:
192,192,167941,1,0,0:0:0:0:
448,192,168097,128,0,168175:0:0:0:0:
320,192,168097,1,0,0:0:0:0:
64,192,168097,1,0,0:0:0:0:
192,192,168253,128,0,168331:0:0:0:0:
448,192,168410,128,0,168488:0:0:0:0:
320,192,168410,1,0,0:0:0:0:
64,192,168410,1,0,0:0:0:0:
320,192,168566,1,0,0:0:0:0:
192,192,168566,1,0,0:0:0:0:
64,192,168644,1,0,0:0:0:0:
64,192,168722,128,0,168800:0:0:0:0:
448,192,168722,1,0,0:0:0:0:
192,192,168878,128,0,168956:0:0:0:0:
320,192,168878,1,0,0:0:0:0:
448,192,169035,128,0,169113:0:0:0:0:
320,192,169035,1,0,0:0:0:0:
64,192,169035,1,0,0:0:0:0:
320,192,169191,128,0,169269:0:0:0:0:
192,192,169191,1,0,0:0:0:0:
448,192,169347,1,0,0:0:0:0:
64,192,169347,1,0,0:0:0:0:
192,192,169425,1,0,0:0:0:0:
448,192,169503,128,0,169581:0:0:0:0:
320,192,169503,1,0,0:0:0:0:
64,192,169503,1,0,0:0:0:0:
64,192,169660,128,0,169738:0:0:0:0:
192,192,169660,1,0,0:0:0:0:
320,192,169660,1,0,0:0:0:0:
320,192,169816,128,0,169894:0:0:0:0:
192,192,169816,1,0,0:0:0:0:
192,192,169972,128,0,170050:0:0:0:0:
448,192,169972,1,0,0:0:0:0:
448,192,170128,128,0,170206:0:0:0:0:
320,192,170206,1,0,0:0:0:0:
64,192,170206,1,0,0:0:0:0:
64,192,170285,1,0,0:0:0:0:
192,192,170285,1,0,0:0:0:0:
320,192,170363,1,0,0:0:0:0:
192,192,170441,128,0,170519:0:0:0:0:
64,192,170441,1,0,0:0:0:0:
448,192,170441,1,0,0:0:0:0:
320,192,170519,1,0,0:0:0:0:
448,192,170597,128,0,170675:0:0:0:0:
320,192,170597,1,0,0:0:0:0:
64,192,170597,1,0,0:0:0:0:
192,192,170753,128,0,170831:0:0:0:0:
64,192,170753,1,0,0:0:0:0:
64,192,170910,128,0,170988:0:0:0:0:
320,192,170910,1,0,0:0:0:0:
448,192,170910,1,0,0:0:0:0:
448,192,171066,1,0,0:0:0:0:
192,192,171066,1,0,0:0:0:0:
320,192,171144,1,0,0:0:0:0:
320,192,171222,128,0,171300:0:0:0:0:
64,192,171222,1,0,0:0:0:0:
192,192,171378,128,0,171456:0:0:0:0:
448,192,171378,1,0,0:0:0:0:
448,192,171535,128,0,171613:0:0:0:0:
320,192,171535,1,0,0:0:0:0:
64,192,171535,1,0,0:0:0:0:
64,192,171691,128,0,171769:0:0:0:0:
192,192,171691,1,0,0:0:0:0:
320,192,171691,1,0,0:0:0:0:
320,192,171847,1,0,0:0:0:0:
448,192,171847,1,0,0:0:0:0:
192,192,171925,1,0,0:0:0:0:
448,192,172003,128,0,172081:0:0:0:0:
64,192,172003,1,0,0:0:0:0:
64,192,172160,128,0,172238:0:0:0:0:
192,192,172160,1,0,0:0:0:0:
320,192,172160,1,0,0:0:0:0:
320,192,172316,128,0,172394:0:0:0:0:
448,192,172316,1,0,0:0:0:0:
64,192,172472,128,0,172550:0:0:0:0:
192,192,172472,1,0,0:0:0:0:
448,192,172628,128,0,172706:0:0:0:0:
320,192,172628,1,0,0:0:0:0:
320,192,172785,1,0,0:0:0:0:
192,192,172785,1,0,0:0:0:0:
64,192,172863,1,0,0:0:0:0:
448,192,172941,128,0,173019:0:0:0:0:
320,192,172941,1,0,0:0:0:0:
64,192,173097,128,0,173175:0:0:0:0:
192,192,173097,1,0,0:0:0:0:
448,192,173097,1,0,0:0:0:0:
320,192,173253,128,0,173331:0:0:0:0:
192,192,173253,1,0,0:0:0:0:
64,192,173410,128,0,173488:0:0:0:0:
192,192,173410,1,0,0:0:0:0:
448,192,173410,1,0,0:0:0:0:
192,192,173566,1,0,0:0:0:0:
320,192,173566,1,0,0:0:0:0:
448,192,173644,1,0,0:0:0:0:
448,192,173722,128,0,173800:0:0:0:0:
64,192,173722,1,0,0:0:0:0:
320,192,173878,128,0,173956:0:0:0:0:
192,192,173878,1,0,0:0:0:0:
64,192,174035,128,0,174113:0:0:0:0:
192,192,174035,1,0,0:0:0:0:
448,192,174035,1,0,0:0:0:0:
192,192,174191,128,0,174269:0:0:0:0:
320,192,174191,1,0,0:0:0:0:
64,192,174347,1,0,0:0:0:0:
448,192,174347,1,0,0:0:0:0:
320,192,174425,1,0,0:0:0:0:
64,192,174503,128,0,174581:0:0:0:0:
192,192,174503,1,0,0:0:0:0:
448,192,174660,128,0,174738:0:0:0:0:
320,192,174660,1,0,0:0:0:0:
192,192,174660,1,0,0:0:0:0:
192,192,174816,128,0,174894:0:0:0:0:
320,192,174816,1,0,0:0:0:0:
320,192,174972,128,0,175050:0:0:0:0:
64,192,174972,1,0,0:0:0:0:
64,192,175128,128,0,175206:0:0:0:0:
192,192,175128,1,0,0:0:0:0:
448,192,175285,1,0,0:0:0:0:
320,192,175285,1,0,0:0:0:0:
192,192,175363,1,0,0:0:0:0:
320,192,175441,128,0,175519:0:0:0:0:
448,192,175441,1,0,0:0:0:0:
64,192,175597,128,0,175675:0:0:0:0:
192,192,175597,1,0,0:0:0:0:
448,192,175597,1,0,0:0:0:0:
320,192,175753,128,0,175831:0:0:0:0:
192,192,175753,1,0,0:0:0:0:
448,192,175910,128,0,175988:0:0:0:0:
192,192,175910,1,0,0:0:0:0:
64,192,175910,1,0,0:0:0:0:
320,192,175910,1,0,0:0:0:0:
64,192,176066,1,0,0:0:0:0:
320,192,176066,1,0,0:0:0:0:
192,192,176144,1,0,0:0:0:0:
192,192,176222,128,0,176300:0:0:0:0:
448,192,176222,1,0,0:0:0:0:
320,192,176378,128,0,176456:0:0:0:0:
64,192,176378,1,0,0:0:0:0:
64,192,176535,128,0,176613:0:0:0:0:
192,192,176535,1,0,0:0:0:0:
448,192,176535,1,0,0:0:0:0:
448,192,176691,128,0,176769:0:0:0:0:
320,192,176691,1,0,0:0:0:0:
192,192,176847,1,0,0:0:0:0:
64,192,176847,1,0,0:0:0:0:
320,192,176925,1,0,0:0:0:0:
64,192,177003,128,0,177081:0:0:0:0:
192,192,177003,1,0,0:0:0:0:
448,192,177160,128,0,177238:0:0:0:0:
320,192,177160,1,0,0:0:0:0:
192,192,177160,1,0,0:0:0:0:
64,192,177160,1,0,0:0:0:0:
192,192,177316,128,0,177394:0:0:0:0:
64,192,177316,1,0,0:0:0:0:
448,192,177472,128,0,177550:0:0:0:0:
320,192,177472,1,0,0:0:0:0:
64,192,177628,128,0,177706:0:0:0:0:
320,192,177628,1,0,0:0:0:0:
192,192,177785,1,0,0:0:0:0:
320,192,177785,1,0,0:0:0:0:
448,192,177863,1,0,0:0:0:0:
64,192,177941,128,0,178019:0:0:0:0:
192,192,177941,1,0,0:0:0:0:
448,192,178097,128,0,178175:0:0:0:0:
320,192,178097,1,0,0:0:0:0:
64,192,178097,1,0,0:0:0:0:
192,192,178253,128,0,178331:0:0:0:0:
64,192,178253,1,0,0:0:0:0:
448,192,178410,128,0,178488:0:0:0:0:
320,192,178410,1,0,0:0:0:0:
64,192,178410,1,0,0:0:0:0:
192,192,178410,1,0,0:0:0:0:
320,192,178566,1,0,0:0:0:0:
192,192,178566,1,0,0:0:0:0:
64,192,178644,1,0,0:0:0:0:
64,192,178722,128,0,178800:0:0:0:0:
448,192,178722,1,0,0:0:0:0:
192,192,178878,128,0,178956:0:0:0:0:
320,192,178878,1,0,0:0:0:0:
64,192,178956,1,0,0:0:0:0:
448,192,179035,128,0,179113:0:0:0:0:
320,192,179035,1,0,0:0:0:0:
64,192,179035,1,0,0:0:0:0:
320,192,179191,128,0,179269:0:0:0:0:
192,192,179191,1,0,0:0:0:0:
64,192,179269,1,0,0:0:0:0:
448,192,179347,1,0,0:0:0:0:
64,192,179347,1,0,0:0:0:0:
192,192,179425,1,0,0:0:0:0:
448,192,179503,128,0,179581:0:0:0:0:
320,192,179503,1,0,0:0:0:0:
64,192,179503,1,0,0:0:0:0:
192,192,179660,1,0,0:0:0:0:
320,192,179660,1,0,0:0:0:0:
64,192,179660,1,0,0:0:0:0:
448,192,179660,1,0,0:0:0:0:
448,192,180597,1,0,0:0:0:0:
64,192,180910,1,0,0:0:0:0:
320,192,180910,1,0,0:0:0:0:
448,192,180910,1,0,0:0:0:0:
448,192,181066,1,0,0:0:0:0:
192,192,181144,1,0,0:0:0:0:
448,192,181222,1,0,0:0:0:0:
64,192,181300,1,0,0:0:0:0:
320,192,181378,1,0,0:0:0:0:
64,192,181456,1,0,0:0:0:0:
320,192,181535,1,0,0:0:0:0:
192,192,181574,1,0,0:0:0:0:
64,192,181613,1,0,0:0:0:0:
192,192,181691,1,0,0:0:0:0:
320,192,181730,1,0,0:0:0:0:
448,192,181769,1,0,0:0:0:0:
64,192,181847,1,0,0:0:0:0:
320,192,181925,1,0,0:0:0:0:
448,192,182003,128,0,182160:0:0:0:0:
64,192,182160,1,0,0:0:0:0:
192,192,182199,1,0,0:0:0:0:
320,192,182238,1,0,0:0:0:0:
448,192,182277,1,0,0:0:0:0:
64,192,182316,1,0,0:0:0:0:
320,192,182394,1,0,0:0:0:0:
192,192,182472,128,0,182550:0:0:0:0:
192,192,182628,1,0,0:0:0:0:
64,192,182628,1,0,0:0:0:0:
448,192,182628,1,0,0:0:0:0:
320,192,182706,1,0,0:0:0:0:
64,192,182785,1,0,0:0:0:0:
192,192,182824,1,0,0:0:0:0:
320,192,182863,1,0,0:0:0:0:
448,192,182941,1,0,0:0:0:0:
320,192,182980,1,0,0:0:0:0:
192,192,183019,1,0,0:0:0:0:
64,192,183097,1,0,0:0:0:0:
320,192,183097,1,0,0:0:0:0:
448,192,183097,1,0,0:0:0:0:
192,192,183175,1,0,0:0:0:0:
320,192,183253,128,0,183331:0:0:0:0:
64,192,183410,1,0,0:0:0:0:
64,192,183566,1,0,0:0:0:0:
320,192,183644,1,0,0:0:0:0:
64,192,183722,1,0,0:0:0:0:
448,192,183800,1,0,0:0:0:0:
192,192,183878,1,0,0:0:0:0:
448,192,183956,1,0,0:0:0:0:
64,192,184035,1,0,0:0:0:0:
192,192,184074,1,0,0:0:0:0:
320,192,184113,1,0,0:0:0:0:
448,192,184191,1,0,0:0:0:0:
320,192,184230,1,0,0:0:0:0:
192,192,184269,1,0,0:0:0:0:
64,192,184347,1,0,0:0:0:0:
320,192,184425,1,0,0:0:0:0:
448,192,184503,128,0,184660:0:0:0:0:
64,192,184660,1,0,0:0:0:0:
192,192,184699,1,0,0:0:0:0:
320,192,184738,1,0,0:0:0:0:
448,192,184777,1,0,0:0:0:0:
64,192,184816,1,0,0:0:0:0:
320,192,184894,1,0,0:0:0:0:
192,192,184972,1,0,0:0:0:0:
448,192,185050,1,0,0:0:0:0:
64,192,185128,1,0,0:0:0:0:
320,192,185206,1,0,0:0:0:0:
192,192,185245,1,0,0:0:0:0:
448,192,185285,1,0,0:0:0:0:
64,192,185324,1,0,0:0:0:0:
320,192,185363,1,0,0:0:0:0:
192,192,185441,1,0,0:0:0:0:
320,192,185480,1,0,0:0:0:0:
64,192,185519,1,0,0:0:0:0:
448,192,185558,1,0,0:0:0:0:
192,192,185597,1,0,0:0:0:0:
320,192,185675,1,0,0:0:0:0:
64,192,185753,128,0,185831:0:0:0:0:
448,192,185910,1,0,0:0:0:0:
448,192,186066,1,0,0:0:0:0:
192,192,186144,1,0,0:0:0:0:
448,192,186222,1,0,0:0:0:0:
64,192,186300,1,0,0:0:0:0:
320,192,186378,1,0,0:0:0:0:
64,192,186456,1,0,0:0:0:0:
320,192,186535,1,0,0:0:0:0:
192,192,186574,1,0,0:0:0:0:
64,192,186613,1,0,0:0:0:0:
192,192,186691,1,0,0:0:0:0:
320,192,186730,1,0,0:0:0:0:
448,192,186769,1,0,0:0:0:0:
64,192,186847,1,0,0:0:0:0:
320,192,186925,1,0,0:0:0:0:
448,192,187003,128,0,187160:0:0:0:0:
64,192,187160,1,0,0:0:0:0:
192,192,187199,1,0,0:0:0:0:
320,192,187238,1,0,0:0:0:0:
448,192,187277,1,0,0:0:0:0:
64,192,187316,1,0,0:0:0:0:
320,192,187394,1,0,0:0:0:0:
192,192,187472,128,0,187550:0:0:0:0:
192,192,187628,1,0,0:0:0:0:
64,192,187628,1,0,0:0:0:0:
448,192,187628,1,0,0:0:0:0:
320,192,187706,1,0,0:0:0:0:
64,192,187785,1,0,0:0:0:0:
192,192,187824,1,0,0:0:0:0:
320,192,187863,1,0,0:0:0:0:
448,192,187941,1,0,0:0:0:0:
192,192,187941,1,0,0:0:0:0:
64,192,187941,1,0,0:0:0:0:
192,192,188097,1,0,0:0:0:0:
320,192,188097,1,0,0:0:0:0:
448,192,188097,1,0,0:0:0:0:
64,192,188175,1,0,0:0:0:0:
320,192,188253,128,0,188331:0:0:0:0:
64,192,188410,1,0,0:0:0:0:
64,192,188566,1,0,0:0:0:0:
320,192,188644,1,0,0:0:0:0:
64,192,188722,1,0,0:0:0:0:
448,192,188800,1,0,0:0:0:0:
192,192,188878,1,0,0:0:0:0:
448,192,188956,1,0,0:0:0:0:
64,192,189035,1,0,0:0:0:0:
192,192,189074,1,0,0:0:0:0:
320,192,189113,1,0,0:0:0:0:
448,192,189191,1,0,0:0:0:0:
320,192,189230,1,0,0:0:0:0:
192,192,189269,1,0,0:0:0:0:
64,192,189347,1,0,0:0:0:0:
320,192,189425,1,0,0:0:0:0:
448,192,189503,128,0,189660:0:0:0:0:
64,192,189660,1,0,0:0:0:0:
64,192,190597,5,0,0:0:0:0:
320,192,190910,5,0,0:0:0:0:
448,192,190910,1,0,0:0:0:0:
192,192,190949,1,0,0:0:0:0:
64,192,190988,1,0,0:0:0:0:
448,192,191027,1,0,0:0:0:0:
320,192,191066,1,0,0:0:0:0:
192,192,191066,1,0,0:0:0:0:
64,192,191144,1,0,0:0:0:0:
448,192,191222,1,0,0:0:0:0:
320,192,191222,1,0,0:0:0:0:
192,192,191261,1,0,0:0:0:0:
64,192,191300,1,0,0:0:0:0:
320,192,191339,1,0,0:0:0:0:
448,192,191378,1,0,0:0:0:0:
192,192,191378,1,0,0:0:0:0:
64,192,191456,1,0,0:0:0:0:
320,192,191535,1,0,0:0:0:0:
448,192,191535,1,0,0:0:0:0:
192,192,191574,1,0,0:0:0:0:
64,192,191613,1,0,0:0:0:0:
320,192,191691,1,0,0:0:0:0:
192,192,191691,1,0,0:0:0:0:
448,192,191730,1,0,0:0:0:0:
64,192,191808,1,0,0:0:0:0:
320,192,191847,1,0,0:0:0:0:
448,192,191847,1,0,0:0:0:0:
192,192,191886,1,0,0:0:0:0:
64,192,191925,1,0,0:0:0:0:
320,192,192003,128,0,192081:0:0:0:0:
192,192,192003,1,0,0:0:0:0:
64,192,192160,1,0,0:0:0:0:
192,192,192160,1,0,0:0:0:0:
320,192,192199,1,0,0:0:0:0:
448,192,192238,1,0,0:0:0:0:
64,192,192277,1,0,0:0:0:0:
192,192,192316,1,0,0:0:0:0:
320,192,192316,1,0,0:0:0:0:
448,192,192394,1,0,0:0:0:0:
64,192,192472,1,0,0:0:0:0:
192,192,192472,1,0,0:0:0:0:
320,192,192511,1,0,0:0:0:0:
448,192,192550,1,0,0:0:0:0:
192,192,192589,1,0,0:0:0:0:
64,192,192628,1,0,0:0:0:0:
320,192,192628,1,0,0:0:0:0:
448,192,192706,1,0,0:0:0:0:
192,192,192785,1,0,0:0:0:0:
64,192,192785,1,0,0:0:0:0:
320,192,192824,1,0,0:0:0:0:
448,192,192863,1,0,0:0:0:0:
192,192,192941,1,0,0:0:0:0:
320,192,192941,1,0,0:0:0:0:
64,192,192980,1,0,0:0:0:0:
448,192,193058,1,0,0:0:0:0:
192,192,193097,1,0,0:0:0:0:
64,192,193097,1,0,0:0:0:0:
320,192,193136,1,0,0:0:0:0:
448,192,193175,1,0,0:0:0:0:
192,192,193253,128,0,193331:0:0:0:0:
320,192,193253,1,0,0:0:0:0:
320,192,193410,1,0,0:0:0:0:
448,192,193410,1,0,0:0:0:0:
192,192,193449,1,0,0:0:0:0:
64,192,193488,1,0,0:0:0:0:
448,192,193527,1,0,0:0:0:0:
320,192,193566,1,0,0:0:0:0:
192,192,193566,1,0,0:0:0:0:
64,192,193644,1,0,0:0:0:0:
320,192,193722,1,0,0:0:0:0:
448,192,193722,1,0,0:0:0:0:
192,192,193761,1,0,0:0:0:0:
64,192,193800,1,0,0:0:0:0:
320,192,193839,1,0,0:0:0:0:
448,192,193878,1,0,0:0:0:0:
192,192,193878,1,0,0:0:0:0:
64,192,193956,1,0,0:0:0:0:
448,192,194035,1,0,0:0:0:0:
320,192,194035,1,0,0:0:0:0:
192,192,194074,1,0,0:0:0:0:
64,192,194113,1,0,0:0:0:0:
320,192,194191,1,0,0:0:0:0:
192,192,194191,1,0,0:0:0:0:
448,192,194230,1,0,0:0:0:0:
64,192,194308,1,0,0:0:0:0:
448,192,194347,1,0,0:0:0:0:
320,192,194347,1,0,0:0:0:0:
192,192,194386,1,0,0:0:0:0:
64,192,194425,1,0,0:0:0:0:
320,192,194503,128,0,194581:0:0:0:0:
192,192,194503,1,0,0:0:0:0:
64,192,194660,1,0,0:0:0:0:
192,192,194660,1,0,0:0:0:0:
320,192,194699,1,0,0:0:0:0:
448,192,194738,1,0,0:0:0:0:
64,192,194777,1,0,0:0:0:0:
192,192,194816,1,0,0:0:0:0:
320,192,194816,1,0,0:0:0:0:
448,192,194894,1,0,0:0:0:0:
64,192,194972,1,0,0:0:0:0:
192,192,194972,1,0,0:0:0:0:
320,192,195011,1,0,0:0:0:0:
448,192,195050,1,0,0:0:0:0:
192,192,195089,1,0,0:0:0:0:
64,192,195128,1,0,0:0:0:0:
320,192,195128,1,0,0:0:0:0:
448,192,195206,1,0,0:0:0:0:
192,192,195285,1,0,0:0:0:0:
64,192,195285,1,0,0:0:0:0:
320,192,195324,1,0,0:0:0:0:
448,192,195363,1,0,0:0:0:0:
192,192,195441,1,0,0:0:0:0:
64,192,195441,1,0,0:0:0:0:
320,192,195480,1,0,0:0:0:0:
448,192,195519,1,0,0:0:0:0:
192,192,195597,1,0,0:0:0:0:
64,192,195597,1,0,0:0:0:0:
320,192,195636,1,0,0:0:0:0:
448,192,195675,1,0,0:0:0:0:
192,192,195753,128,0,195831:0:0:0:0:
320,192,195753,1,0,0:0:0:0:
448,192,195910,1,0,0:0:0:0:
320,192,195910,1,0,0:0:0:0:
192,192,195949,1,0,0:0:0:0:
64,192,195988,1,0,0:0:0:0:
448,192,196027,1,0,0:0:0:0:
320,192,196066,1,0,0:0:0:0:
192,192,196066,1,0,0:0:0:0:
64,192,196144,1,0,0:0:0:0:
448,192,196222,1,0,0:0:0:0:
320,192,196222,1,0,0:0:0:0:
192,192,196261,1,0,0:0:0:0:
64,192,196300,1,0,0:0:0:0:
320,192,196339,1,0,0:0:0:0:
448,192,196378,1,0,0:0:0:0:
192,192,196378,1,0,0:0:0:0:
64,192,196456,1,0,0:0:0:0:
320,192,196535,1,0,0:0:0:0:
448,192,196535,1,0,0:0:0:0:
192,192,196574,1,0,0:0:0:0:
64,192,196613,1,0,0:0:0:0:
320,192,196691,1,0,0:0:0:0:
192,192,196691,1,0,0:0:0:0:
448,192,196730,1,0,0:0:0:0:
64,192,196808,1,0,0:0:0:0:
320,192,196847,1,0,0:0:0:0:
448,192,196847,1,0,0:0:0:0:
192,192,196886,1,0,0:0:0:0:
64,192,196925,1,0,0:0:0:0:
320,192,197003,128,0,197081:0:0:0:0:
192,192,197003,1,0,0:0:0:0:
64,192,197160,1,0,0:0:0:0:
192,192,197160,1,0,0:0:0:0:
320,192,197199,1,0,0:0:0:0:
448,192,197238,1,0,0:0:0:0:
64,192,197277,1,0,0:0:0:0:
192,192,197316,1,0,0:0:0:0:
320,192,197316,1,0,0:0:0:0:
448,192,197394,1,0,0:0:0:0:
64,192,197472,1,0,0:0:0:0:
192,192,197472,1,0,0:0:0:0:
320,192,197511,1,0,0:0:0:0:
448,192,197550,1,0,0:0:0:0:
192,192,197589,1,0,0:0:0:0:
64,192,197628,1,0,0:0:0:0:
320,192,197628,1,0,0:0:0:0:
448,192,197706,1,0,0:0:0:0:
192,192,197785,1,0,0:0:0:0:
64,192,197785,1,0,0:0:0:0:
320,192,197824,1,0,0:0:0:0:
448,192,197863,1,0,0:0:0:0:
192,192,197941,1,0,0:0:0:0:
320,192,197941,1,0,0:0:0:0:
64,192,197980,1,0,0:0:0:0:
448,192,198058,1,0,0:0:0:0:
192,192,198097,1,0,0:0:0:0:
64,192,198097,1,0,0:0:0:0:
320,192,198136,1,0,0:0:0:0:
448,192,198175,1,0,0:0:0:0:
192,192,198253,128,0,198331:0:0:0:0:
320,192,198253,1,0,0:0:0:0:
448,192,198410,1,0,0:0:0:0:
320,192,198410,1,0,0:0:0:0:
192,192,198449,1,0,0:0:0:0:
64,192,198488,1,0,0:0:0:0:
448,192,198527,1,0,0:0:0:0:
320,192,198566,1,0,0:0:0:0:
192,192,198566,1,0,0:0:0:0:
64,192,198644,1,0,0:0:0:0:
448,192,198722,1,0,0:0:0:0:
320,192,198722,1,0,0:0:0:0:
192,192,198761,1,0,0:0:0:0:
64,192,198800,1,0,0:0:0:0:
320,192,198839,1,0,0:0:0:0:
448,192,198878,1,0,0:0:0:0:
192,192,198878,1,0,0:0:0:0:
64,192,198956,1,0,0:0:0:0:
320,192,199035,1,0,0:0:0:0:
448,192,199035,1,0,0:0:0:0:
192,192,199074,1,0,0:0:0:0:
64,192,199113,1,0,0:0:0:0:
320,192,199191,1,0,0:0:0:0:
192,192,199191,1,0,0:0:0:0:
448,192,199230,1,0,0:0:0:0:
64,192,199308,1,0,0:0:0:0:
320,192,199347,1,0,0:0:0:0:
448,192,199347,1,0,0:0:0:0:
192,192,199386,1,0,0:0:0:0:
64,192,199425,1,0,0:0:0:0:
320,192,199503,128,0,199581:0:0:0:0:
192,192,199503,1,0,0:0:0:0:
192,192,199660,1,0,0:0:0:0:
64,192,199660,1,0,0:0:0:0:
320,192,199699,1,0,0:0:0:0:
448,192,199738,1,0,0:0:0:0:
64,192,199777,1,0,0:0:0:0:
320,192,199816,1,0,0:0:0:0:
192,192,199816,1,0,0:0:0:0:
448,192,199894,1,0,0:0:0:0:
192,192,199972,1,0,0:0:0:0:
64,192,199972,1,0,0:0:0:0:
320,192,200011,1,0,0:0:0:0:
448,192,200050,1,0,0:0:0:0:
192,192,200089,1,0,0:0:0:0:
320,192,200128,1,0,0:0:0:0:
64,192,200128,1,0,0:0:0:0:
448,192,200206,1,0,0:0:0:0:
192,192,200206,1,0,0:0:0:0:
64,192,200285,1,0,0:0:0:0:
320,192,200285,1,0,0:0:0:0:
192,192,200324,1,0,0:0:0:0:
448,192,200363,1,0,0:0:0:0:
192,192,200441,1,0,0:0:0:0:
64,192,200441,1,0,0:0:0:0:
320,192,200519,1,0,0:0:0:0:
448,192,200519,1,0,0:0:0:0:
64,192,200597,1,0,0:0:0:0:
192,192,200597,1,0,0:0:0:0:
320,192,200636,1,0,0:0:0:0:
448,192,200675,1,0,0:0:0:0:
320,192,200753,1,0,0:0:0:0:
192,192,200753,128,0,200831:0:0:0:0:
192,192,200910,1,0,0:0:0:0:
64,192,200910,1,0,0:0:0:0:
320,192,200949,1,0,0:0:0:0:
448,192,200988,1,0,0:0:0:0:
64,192,201027,1,0,0:0:0:0:
320,192,201066,1,0,0:0:0:0:
192,192,201066,1,0,0:0:0:0:
448,192,201144,1,0,0:0:0:0:
192,192,201222,1,0,0:0:0:0:
64,192,201222,1,0,0:0:0:0:
320,192,201261,1,0,0:0:0:0:
448,192,201300,1,0,0:0:0:0:
192,192,201339,1,0,0:0:0:0:
320,192,201378,1,0,0:0:0:0:
64,192,201378,1,0,0:0:0:0:
448,192,201456,1,0,0:0:0:0:
64,192,201535,1,0,0:0:0:0:
192,192,201535,1,0,0:0:0:0:
320,192,201574,1,0,0:0:0:0:
448,192,201613,1,0,0:0:0:0:
320,192,201691,1,0,0:0:0:0:
192,192,201691,1,0,0:0:0:0:
64,192,201730,1,0,0:0:0:0:
448,192,201808,1,0,0:0:0:0:
64,192,201847,1,0,0:0:0:0:
192,192,201847,1,0,0:0:0:0:
320,192,201886,1,0,0:0:0:0:
448,192,201925,1,0,0:0:0:0:
320,192,202003,1,0,0:0:0:0:
192,192,202003,128,0,202081:0:0:0:0:
320,192,202160,1,0,0:0:0:0:
448,192,202160,1,0,0:0:0:0:
192,192,202199,1,0,0:0:0:0:
64,192,202238,1,0,0:0:0:0:
448,192,202277,1,0,0:0:0:0:
192,192,202316,1,0,0:0:0:0:
320,192,202316,1,0,0:0:0:0:
64,192,202394,1,0,0:0:0:0:
320,192,202472,1,0,0:0:0:0:
448,192,202472,1,0,0:0:0:0:
192,192,202511,1,0,0:0:0:0:
64,192,202550,1,0,0:0:0:0:
320,192,202589,1,0,0:0:0:0:
192,192,202628,1,0,0:0:0:0:
448,192,202628,1,0,0:0:0:0:
64,192,202706,1,0,0:0:0:0:
448,192,202785,1,0,0:0:0:0:
320,192,202785,1,0,0:0:0:0:
192,192,202824,1,0,0:0:0:0:
64,192,202863,1,0,0:0:0:0:
192,192,202941,1,0,0:0:0:0:
320,192,202941,1,0,0:0:0:0:
448,192,202980,1,0,0:0:0:0:
64,192,203058,1,0,0:0:0:0:
448,192,203097,1,0,0:0:0:0:
320,192,203097,1,0,0:0:0:0:
192,192,203136,1,0,0:0:0:0:
64,192,203175,1,0,0:0:0:0:
192,192,203253,1,0,0:0:0:0:
320,192,203253,128,0,203331:0:0:0:0:
64,192,203410,1,0,0:0:0:0:
192,192,203410,1,0,0:0:0:0:
320,192,203449,1,0,0:0:0:0:
448,192,203488,1,0,0:0:0:0:
64,192,203527,1,0,0:0:0:0:
320,192,203566,1,0,0:0:0:0:
192,192,203566,1,0,0:0:0:0:
448,192,203644,1,0,0:0:0:0:
64,192,203722,1,0,0:0:0:0:
192,192,203722,1,0,0:0:0:0:
320,192,203761,1,0,0:0:0:0:
448,192,203800,1,0,0:0:0:0:
192,192,203839,1,0,0:0:0:0:
320,192,203878,1,0,0:0:0:0:
64,192,203878,1,0,0:0:0:0:
448,192,203956,1,0,0:0:0:0:
192,192,204035,1,0,0:0:0:0:
64,192,204035,1,0,0:0:0:0:
320,192,204074,1,0,0:0:0:0:
448,192,204113,1,0,0:0:0:0:
320,192,204191,1,0,0:0:0:0:
192,192,204191,1,0,0:0:0:0:
64,192,204230,1,0,0:0:0:0:
448,192,204308,1,0,0:0:0:0:
192,192,204347,1,0,0:0:0:0:
64,192,204347,1,0,0:0:0:0:
320,192,204386,1,0,0:0:0:0:
448,192,204425,1,0,0:0:0:0:
320,192,204503,1,0,0:0:0:0:
192,192,204503,128,0,204581:0:0:0:0:
320,192,204660,1,0,0:0:0:0:
448,192,204660,1,0,0:0:0:0:
192,192,204699,1,0,0:0:0:0:
64,192,204738,1,0,0:0:0:0:
448,192,204777,1,0,0:0:0:0:
192,192,204816,1,0,0:0:0:0:
320,192,204816,1,0,0:0:0:0:
64,192,204894,1,0,0:0:0:0:
320,192,204972,1,0,0:0:0:0:
448,192,204972,1,0,0:0:0:0:
192,192,205011,1,0,0:0:0:0:
64,192,205050,1,0,0:0:0:0:
320,192,205089,1,0,0:0:0:0:
192,192,205128,1,0,0:0:0:0:
448,192,205128,1,0,0:0:0:0:
64,192,205206,1,0,0:0:0:0:
448,192,205285,1,0,0:0:0:0:
320,192,205285,1,0,0:0:0:0:
192,192,205324,1,0,0:0:0:0:
64,192,205363,1,0,0:0:0:0:
448,192,205441,1,0,0:0:0:0:
320,192,205441,1,0,0:0:0:0:
192,192,205480,1,0,0:0:0:0:
64,192,205519,1,0,0:0:0:0:
448,192,205597,1,0,0:0:0:0:
320,192,205597,1,0,0:0:0:0:
192,192,205636,1,0,0:0:0:0:
64,192,205675,1,0,0:0:0:0:
192,192,205753,1,0,0:0:0:0:
320,192,205753,128,0,205831:0:0:0:0:
192,192,205910,1,0,0:0:0:0:
64,192,205910,1,0,0:0:0:0:
320,192,205949,1,0,0:0:0:0:
448,192,205988,1,0,0:0:0:0:
64,192,206027,1,0,0:0:0:0:
320,192,206066,1,0,0:0:0:0:
192,192,206066,1,0,0:0:0:0:
448,192,206144,1,0,0:0:0:0:
192,192,206222,1,0,0:0:0:0:
64,192,206222,1,0,0:0:0:0:
320,192,206261,1,0,0:0:0:0:
448,192,206300,1,0,0:0:0:0:
192,192,206339,1,0,0:0:0:0:
320,192,206378,1,0,0:0:0:0:
64,192,206378,1,0,0:0:0:0:
448,192,206456,1,0,0:0:0:0:
64,192,206535,1,0,0:0:0:0:
192,192,206535,1,0,0:0:0:0:
320,192,206574,1,0,0:0:0:0:
448,192,206613,1,0,0:0:0:0:
320,192,206691,1,0,0:0:0:0:
192,192,206691,1,0,0:0:0:0:
64,192,206730,1,0,0:0:0:0:
448,192,206808,1,0,0:0:0:0:
64,192,206847,1,0,0:0:0:0:
192,192,206847,1,0,0:0:0:0:
320,192,206886,1,0,0:0:0:0:
448,192,206925,1,0,0:0:0:0:
320,192,207003,1,0,0:0:0:0:
192,192,207003,128,0,207081:0:0:0:0:
320,192,207160,1,0,0:0:0:0:
448,192,207160,1,0,0:0:0:0:
192,192,207160,1,0,0:0:0:0:
64,192,207199,1,0,0:0:0:0:
192,192,207238,1,0,0:0:0:0:
448,192,207277,1,0,0:0:0:0:
320,192,207316,1,0,0:0:0:0:
64,192,207316,1,0,0:0:0:0:
192,192,207394,1,0,0:0:0:0:
320,192,207472,1,0,0:0:0:0:
448,192,207472,1,0,0:0:0:0:
192,192,207511,1,0,0:0:0:0:
64,192,207550,1,0,0:0:0:0:
320,192,207589,1,0,0:0:0:0:
192,192,207628,1,0,0:0:0:0:
448,192,207628,1,0,0:0:0:0:
64,192,207706,1,0,0:0:0:0:
448,192,207785,1,0,0:0:0:0:
320,192,207785,1,0,0:0:0:0:
192,192,207824,1,0,0:0:0:0:
64,192,207863,1,0,0:0:0:0:
192,192,207941,1,0,0:0:0:0:
320,192,207941,1,0,0:0:0:0:
448,192,207980,1,0,0:0:0:0:
64,192,208058,1,0,0:0:0:0:
448,192,208097,1,0,0:0:0:0:
320,192,208097,1,0,0:0:0:0:
192,192,208136,1,0,0:0:0:0:
64,192,208175,1,0,0:0:0:0:
192,192,208253,1,0,0:0:0:0:
320,192,208253,128,0,208331:0:0:0:0:
64,192,208410,1,0,0:0:0:0:
192,192,208410,1,0,0:0:0:0:
320,192,208410,1,0,0:0:0:0:
448,192,208449,1,0,0:0:0:0:
320,192,208488,1,0,0:0:0:0:
64,192,208527,1,0,0:0:0:0:
192,192,208566,1,0,0:0:0:0:
448,192,208566,1,0,0:0:0:0:
320,192,208644,1,0,0:0:0:0:
64,192,208722,1,0,0:0:0:0:
192,192,208722,1,0,0:0:0:0:
320,192,208761,1,0,0:0:0:0:
448,192,208800,1,0,0:0:0:0:
320,192,208878,1,0,0:0:0:0:
64,192,208956,1,0,0:0:0:0:
192,192,208956,1,0,0:0:0:0:
320,192,209035,1,0,0:0:0:0:
448,192,209035,1,0,0:0:0:0:
192,192,209074,1,0,0:0:0:0:
64,192,209113,1,0,0:0:0:0:
192,192,209191,1,0,0:0:0:0:
448,192,209269,1,0,0:0:0:0:
320,192,209269,1,0,0:0:0:0:
192,192,209347,1,0,0:0:0:0:
64,192,209347,1,0,0:0:0:0:
320,192,209425,1,0,0:0:0:0:
448,192,209503,1,0,0:0:0:0:
64,192,209503,1,0,0:0:0:0:
192,192,209503,128,0,209581:0:0:0:0:
320,192,209660,1,0,0:0:0:0:
448,192,209660,1,0,0:0:0:0:
192,192,210910,1,0,0:0:0:0:
64,192,210910,1,0,0:0:0:0:
320,192,210949,1,0,0:0:0:0:
448,192,210988,1,0,0:0:0:0:
64,192,211027,1,0,0:0:0:0:
320,192,211066,1,0,0:0:0:0:
192,192,211066,1,0,0:0:0:0:
448,192,211144,1,0,0:0:0:0:
192,192,211222,1,0,0:0:0:0:
64,192,211222,1,0,0:0:0:0:
320,192,211261,1,0,0:0:0:0:
448,192,211300,1,0,0:0:0:0:
192,192,211339,1,0,0:0:0:0:
320,192,211378,1,0,0:0:0:0:
64,192,211378,1,0,0:0:0:0:
448,192,211456,1,0,0:0:0:0:
64,192,211535,1,0,0:0:0:0:
192,192,211535,1,0,0:0:0:0:
320,192,211574,1,0,0:0:0:0:
448,192,211613,1,0,0:0:0:0:
320,192,211691,1,0,0:0:0:0:
192,192,211691,1,0,0:0:0:0:
64,192,211730,1,0,0:0:0:0:
448,192,211808,1,0,0:0:0:0:
192,192,211847,1,0,0:0:0:0:
320,192,211886,1,0,0:0:0:0:
448,192,211925,1,0,0:0:0:0:
320,192,212003,1,0,0:0:0:0:
192,192,212003,128,0,212081:0:0:0:0:
320,192,212160,1,0,0:0:0:0:
192,192,212199,1,0,0:0:0:0:
64,192,212238,1,0,0:0:0:0:
448,192,212277,1,0,0:0:0:0:
320,192,212316,1,0,0:0:0:0:
64,192,212394,1,0,0:0:0:0:
320,192,212472,1,0,0:0:0:0:
192,192,212511,1,0,0:0:0:0:
64,192,212550,1,0,0:0:0:0:
320,192,212589,1,0,0:0:0:0:
192,192,212628,1,0,0:0:0:0:
448,192,212628,1,0,0:0:0:0:
64,192,212706,1,0,0:0:0:0:
320,192,212785,1,0,0:0:0:0:
192,192,212824,1,0,0:0:0:0:
64,192,212863,1,0,0:0:0:0:
320,192,212941,1,0,0:0:0:0:
448,192,212980,1,0,0:0:0:0:
64,192,213058,1,0,0:0:0:0:
320,192,213097,1,0,0:0:0:0:
192,192,213136,1,0,0:0:0:0:
64,192,213175,1,0,0:0:0:0:
320,192,213253,128,0,213331:0:0:0:0:
64,192,213410,1,0,0:0:0:0:
192,192,213410,1,0,0:0:0:0:
320,192,213449,1,0,0:0:0:0:
448,192,213488,1,0,0:0:0:0:
64,192,213527,1,0,0:0:0:0:
320,192,213566,1,0,0:0:0:0:
192,192,213566,1,0,0:0:0:0:
448,192,213644,1,0,0:0:0:0:
64,192,213722,1,0,0:0:0:0:
192,192,213722,1,0,0:0:0:0:
320,192,213761,1,0,0:0:0:0:
448,192,213800,1,0,0:0:0:0:
192,192,213839,1,0,0:0:0:0:
320,192,213878,1,0,0:0:0:0:
64,192,213878,1,0,0:0:0:0:
448,192,213956,1,0,0:0:0:0:
192,192,214035,1,0,0:0:0:0:
320,192,214074,1,0,0:0:0:0:
448,192,214113,1,0,0:0:0:0:
192,192,214191,1,0,0:0:0:0:
64,192,214230,1,0,0:0:0:0:
448,192,214308,1,0,0:0:0:0:
192,192,214347,1,0,0:0:0:0:
320,192,214386,1,0,0:0:0:0:
448,192,214425,1,0,0:0:0:0:
192,192,214503,128,0,214581:0:0:0:0:
320,192,214660,1,0,0:0:0:0:
448,192,214660,1,0,0:0:0:0:
192,192,214699,1,0,0:0:0:0:
64,192,214738,1,0,0:0:0:0:
448,192,214777,1,0,0:0:0:0:
192,192,214816,1,0,0:0:0:0:
320,192,214816,1,0,0:0:0:0:
64,192,214894,1,0,0:0:0:0:
320,192,214972,1,0,0:0:0:0:
448,192,214972,1,0,0:0:0:0:
192,192,215011,1,0,0:0:0:0:
64,192,215050,1,0,0:0:0:0:
320,192,215089,1,0,0:0:0:0:
192,192,215128,1,0,0:0:0:0:
448,192,215128,1,0,0:0:0:0:
64,192,215206,1,0,0:0:0:0:
320,192,215285,1,0,0:0:0:0:
192,192,215324,1,0,0:0:0:0:
64,192,215363,1,0,0:0:0:0:
448,192,215441,1,0,0:0:0:0:
192,192,215480,1,0,0:0:0:0:
64,192,215519,1,0,0:0:0:0:
320,192,215597,1,0,0:0:0:0:
192,192,215636,1,0,0:0:0:0:
64,192,215675,1,0,0:0:0:0:
320,192,215753,128,0,215831:0:0:0:0:
192,192,215910,1,0,0:0:0:0:
320,192,215949,1,0,0:0:0:0:
448,192,215988,1,0,0:0:0:0:
64,192,216027,1,0,0:0:0:0:
192,192,216066,1,0,0:0:0:0:
448,192,216144,1,0,0:0:0:0:
64,192,216222,1,0,0:0:0:0:
320,192,216261,1,0,0:0:0:0:
448,192,216300,1,0,0:0:0:0:
192,192,216339,1,0,0:0:0:0:
320,192,216378,1,0,0:0:0:0:
64,192,216378,1,0,0:0:0:0:
448,192,216456,1,0,0:0:0:0:
64,192,216535,1,0,0:0:0:0:
192,192,216535,1,0,0:0:0:0:
320,192,216574,1,0,0:0:0:0:
448,192,216613,1,0,0:0:0:0:
320,192,216691,1,0,0:0:0:0:
192,192,216691,1,0,0:0:0:0:
64,192,216730,1,0,0:0:0:0:
448,192,216808,1,0,0:0:0:0:
64,192,216847,1,0,0:0:0:0:
192,192,216847,1,0,0:0:0:0:
320,192,216886,1,0,0:0:0:0:
448,192,216925,1,0,0:0:0:0:
320,192,217003,1,0,0:0:0:0:
192,192,217003,128,0,217081:0:0:0:0:
320,192,217160,1,0,0:0:0:0:
448,192,217160,1,0,0:0:0:0:
64,192,217199,1,0,0:0:0:0:
192,192,217238,1,0,0:0:0:0:
448,192,217277,1,0,0:0:0:0:
320,192,217316,1,0,0:0:0:0:
64,192,217316,1,0,0:0:0:0:
192,192,217394,1,0,0:0:0:0:
320,192,217472,1,0,0:0:0:0:
448,192,217472,1,0,0:0:0:0:
192,192,217511,1,0,0:0:0:0:
64,192,217550,1,0,0:0:0:0:
320,192,217589,1,0,0:0:0:0:
192,192,217628,1,0,0:0:0:0:
448,192,217628,1,0,0:0:0:0:
64,192,217706,1,0,0:0:0:0:
320,192,217785,1,0,0:0:0:0:
192,192,217824,1,0,0:0:0:0:
64,192,217863,1,0,0:0:0:0:
320,192,217941,1,0,0:0:0:0:
448,192,217980,1,0,0:0:0:0:
64,192,218058,1,0,0:0:0:0:
320,192,218097,1,0,0:0:0:0:
192,192,218136,1,0,0:0:0:0:
64,192,218175,1,0,0:0:0:0:
320,192,218253,128,0,218331:0:0:0:0:
192,192,218410,1,0,0:0:0:0:
448,192,218449,1,0,0:0:0:0:
320,192,218488,1,0,0:0:0:0:
64,192,218527,1,0,0:0:0:0:
448,192,218566,1,0,0:0:0:0:
320,192,218644,1,0,0:0:0:0:
64,192,218722,1,0,0:0:0:0:
320,192,218761,1,0,0:0:0:0:
448,192,218800,1,0,0:0:0:0:
320,192,218878,1,0,0:0:0:0:
64,192,218956,1,0,0:0:0:0:
192,192,218956,1,0,0:0:0:0:
320,192,219035,1,0,0:0:0:0:
448,192,219035,1,0,0:0:0:0:
192,192,219074,1,0,0:0:0:0:
64,192,219113,1,0,0:0:0:0:
192,192,219191,1,0,0:0:0:0:
448,192,219269,1,0,0:0:0:0:
320,192,219269,1,0,0:0:0:0:
192,192,219347,1,0,0:0:0:0:
64,192,219347,1,0,0:0:0:0:
320,192,219425,1,0,0:0:0:0:
448,192,219503,1,0,0:0:0:0:
64,192,219503,1,0,0:0:0:0:
192,192,219503,128,0,219581:0:0:0:0:
320,192,219660,1,0,0:0:0:0:
448,192,219660,1,0,0:0:0:0:
64,192,220910,1,0,0:0:0:0:
192,192,220910,1,0,0:0:0:0:
320,192,220910,1,0,0:0:0:0:
448,192,220910,1,0,0:0:0:0:
320,192,221066,1,0,0:0:0:0:
192,192,221222,1,0,0:0:0:0:
320,192,221222,1,0,0:0:0:0:
448,192,221222,1,0,0:0:0:0:
64,192,221378,1,0,0:0:0:0:
320,192,221535,1,0,0:0:0:0:
192,192,221535,1,0,0:0:0:0:
192,192,221691,1,0,0:0:0:0:
320,192,221847,1,0,0:0:0:0:
192,192,221847,1,0,0:0:0:0:
64,192,221847,1,0,0:0:0:0:
448,192,221925,1,0,0:0:0:0:
320,192,222003,1,0,0:0:0:0:
192,192,222160,1,0,0:0:0:0:
320,192,222160,1,0,0:0:0:0:
64,192,222316,1,0,0:0:0:0:
192,192,222472,1,0,0:0:0:0:
320,192,222472,1,0,0:0:0:0:
448,192,222472,1,0,0:0:0:0:
320,192,222628,1,0,0:0:0:0:
320,192,222785,1,0,0:0:0:0:
192,192,222785,1,0,0:0:0:0:
64,192,222941,1,0,0:0:0:0:
448,192,222941,1,0,0:0:0:0:
192,192,223097,1,0,0:0:0:0:
64,192,223097,1,0,0:0:0:0:
448,192,223097,1,0,0:0:0:0:
320,192,223097,1,0,0:0:0:0:
192,192,223253,1,0,0:0:0:0:
448,192,223410,1,0,0:0:0:0:
320,192,223410,1,0,0:0:0:0:
64,192,223566,1,0,0:0:0:0:
192,192,223722,1,0,0:0:0:0:
448,192,223722,1,0,0:0:0:0:
320,192,223722,1,0,0:0:0:0:
320,192,223878,1,0,0:0:0:0:
192,192,224035,1,0,0:0:0:0:
64,192,224035,1,0,0:0:0:0:
320,192,224191,1,0,0:0:0:0:
320,192,224347,1,0,0:0:0:0:
64,192,224347,1,0,0:0:0:0:
192,192,224347,1,0,0:0:0:0:
448,192,224425,1,0,0:0:0:0:
320,192,224503,1,0,0:0:0:0:
320,192,224660,1,0,0:0:0:0:
448,192,224660,1,0,0:0:0:0:
64,192,224816,1,0,0:0:0:0:
448,192,224972,1,0,0:0:0:0:
192,192,224972,1,0,0:0:0:0:
320,192,224972,1,0,0:0:0:0:
320,192,225128,1,0,0:0:0:0:
192,192,225285,1,0,0:0:0:0:
64,192,225285,1,0,0:0:0:0:
192,192,225441,1,0,0:0:0:0:
448,192,225441,1,0,0:0:0:0:
320,192,225441,1,0,0:0:0:0:
64,192,225519,1,0,0:0:0:0:
448,192,225597,1,0,0:0:0:0:
192,192,225597,1,0,0:0:0:0:
320,192,225597,1,0,0:0:0:0:
320,192,225910,1,0,0:0:0:0:
448,192,225910,1,0,0:0:0:0:
64,192,225910,1,0,0:0:0:0:
192,192,225910,1,0,0:0:0:0:
320,192,226066,1,0,0:0:0:0:
448,192,226222,1,0,0:0:0:0:
192,192,226222,1,0,0:0:0:0:
64,192,226222,1,0,0:0:0:0:
192,192,226378,1,0,0:0:0:0:
320,192,226535,1,0,0:0:0:0:
448,192,226535,1,0,0:0:0:0:
192,192,226691,1,0,0:0:0:0:
64,192,226847,1,0,0:0:0:0:
448,192,226847,1,0,0:0:0:0:
320,192,226847,1,0,0:0:0:0:
192,192,226925,1,0,0:0:0:0:
320,192,227003,1,0,0:0:0:0:
192,192,227160,1,0,0:0:0:0:
64,192,227160,1,0,0:0:0:0:
320,192,227316,1,0,0:0:0:0:
64,192,227472,1,0,0:0:0:0:
192,192,227472,1,0,0:0:0:0:
448,192,227472,1,0,0:0:0:0:
192,192,227628,1,0,0:0:0:0:
320,192,227785,1,0,0:0:0:0:
64,192,227785,1,0,0:0:0:0:
192,192,227941,1,0,0:0:0:0:
448,192,227941,1,0,0:0:0:0:
448,192,228097,1,0,0:0:0:0:
320,192,228097,1,0,0:0:0:0:
64,192,228097,1,0,0:0:0:0:
192,192,228097,1,0,0:0:0:0:
64,192,228253,1,0,0:0:0:0:
320,192,228410,1,0,0:0:0:0:
192,192,228410,1,0,0:0:0:0:
448,192,228566,1,0,0:0:0:0:
320,192,228722,1,0,0:0:0:0:
192,192,228722,1,0,0:0:0:0:
64,192,228722,1,0,0:0:0:0:
64,192,228878,1,0,0:0:0:0:
320,192,229035,1,0,0:0:0:0:
192,192,229035,1,0,0:0:0:0:
448,192,229191,1,0,0:0:0:0:
320,192,229347,1,0,0:0:0:0:
192,192,229347,1,0,0:0:0:0:
448,192,229347,1,0,0:0:0:0:
64,192,229503,1,0,0:0:0:0:
320,192,229503,1,0,0:0:0:0:
320,192,229660,1,0,0:0:0:0:
64,192,229660,1,0,0:0:0:0:
192,192,229660,1,0,0:0:0:0:
448,192,229660,1,0,0:0:0:0:
192,192,229816,1,0,0:0:0:0:
320,192,229972,1,0,0:0:0:0:
192,192,229972,1,0,0:0:0:0:
64,192,229972,1,0,0:0:0:0:
192,192,230128,1,0,0:0:0:0:
448,192,230206,1,0,0:0:0:0:
320,192,230206,1,0,0:0:0:0:
192,192,230285,1,0,0:0:0:0:
64,192,230285,1,0,0:0:0:0:
320,192,230441,1,0,0:0:0:0:
448,192,230441,1,0,0:0:0:0:
64,192,230519,1,0,0:0:0:0:
192,192,230519,1,0,0:0:0:0:
320,192,230597,1,0,0:0:0:0:
448,192,230597,1,0,0:0:0:0:
320,192,230910,1,0,0:0:0:0:
192,192,230910,1,0,0:0:0:0:
64,192,230910,1,0,0:0:0:0:
448,192,231066,1,0,0:0:0:0:
192,192,231222,1,0,0:0:0:0:
64,192,231222,1,0,0:0:0:0:
448,192,231378,1,0,0:0:0:0:
192,192,231535,1,0,0:0:0:0:
320,192,231535,1,0,0:0:0:0:
64,192,231691,1,0,0:0:0:0:
320,192,231847,1,0,0:0:0:0:
448,192,231847,1,0,0:0:0:0:
64,192,231925,1,0,0:0:0:0:
192,192,232003,1,0,0:0:0:0:
320,192,232160,1,0,0:0:0:0:
192,192,232160,1,0,0:0:0:0:
448,192,232316,1,0,0:0:0:0:
192,192,232472,1,0,0:0:0:0:
64,192,232472,1,0,0:0:0:0:
448,192,232628,1,0,0:0:0:0:
192,192,232785,1,0,0:0:0:0:
320,192,232785,1,0,0:0:0:0:
448,192,232941,1,0,0:0:0:0:
64,192,232941,1,0,0:0:0:0:
448,192,233097,1,0,0:0:0:0:
64,192,233097,1,0,0:0:0:0:
192,192,233097,1,0,0:0:0:0:
320,192,233253,1,0,0:0:0:0:
64,192,233410,1,0,0:0:0:0:
192,192,233410,1,0,0:0:0:0:
448,192,233566,1,0,0:0:0:0:
320,192,233722,1,0,0:0:0:0:
192,192,233722,1,0,0:0:0:0:
64,192,233878,1,0,0:0:0:0:
320,192,234035,1,0,0:0:0:0:
448,192,234035,1,0,0:0:0:0:
64,192,234191,1,0,0:0:0:0:
192,192,234347,1,0,0:0:0:0:
320,192,234347,1,0,0:0:0:0:
448,192,234425,1,0,0:0:0:0:
320,192,234503,1,0,0:0:0:0:
192,192,234660,1,0,0:0:0:0:
64,192,234660,1,0,0:0:0:0:
448,192,234816,1,0,0:0:0:0:
320,192,234972,1,0,0:0:0:0:
192,192,234972,1,0,0:0:0:0:
64,192,235128,1,0,0:0:0:0:
320,192,235285,1,0,0:0:0:0:
448,192,235285,1,0,0:0:0:0:
320,192,235441,1,0,0:0:0:0:
192,192,235441,1,0,0:0:0:0:
448,192,235519,1,0,0:0:0:0:
320,192,235597,1,0,0:0:0:0:
192,192,235597,1,0,0:0:0:0:
192,192,235910,1,0,0:0:0:0:
64,192,235910,1,0,0:0:0:0:
448,192,236066,1,0,0:0:0:0:
320,192,236222,1,0,0:0:0:0:
192,192,236222,1,0,0:0:0:0:
64,192,236378,1,0,0:0:0:0:
320,192,236535,1,0,0:0:0:0:
448,192,236535,1,0,0:0:0:0:
64,192,236691,1,0,0:0:0:0:
320,192,236847,1,0,0:0:0:0:
192,192,236847,1,0,0:0:0:0:
448,192,236925,1,0,0:0:0:0:
320,192,237003,1,0,0:0:0:0:
64,192,237160,1,0,0:0:0:0:
192,192,237160,1,0,0:0:0:0:
448,192,237316,1,0,0:0:0:0:
320,192,237472,1,0,0:0:0:0:
192,192,237472,1,0,0:0:0:0:
64,192,237628,1,0,0:0:0:0:
320,192,237785,1,0,0:0:0:0:
448,192,237785,1,0,0:0:0:0:
320,192,237941,1,0,0:0:0:0:
192,192,237941,1,0,0:0:0:0:
64,192,238019,1,0,0:0:0:0:
192,192,238097,1,0,0:0:0:0:
320,192,238097,1,0,0:0:0:0:
448,192,238253,1,0,0:0:0:0:
64,192,238410,1,0,0:0:0:0:
192,192,238410,1,0,0:0:0:0:
448,192,238566,1,0,0:0:0:0:
320,192,238722,1,0,0:0:0:0:
192,192,238722,1,0,0:0:0:0:
64,192,238878,1,0,0:0:0:0:
320,192,239035,1,0,0:0:0:0:
448,192,239035,1,0,0:0:0:0:
64,192,239191,1,0,0:0:0:0:
192,192,239347,1,0,0:0:0:0:
320,192,239347,1,0,0:0:0:0:
448,192,239425,1,0,0:0:0:0:
320,192,239503,1,0,0:0:0:0:
192,192,239660,1,0,0:0:0:0:
64,192,239660,1,0,0:0:0:0:
448,192,239660,1,0,0:0:0:0:
448,192,239816,1,0,0:0:0:0:
448,192,240128,1,0,0:0:0:0:
448,192,240285,1,0,0:0:0:0:
448,192,240519,1,0,0:0:0:0:
448,192,240597,1,0,0:0:0:0:
448,192,240753,1,0,0:0:0:0:
64,192,240910,1,0,0:0:0:0:
