osu file format v14

[General]
AudioFilename: audio.mp3
AudioLeadIn: 0
PreviewTime: 75220
Countdown: 0
SampleSet: Normal
StackLeniency: 0.7
Mode: 1
LetterboxInBreaks: 0
WidescreenStoryboard: 0

[Editor]
DistanceSpacing: 1.1
BeatDivisor: 2
GridSize: 32
TimelineZoom: 1.2

[Metadata]
Title:666
TitleUnicode:666
Artist:RoughSketch
ArtistUnicode:RoughSketch
Creator:Cynplytholowazy
Version:NOVICE
Source:SOUND VOLTEX VIVID WAVE
Tags:SDVX The 9th KAC KONAMI Arcade Championship Original Gakkyoku Song Contest オリジナル楽曲コンテスト BEMANI Electronic Instrumental HEXA DIVER Kureha [_Chichinya_] Peter Faputa
BeatmapID:2313754
BeatmapSetID:1107042

[Difficulty]
HPDrainRate:7.7
CircleSize:6.66
OverallDifficulty:3.3
ApproachRate:6.6
SliderMultiplier:2.64
SliderTickRate:1

[Events]
//Background and Video events
0,0,"opera_9s4LGClyl6.jpg",0,86
//Break Periods
//Storyboard Layer 0 (Background)
//Storyboard Layer 1 (Fail)
//Storyboard Layer 2 (Pass)
//Storyboard Layer 3 (Foreground)
//Storyboard Layer 4 (Overlay)
//Storyboard Sound Samples

[TimingPoints]
716,360.36036036036,4,1,0,40,1,0
716,-188.6792453,4,1,0,40,0,0
7202,-188.6792453,4,1,0,41,0,0
7923,-188.6792453,4,1,0,42,0,0
8643,-188.6792453,4,1,0,43,0,0
9364,-188.6792453,4,1,0,44,0,0
10085,-188.6792453,4,1,0,45,0,0
10806,-188.6792453,4,1,0,46,0,0
12157,-181.8181818,4,1,0,50,0,0
14770,-188.6792453,4,1,0,48,0,0
15130,-188.6792453,4,1,0,50,0,0
26639,-181.8181818,4,1,0,48,0,0
32427,-188.6792453,4,1,0,48,0,0
32517,-181.8181818,4,1,0,48,0,0
38103,-188.6792453,4,1,0,50,0,0
38891,-188.6792453,4,1,0,45,0,0
40986,-188.6792453,4,1,0,50,0,0
41166,-196.0784314,4,1,0,50,0,0
53238,-204.0816327,4,1,0,46,0,0
63688,-196.0784314,4,1,0,48,0,0
64049,-188.6792453,4,1,0,50,0,0
64499,-212.7659574,4,1,0,40,0,0
69905,-204.0816327,4,1,0,40,0,0
70625,-204.0816327,4,1,0,41,0,0
71346,-204.0816327,4,1,0,42,0,0
72067,-204.0816327,4,1,0,43,0,0
72788,-196.0784314,4,1,0,44,0,0
73508,-196.0784314,4,1,0,45,0,0
74229,-188.6792453,4,1,0,46,0,0
75580,-181.8181818,4,1,0,50,0,0
81436,-196.0784314,4,1,0,50,0,0
84319,-188.6792453,4,1,0,50,0,0
85761,-181.8181818,4,1,0,50,0,0
87923,-188.6792453,4,1,0,50,0,0
88621,-188.6792453,4,1,0,55,0,0
88643,-175.4385965,4,1,0,55,0,1
94364,-175.4385965,4,1,0,50,0,1
94409,-175.4385965,4,1,0,50,0,0
94544,-175.4385965,4,1,0,55,0,0
94770,-175.4385965,4,1,0,55,0,1
98824,-175.4385965,4,1,0,54,0,1
99004,-175.4385965,4,1,0,53,0,1
99184,-175.4385965,4,1,0,52,0,1
99364,-175.4385965,4,1,0,50,0,1
99454,-175.4385965,4,1,0,50,0,0
100152,-175.4385965,4,1,0,55,0,0
100175,-175.4385965,4,1,0,55,0,1
107022,-175.4385965,4,1,0,55,0,0
107382,-175.4385965,4,1,0,55,0,1
108463,-175.4385965,4,1,0,55,0,0
108824,-175.4385965,4,1,0,55,0,1
110941,-175.4385965,4,1,0,50,0,1
110986,-175.4385965,4,1,0,50,0,0
111661,-175.4385965,4,1,0,55,0,0
111706,-175.4385965,4,1,0,55,0,1
117472,-175.4385965,4,1,0,55,0,0

[HitObjects]
256,192,716,5,4,0:0:0:0:
256,192,1076,1,2,0:0:0:0:
256,192,1436,1,0,0:0:0:0:
256,192,1797,1,2,0:0:0:0:
256,192,2157,1,0,0:0:0:0:
256,192,3058,1,6,0:0:0:0:
256,192,3238,1,6,0:0:0:0:
256,192,3598,1,4,0:0:0:0:
256,192,3959,1,2,0:0:0:0:
256,192,4319,1,0,0:0:0:0:
256,192,4679,1,2,0:0:0:0:
256,192,5040,1,0,0:0:0:0:
256,192,5941,1,6,0:0:0:0:
256,192,6121,1,6,0:0:0:0:
256,192,6301,1,6,0:0:0:0:
256,192,6481,1,0,0:0:0:0:
256,192,6842,1,0,0:0:0:0:
256,192,7202,1,0,0:0:0:0:
256,192,7562,1,0,0:0:0:0:
256,192,7923,1,0,0:0:0:0:
256,192,8283,1,0,0:0:0:0:
256,192,8643,1,2,0:0:0:0:
256,192,9004,1,2,0:0:0:0:
256,192,9364,1,2,0:0:0:0:
256,192,9544,1,2,0:0:0:0:
256,192,9725,1,0,0:0:0:0:
256,192,10085,1,2,0:0:0:0:
256,192,10445,1,0,0:0:0:0:
256,192,10625,1,2,0:0:0:0:
256,192,10806,1,2,0:0:0:0:
256,192,10986,1,0,0:0:0:0:
256,192,11166,1,2,0:0:0:0:
256,192,11887,1,6,0:0:0:0:
256,192,12247,1,4,0:0:0:0:
256,192,12427,1,4,0:0:0:0:
256,192,12607,1,2,0:0:0:0:
256,192,12968,1,2,0:0:0:0:
256,192,13328,1,2,0:0:0:0:
256,192,13688,1,4,0:0:0:0:
256,192,13869,1,4,0:0:0:0:
256,192,14049,1,2,0:0:0:0:
256,192,14409,1,4,0:0:0:0:
256,192,15130,1,6,0:0:0:0:
256,192,15490,1,0,0:0:0:0:
256,192,15851,1,0,0:0:0:0:
256,192,16211,1,0,0:0:0:0:
256,192,16571,1,0,0:0:0:0:
256,192,16932,1,0,0:0:0:0:
256,192,17292,1,6,0:0:0:0:
256,192,17472,1,4,0:0:0:0:
256,192,17652,1,6,0:0:0:0:
256,192,17833,1,4,0:0:0:0:
256,192,18013,1,6,0:0:0:0:
256,192,18373,1,0,0:0:0:0:
256,192,18734,1,0,0:0:0:0:
256,192,19094,1,0,0:0:0:0:
256,192,19274,1,0,0:0:0:0:
256,192,19634,1,6,0:0:0:0:
256,192,19905,1,6,0:0:0:0:
256,192,20175,1,4,0:0:0:0:
256,192,20896,1,6,0:0:0:0:
256,192,21256,1,0,0:0:0:0:
256,192,21616,1,0,0:0:0:0:
256,192,21797,1,0,0:0:0:0:
256,192,21977,1,2,0:0:0:0:
256,192,22337,1,0,0:0:0:0:
256,192,22697,1,0,0:0:0:0:
256,192,22878,1,2,0:0:0:0:
256,192,23058,1,4,0:0:0:0:
256,192,23418,1,4,0:0:0:0:
256,192,23779,1,6,0:0:0:0:
256,192,24139,1,0,0:0:0:0:
256,192,24319,1,0,0:0:0:0:
256,192,24499,1,0,0:0:0:0:
256,192,24860,1,6,0:0:0:0:
256,192,25220,1,4,0:0:0:0:
256,192,26661,1,6,0:0:0:0:
256,192,26842,1,6,0:0:0:0:
256,192,27022,1,4,0:0:0:0:
256,192,27382,1,4,0:0:0:0:
256,192,27562,1,4,0:0:0:0:
256,192,27743,1,6,0:0:0:0:
256,192,28103,1,4,0:0:0:0:
256,192,28283,1,4,0:0:0:0:
256,192,28463,1,6,0:0:0:0:
256,192,28824,1,6,0:0:0:0:
256,192,29544,1,6,0:0:0:0:
256,192,29725,1,6,0:0:0:0:
256,192,29905,1,4,0:0:0:0:
256,192,30265,1,6,0:0:0:0:
256,192,30445,1,6,0:0:0:0:
256,192,30626,1,6,0:0:0:0:
256,192,30986,1,4,0:0:0:0:
256,192,31436,1,4,0:0:0:0:
256,192,31707,1,6,0:0:0:0:
256,192,31977,1,6,0:0:0:0:
256,192,32968,1,6,0:0:0:0:
256,192,33148,1,4,0:0:0:0:
256,192,33328,1,4,0:0:0:0:
256,192,33508,1,6,0:0:0:0:
256,192,33869,1,4,0:0:0:0:
256,192,34049,1,6,0:0:0:0:
256,192,34229,1,4,0:0:0:0:
256,192,34589,1,4,0:0:0:0:
256,192,35490,1,4,0:0:0:0:
256,192,35670,1,6,0:0:0:0:
256,192,35851,1,6,0:0:0:0:
256,192,36211,1,6,0:0:0:0:
256,192,36391,1,6,0:0:0:0:
256,192,36752,1,4,0:0:0:0:
256,192,37022,1,4,0:0:0:0:
256,192,37292,1,4,0:0:0:0:
256,192,37652,1,6,0:0:0:0:
256,192,38193,1,4,0:0:0:0:
256,192,38914,1,2,0:0:0:0:
256,192,39274,1,2,0:0:0:0:
256,192,39634,1,0,0:0:0:0:
256,192,39815,1,0,0:0:0:0:
256,192,39995,1,2,0:0:0:0:
256,192,40175,1,2,0:0:0:0:
256,192,40355,1,0,0:0:0:0:
256,192,40716,1,6,0:0:0:0:
256,192,41076,1,4,0:0:0:0:
256,192,41797,1,6,0:0:0:0:
256,192,42517,1,0,0:0:0:0:
256,192,43058,1,0,0:0:0:0:
256,192,43238,1,6,0:0:0:0:
256,192,43959,2,0,L|416:192,1,134.640000821777
256,192,44679,1,2,0:0:0:0:
256,192,45400,1,0,0:0:0:0:
256,192,46121,1,6,0:0:0:0:
256,192,46301,1,6,0:0:0:0:
256,192,46481,1,6,0:0:0:0:
256,192,46842,1,4,0:0:0:0:
256,192,47112,1,4,0:0:0:0:
256,192,47382,1,4,0:0:0:0:
256,192,48283,1,4,0:0:0:0:
256,192,48643,1,0,0:0:0:0:
256,192,49004,1,6,0:0:0:0:
256,192,49184,1,6,0:0:0:0:
256,192,49725,1,4,0:0:0:0:
256,192,50085,1,2,0:0:0:0:
256,192,50265,1,0,0:0:0:0:
256,192,50445,1,2,0:0:0:0:
256,192,50806,1,0,0:0:0:0:
256,192,51166,1,0,0:0:0:0:
256,192,51526,1,2,0:0:0:0:
256,192,51706,1,0,0:0:0:0:
256,192,51887,1,2,0:0:0:0:
256,192,52067,1,2,0:0:0:0:
256,192,52247,1,0,0:0:0:0:
256,192,52607,1,4,0:0:0:0:
256,192,52968,1,4,0:0:0:0:
256,192,53328,1,2,0:0:0:0:
256,192,54049,1,0,0:0:0:0:
256,192,54319,1,0,0:0:0:0:
256,192,54770,1,2,0:0:0:0:
256,192,55490,1,0,0:0:0:0:
256,192,56211,1,2,0:0:0:0:
256,192,56571,1,0,0:0:0:0:
256,192,56932,1,0,0:0:0:0:
256,192,57112,1,2,0:0:0:0:
256,192,57292,1,0,0:0:0:0:
256,192,57472,1,0,0:0:0:0:
256,192,57652,1,2,0:0:0:0:
256,192,58013,1,0,0:0:0:0:
256,192,58373,1,4,0:0:0:0:
256,192,58734,1,4,0:0:0:0:
256,192,59094,1,2,0:0:0:0:
256,192,59454,1,4,0:0:0:0:
256,192,60175,1,4,0:0:0:0:
256,192,60535,1,2,0:0:0:0:
256,192,60896,1,4,0:0:0:0:
256,192,61256,1,0,0:0:0:0:
256,192,61616,1,4,0:0:0:0:
256,192,61977,1,2,0:0:0:0:
256,192,62337,1,4,0:0:0:0:
256,192,62517,1,6,0:0:0:0:
256,192,62878,1,6,0:0:0:0:
256,192,63058,1,6,0:0:0:0:
256,192,63418,1,4,0:0:0:0:
256,192,63779,1,6,0:0:0:0:
256,192,64139,1,4,0:0:0:0:
256,192,65220,1,2,0:0:0:0:
256,192,65580,1,0,0:0:0:0:
256,192,67022,1,2,0:0:0:0:
256,192,67743,1,2,0:0:0:0:
256,192,68103,1,2,0:0:0:0:
256,192,68463,1,0,0:0:0:0:
256,192,69905,1,0,0:0:0:0:
256,192,70266,1,0,0:0:0:0:
256,192,70626,1,0,0:0:0:0:
256,192,70986,1,2,0:0:0:0:
256,192,71347,1,2,0:0:0:0:
256,192,71707,1,0,0:0:0:0:
256,192,72067,1,2,0:0:0:0:
256,192,72428,1,0,0:0:0:0:
256,192,72788,1,2,0:0:0:0:
256,192,72968,1,0,0:0:0:0:
256,192,73149,1,2,0:0:0:0:
256,192,73509,1,2,0:0:0:0:
256,192,73689,1,2,0:0:0:0:
256,192,73869,1,0,0:0:0:0:
256,192,74049,1,0,0:0:0:0:
256,192,74230,1,2,0:0:0:0:
256,192,74950,1,0,0:0:0:0:
256,192,75130,1,0,0:0:0:0:
256,192,75311,1,6,0:0:0:0:
256,192,75670,1,4,0:0:0:0:
256,192,75851,1,4,0:0:0:0:
256,192,76031,1,2,0:0:0:0:
256,192,76391,1,4,0:0:0:0:
256,192,76571,1,4,0:0:0:0:
256,192,76752,1,2,0:0:0:0:
256,192,77112,1,4,0:0:0:0:
256,192,77292,1,4,0:0:0:0:
256,192,77473,1,2,0:0:0:0:
256,192,77833,1,4,0:0:0:0:
256,192,78013,1,4,0:0:0:0:
256,192,78193,1,4,0:0:0:0:
256,192,78553,1,4,0:0:0:0:
256,192,78734,1,4,0:0:0:0:
256,192,78914,1,2,0:0:0:0:
256,192,79274,1,4,0:0:0:0:
256,192,79454,1,4,0:0:0:0:
256,192,79635,1,2,0:0:0:0:
256,192,79995,1,4,0:0:0:0:
256,192,80175,1,4,0:0:0:0:
256,192,80356,1,2,0:0:0:0:
256,192,80716,1,4,0:0:0:0:
256,192,80896,1,4,0:0:0:0:
256,192,81076,1,4,0:0:0:0:
256,192,81436,1,0,0:0:0:0:
256,192,82157,1,0,0:0:0:0:
256,192,82517,1,0,0:0:0:0:
256,192,82878,1,0,0:0:0:0:
256,192,83238,1,0,0:0:0:0:
256,192,83598,1,2,0:0:0:0:
256,192,83959,1,0,0:0:0:0:
256,192,84319,1,2,0:0:0:0:
256,192,84499,1,2,0:0:0:0:
256,192,84680,1,0,0:0:0:0:
256,192,85040,1,2,0:0:0:0:
256,192,85220,1,2,0:0:0:0:
256,192,85400,1,0,0:0:0:0:
256,192,85580,1,2,0:0:0:0:
256,192,85761,1,4,0:0:0:0:
256,192,87923,1,4,0:0:0:0:
256,192,88283,1,0,0:0:0:0:
256,192,88643,1,4,0:0:0:0:
256,192,88824,1,6,0:0:0:0:
256,192,89004,1,2,0:0:0:0:
256,192,89364,1,4,0:0:0:0:
256,192,89544,1,6,0:0:0:0:
256,192,89725,1,4,0:0:0:0:
256,192,90085,1,4,0:0:0:0:
256,192,90265,1,6,0:0:0:0:
256,192,90445,1,2,0:0:0:0:
256,192,90625,1,2,0:0:0:0:
256,192,90806,1,4,0:0:0:0:
256,192,91526,1,4,0:0:0:0:
256,192,91706,1,6,0:0:0:0:
256,192,91887,1,2,0:0:0:0:
256,192,92247,1,4,0:0:0:0:
256,192,92427,1,6,0:0:0:0:
256,192,92607,1,4,0:0:0:0:
256,192,92968,1,6,0:0:0:0:
256,192,93148,1,4,0:0:0:0:
256,192,93328,1,6,0:0:0:0:
256,192,93508,1,6,0:0:0:0:
256,192,93869,1,6,0:0:0:0:
256,192,94229,1,6,0:0:0:0:
256,192,94589,1,6,0:0:0:0:
256,192,94770,1,4,0:0:0:0:
256,192,94950,1,2,0:0:0:0:
256,192,95130,1,6,0:0:0:0:
256,192,95490,1,4,0:0:0:0:
256,192,95670,1,6,0:0:0:0:
256,192,95851,1,4,0:0:0:0:
256,192,96211,1,6,0:0:0:0:
256,192,96391,1,2,0:0:0:0:
256,192,96571,1,0,0:0:0:0:
256,192,96752,1,0,0:0:0:0:
256,192,96932,1,0,0:0:0:0:
256,192,97292,1,2,0:0:0:0:
256,192,97652,1,6,0:0:0:0:
256,192,97833,1,2,0:0:0:0:
256,192,98013,1,0,0:0:0:0:
256,192,98193,1,2,0:0:0:0:
256,192,98373,1,4,0:0:0:0:
256,192,98734,1,0,0:0:0:0:
256,192,98914,1,0,0:0:0:0:
256,192,99094,1,0,0:0:0:0:
256,192,99274,1,0,0:0:0:0:
256,192,99454,1,2,0:0:0:0:
256,192,100175,1,6,0:0:0:0:
256,192,100535,1,0,0:0:0:0:
256,192,100715,1,0,0:0:0:0:
256,192,100896,1,6,0:0:0:0:
256,192,101256,1,0,0:0:0:0:
256,192,101436,1,0,0:0:0:0:
256,192,101616,1,6,0:0:0:0:
256,192,101977,1,0,0:0:0:0:
256,192,102157,1,0,0:0:0:0:
256,192,102337,1,6,0:0:0:0:
256,192,103058,1,6,0:0:0:0:
256,192,103418,1,2,0:0:0:0:
256,192,103598,1,0,0:0:0:0:
256,192,103779,1,6,0:0:0:0:
256,192,104139,1,0,0:0:0:0:
256,192,104319,1,0,0:0:0:0:
256,192,104499,1,6,0:0:0:0:
256,192,104860,1,0,0:0:0:0:
256,192,105040,1,0,0:0:0:0:
256,192,105220,1,6,0:0:0:0:
256,192,105580,1,6,0:0:0:0:
256,192,105941,1,6,0:0:0:0:
256,192,106301,1,0,0:0:0:0:
256,192,106481,1,0,0:0:0:0:
256,192,106661,1,6,0:0:0:0:
256,192,107382,1,6,0:0:0:0:
256,192,107743,1,4,0:0:0:0:
256,192,107923,1,4,0:0:0:0:
256,192,108103,1,6,0:0:0:0:
256,192,108283,1,4,0:0:0:0:
256,192,108824,1,6,0:0:0:0:
256,192,109184,1,2,0:0:0:0:
256,192,109364,1,0,0:0:0:0:
256,192,109544,1,6,0:0:0:0:
256,192,109905,1,2,0:0:0:0:
256,192,110085,1,0,0:0:0:0:
256,192,110265,1,2,0:0:0:0:
256,192,110445,1,0,0:0:0:0:
256,192,110625,1,2,0:0:0:0:
256,192,110986,1,2,0:0:0:0:
256,192,111706,1,0,0:0:0:0:
256,192,112067,1,0,0:0:0:0:
256,192,112247,1,0,0:0:0:0:
256,192,112427,1,0,0:0:0:0:
256,192,112607,1,0,0:0:0:0:
256,192,112788,1,0,0:0:0:0:
256,192,113148,1,0,0:0:0:0:
256,192,113328,1,0,0:0:0:0:
256,192,113508,1,0,0:0:0:0:
256,192,113869,1,4,0:0:0:0:
256,192,114049,1,6,0:0:0:0:
256,192,114229,1,6,0:0:0:0:
256,192,114409,1,4,0:0:0:0:
256,192,114589,1,0,0:0:0:0:
256,192,114950,1,0,0:0:0:0:
256,192,115130,1,0,0:0:0:0:
256,192,115310,1,0,0:0:0:0:
256,192,115490,1,0,0:0:0:0:
256,192,115670,1,0,0:0:0:0:
256,192,116031,1,4,0:0:0:0:
256,192,116211,1,4,0:0:0:0:
256,192,116391,1,2,0:0:0:0:
256,192,116752,1,2,0:0:0:0:
256,192,117112,1,2,0:0:0:0:
256,192,117472,1,4,0:0:0:0:
256,192,117652,2,4,L|352:192,2,75.239999081543
