osu file format v14

[General]
AudioFilename: audio.mp3
AudioLeadIn: 0
PreviewTime: 75220
Countdown: 0
SampleSet: Normal
StackLeniency: 0.7
Mode: 1
LetterboxInBreaks: 0
WidescreenStoryboard: 0

[Editor]
DistanceSpacing: 1.1
BeatDivisor: 8
GridSize: 32
TimelineZoom: 3.899998

[Metadata]
Title:666
TitleUnicode:666
Artist:RoughSketch
ArtistUnicode:RoughSketch
Creator:Cynplytholowazy
Version:MAXIMUM
Source:SOUND VOLTEX VIVID WAVE
Tags:SDVX The 9th KAC KONAMI Arcade Championship Original Gakkyoku Song Contest オリジナル楽曲コンテスト BEMANI Electronic Instrumental HEXA DIVER Kureha [_Chichinya_] Peter Faputa
BeatmapID:2315754
BeatmapSetID:1107042

[Difficulty]
HPDrainRate:6.6
CircleSize:6.66
OverallDifficulty:6.6
ApproachRate:6.6
SliderMultiplier:2.64
SliderTickRate:1

[Events]
//Background and Video events
0,0,"opera_9s4LGClyl6.jpg",0,86
//Break Periods
//Storyboard Layer 0 (Background)
//Storyboard Layer 1 (Fail)
//Storyboard Layer 2 (Pass)
//Storyboard Layer 3 (Foreground)
//Storyboard Layer 4 (Overlay)
//Storyboard Sound Samples

[TimingPoints]
716,360.36036036036,4,1,0,40,1,0
716,-134.6938776,4,1,0,40,0,0
806,-157.1428571,4,1,0,40,0,0
3058,-134.6938776,4,1,0,40,0,0
3688,-157.1428571,4,1,0,40,0,0
5941,-134.6938776,4,1,0,40,0,0
6481,-188.5714286,4,1,0,40,0,0
6661,-185.9180882,4,1,0,40,0,0
6842,-183.3242489,4,1,0,40,0,0
7022,-180.8155353,4,1,0,40,0,0
7202,-178.374556,4,1,0,41,0,0
7382,-175.9986046,4,1,0,41,0,0
7562,-173.6851165,4,1,0,41,0,0
7652,-172.5510315,4,1,0,41,0,0
7743,-171.4193047,4,1,0,41,0,0
7833,-170.314522,4,1,0,41,0,0
7923,-169.2238886,4,1,0,42,0,0
8103,-167.0839961,4,1,0,42,0,0
8283,-164.9975471,4,1,0,42,0,0
8463,-162.9625642,4,1,0,42,0,0
8643,-160.9771663,4,1,0,43,0,0
8824,-159.0289287,4,1,0,43,0,0
9004,-157.1376659,4,1,0,43,0,0
9094,-156.2088038,4,1,0,43,0,0
9184,-155.2908585,4,1,0,43,0,0
9274,-154.3836385,4,1,0,43,0,0
9364,-153.486957,4,1,0,44,0,0
9454,-152.6006315,4,1,0,44,0,0
9544,-151.7244836,4,1,0,44,0,0
9634,-150.858339,4,1,0,44,0,0
9725,-149.9925673,4,1,0,44,0,0
9815,-149.1460285,4,1,0,44,0,0
9905,-148.3089915,4,1,0,44,0,0
9995,-147.4812974,4,1,0,44,0,0
10085,-146.6627905,4,1,0,45,0,0
10175,-145.8533188,4,1,0,45,0,0
10265,-145.0527334,4,1,0,45,0,0
10355,-144.2608888,4,1,0,45,0,0
10445,-143.4776426,4,1,0,45,0,0
10535,-142.7028556,4,1,0,45,0,0
10625,-141.9363914,4,1,0,45,0,0
10716,-141.1697369,4,1,0,45,0,0
10806,-140.4196099,4,1,0,46,0,0
10896,-139.6774126,4,1,0,46,0,0
10986,-138.9430199,4,1,0,46,0,0
11076,-138.2163093,4,1,0,46,0,0
11166,-137.497161,4,1,0,46,0,0
11256,-136.7854575,4,1,0,46,0,0
11346,-136.0810838,4,1,0,46,0,0
11436,-135.3839273,4,1,0,46,0,0
11526,-134.6938775,4,1,0,46,0,0
11586,-138.6554622,4,1,0,46,0,0
11646,-142.8571429,4,1,0,46,0,0
11706,-147.3214286,4,1,0,46,0,0
11767,-152.0737327,4,1,0,46,0,0
11827,-157.1428571,4,1,0,46,0,0
11887,-125.7142857,4,1,0,46,0,0
12157,-117.8571429,4,1,0,50,0,0
12607,-134.6938776,4,1,0,50,0,0
13688,-117.8571429,4,1,0,50,0,0
14049,-134.6938776,4,1,0,50,0,0
14409,-117.8571429,4,1,0,50,0,0
14770,-157.1428571,4,1,0,48,0,0
15130,-99.2481203,4,1,0,50,0,0
15310,-104.7619048,4,1,0,50,0,0
17292,-99.2481203,4,1,0,50,0,0
18193,-104.7619048,4,1,0,50,0,0
19454,-99.2481203,4,1,0,50,0,0
20716,-104.7619048,4,1,0,50,0,0
20896,-99.2481203,4,1,0,50,0,0
21076,-104.7619048,4,1,0,50,0,0
21977,-99.2481203,4,1,0,50,0,0
22067,-101.0205525,4,1,0,50,0,0
22157,-102.8571429,4,1,0,50,0,0
22247,-104.7619048,4,1,0,50,0,0
22878,-99.2481203,4,1,0,50,0,0
23058,-90.65934066,4,1,0,50,0,0
23178,-94.28571429,4,1,0,50,0,0
23298,-98.21428571,4,1,0,50,0,0
23418,-102.484472,4,1,0,50,0,0
23538,-107.1428571,4,1,0,50,0,0
23658,-112.244898,4,1,0,50,0,0
23779,-99.2481203,4,1,0,50,0,0
23959,-104.7619048,4,1,0,50,0,0
24679,-99.2481203,4,1,0,50,0,0
24860,-90.65934066,4,1,0,50,0,0
25580,-104.7619048,4,1,0,50,0,0
26301,-112.244898,4,1,0,50,0,0
26391,-113.5972461,4,1,0,50,0,0
26481,-114.9825784,4,1,0,50,0,0
26526,-115.687993,4,1,0,50,0,0
26571,-116.4021164,4,1,0,50,0,0
26616,-117.1251109,4,1,0,50,0,0
26639,-117.8571429,4,1,0,48,0,0
32067,-120.8791209,4,1,0,48,0,0
32157,-124.0601504,4,1,0,48,0,0
32247,-127.4131274,4,1,0,48,0,0
32337,-130.952381,4,1,0,48,0,0
32427,-134.6938776,4,1,0,48,0,0
32788,-125.7142857,4,1,0,48,0,0
32968,-117.8571429,4,1,0,48,0,0
35040,-120.8791209,4,1,0,48,0,0
35220,-124.0601504,4,1,0,48,0,0
35310,-125.7142857,4,1,0,48,0,0
35490,-117.8571429,4,1,0,48,0,0
36031,-125.7142857,4,1,0,48,0,0
36211,-117.8571429,4,1,0,48,0,0
36932,-114.9825784,4,1,0,48,0,0
37022,-117.8571429,4,1,0,48,0,0
37202,-114.9825784,4,1,0,48,0,0
37292,-117.8571429,4,1,0,48,0,0
37652,-110.9243697,4,1,0,48,0,0
38103,-94.28571429,4,1,0,50,0,0
38238,-47.14285714,4,1,0,50,0,0
38891,-157.1428571,4,1,0,45,0,0
39004,-155.4172767,4,1,0,45,0,0
39094,-153.7291817,4,1,0,45,0,0
39184,-152.0773639,4,1,0,45,0,0
39274,-150.4606662,4,1,0,45,0,0
39364,-148.8779804,4,1,0,45,0,0
39454,-147.3282443,4,1,0,45,0,0
39544,-145.8104396,4,1,0,45,0,0
39634,-144.3235894,4,1,0,45,0,0
39725,-142.8507346,4,1,0,45,0,0
39815,-141.4233374,4,1,0,45,0,0
39905,-140.0241838,4,1,0,45,0,0
39995,-138.6524436,4,1,0,45,0,0
40085,-137.3073192,4,1,0,45,0,0
40175,-135.9880431,4,1,0,45,0,0
40265,-134.6938775,4,1,0,45,0,0
40355,-157.1428571,4,1,0,45,0,0
40986,-134.6938776,4,1,0,50,0,0
41076,-117.8571429,4,1,0,50,0,0
41436,-134.6938776,4,1,0,50,0,0
41797,-117.8571429,4,1,0,50,0,0
41887,-134.6938776,4,1,0,50,0,0
43238,-117.8571429,4,1,0,50,0,0
43328,-134.6938776,4,1,0,50,0,0
43959,-157.1428571,4,1,0,50,0,0
44860,-134.6938776,4,1,0,50,0,0
46121,-117.8571429,4,1,0,50,0,0
47562,-134.6938776,4,1,0,50,0,0
47637,-141.4285716,4,1,0,50,0,0
47712,-148.8721805,4,1,0,50,0,0
47788,-157.1428571,4,1,0,50,0,0
47923,-134.6938776,4,1,0,50,0,0
49004,-117.8571429,4,1,0,50,0,0
49094,-134.6938776,4,1,0,50,0,0
49184,-117.8571429,4,1,0,50,0,0
49364,-134.6938776,4,1,0,50,0,0
49725,-117.8571429,4,1,0,50,0,0
49905,-134.6938776,4,1,0,50,0,0
52607,-117.8571429,4,1,0,50,0,0
53238,-157.1428571,4,1,0,46,0,0
58373,-134.6938776,4,1,0,46,0,0
59094,-157.1428571,4,1,0,46,0,0
59454,-134.6938776,4,1,0,46,0,0
59815,-157.1428571,4,1,0,46,0,0
60175,-134.6938776,4,1,0,46,0,0
60355,-157.1428571,4,1,0,46,0,0
60535,-152.0737327,4,1,0,46,0,0
60716,-147.3214286,4,1,0,46,0,0
60896,-134.6938776,4,1,0,46,0,0
61526,-157.1428571,4,1,0,46,0,0
61616,-134.6938776,4,1,0,46,0,0
61661,-157.1428571,4,1,0,46,0,0
62337,-140.7249467,4,1,0,46,0,0
62427,-157.1428571,4,1,0,46,0,0
62517,-134.6938776,4,1,0,46,0,0
62697,-157.1428571,4,1,0,46,0,0
62878,-134.6938776,4,1,0,46,0,0
63148,-157.1428571,4,1,0,46,0,0
63418,-134.6938776,4,1,0,46,0,0
63688,-117.8571429,4,1,0,48,0,0
64049,-99.2481203,4,1,0,50,0,0
64499,-188.5714286,4,1,0,40,0,0
69905,-188.5714286,4,1,0,40,0,0
70085,-186.3987878,4,1,0,40,0,0
70265,-184.2756412,4,1,0,40,0,0
70445,-182.2003167,4,1,0,40,0,0
70625,-180.1712164,4,1,0,41,0,0
70806,-178.1759108,4,1,0,41,0,0
70986,-176.23498,4,1,0,41,0,0
71166,-174.3358799,4,1,0,41,0,0
71346,-172.4772727,4,1,0,42,0,0
71526,-170.657877,4,1,0,42,0,0
71706,-168.8764647,4,1,0,42,0,0
71887,-167.1222673,4,1,0,42,0,0
72067,-165.4135338,4,1,0,43,0,0
72247,-163.7393885,4,1,0,43,0,0
72427,-162.0987915,4,1,0,43,0,0
72607,-160.4907446,4,1,0,43,0,0
72788,-158.9056168,4,1,0,44,0,0
72878,-158.1290303,4,1,0,44,0,0
72968,-157.3599975,4,1,0,44,0,0
73058,-156.5984085,4,1,0,44,0,0
73148,-155.8441558,4,1,0,44,0,0
73238,-155.0971341,4,1,0,44,0,0
73328,-154.3572397,4,1,0,44,0,0
73418,-153.6243711,4,1,0,44,0,0
73508,-152.8984288,4,1,0,45,0,0
73598,-152.1793151,4,1,0,45,0,0
73688,-151.4669339,4,1,0,45,0,0
73779,-150.7533866,4,1,0,45,0,0
73869,-150.0542623,4,1,0,45,0,0
73959,-149.3615926,4,1,0,45,0,0
74049,-148.6752883,4,1,0,45,0,0
74139,-147.9952622,4,1,0,45,0,0
74229,-147.3214286,4,1,0,46,0,0
74950,-134.6938776,4,1,0,46,0,0
75010,-138.6554622,4,1,0,46,0,0
75070,-142.8571429,4,1,0,46,0,0
75130,-147.3214286,4,1,0,46,0,0
75190,-152.0737327,4,1,0,46,0,0
75250,-157.1428571,4,1,0,46,0,0
75310,-125.7142857,4,1,0,46,0,0
75580,-117.8571429,4,1,0,50,0,0
76031,-134.6938776,4,1,0,50,0,0
76391,-117.8571429,4,1,0,50,0,0
76752,-134.6938776,4,1,0,50,0,0
77112,-117.8571429,4,1,0,50,0,0
77472,-134.6938776,4,1,0,50,0,0
77833,-117.8571429,4,1,0,50,0,0
78914,-134.6938776,4,1,0,50,0,0
79274,-117.8571429,4,1,0,50,0,0
79634,-134.6938776,4,1,0,50,0,0
79995,-117.8571429,4,1,0,50,0,0
80355,-134.6938776,4,1,0,50,0,0
80716,-117.8571429,4,1,0,50,0,0
81436,-188.5714286,4,1,0,50,0,0
81616,-185.483609,4,1,0,50,0,0
81797,-182.4789521,4,1,0,50,0,0
81977,-179.5859049,4,1,0,50,0,0
82157,-176.7831596,4,1,0,50,0,0
82337,-174.0665532,4,1,0,50,0,0
82517,-171.4321748,4,1,0,50,0,0
82697,-168.8763467,4,1,0,50,0,0
82878,-166.3820288,4,1,0,50,0,0
83058,-163.9735069,4,1,0,50,0,0
83238,-161.6337208,4,1,0,50,0,0
83328,-160.4886907,4,1,0,50,0,0
83418,-159.3597695,4,1,0,50,0,0
83508,-158.2466197,4,1,0,50,0,0
83598,-157.148913,4,1,0,50,0,0
83779,-154.986779,4,1,0,50,0,0
83959,-152.8947974,4,1,0,50,0,0
84049,-151.8698426,4,1,0,50,0,0
84139,-150.8585381,4,1,0,50,0,0
84319,-148.8758039,4,1,0,50,0,0
84409,-147.9038534,4,1,0,50,0,0
84499,-146.9445117,4,1,0,50,0,0
84589,-145.9975348,4,1,0,50,0,0
84679,-145.0626852,4,1,0,50,0,0
84770,-144.1295424,4,1,0,50,0,0
84860,-143.2183873,4,1,0,50,0,0
84950,-142.3186801,4,1,0,50,0,0
85040,-141.4302064,4,1,0,50,0,0
85130,-140.5527571,4,1,0,50,0,0
85220,-139.6861283,4,1,0,50,0,0
85310,-138.830121,4,1,0,50,0,0
85400,-137.9845411,4,1,0,50,0,0
85490,-137.1491993,4,1,0,50,0,0
85580,-136.3239108,4,1,0,50,0,0
85670,-135.5084951,4,1,0,50,0,0
85761,-104.7619048,4,1,0,50,0,0
87112,-157.1428571,4,1,0,50,0,0
87878,-134.6938776,4,1,0,50,0,0
88148,-157.1428571,4,1,0,50,0,0
88283,-134.6938776,4,1,0,50,0,0
88463,-117.8571429,4,1,0,50,0,0
88621,-117.8571429,4,1,0,55,0,0
88643,-105.2631579,4,1,0,55,0,1
93688,-111.1111111,4,1,0,55,0,1
93869,-105.2631579,4,1,0,55,0,1
94049,-111.1111111,4,1,0,55,0,1
94229,-105.2631579,4,1,0,55,0,1
94364,-105.2631579,4,1,0,50,0,1
94409,-117.6470588,4,1,0,50,0,0
94544,-105.2631579,4,1,0,55,0,0
94770,-105.2631579,4,1,0,55,0,1
98013,-111.1111111,4,1,0,55,0,1
98193,-105.2631579,4,1,0,55,0,1
98373,-111.1111111,4,1,0,55,0,1
98553,-105.2631579,4,1,0,55,0,1
98821,-108.6956522,4,1,0,54,0,1
99004,-112.3595506,4,1,0,53,0,1
99184,-116.2790698,4,1,0,52,0,1
99364,-116.2790698,4,1,0,50,0,1
99454,-50,4,1,0,50,0,0
100152,-50,4,1,0,55,0,0
100175,-105.2631579,4,1,0,55,0,1
107022,-105.2631579,4,1,0,55,0,0
107382,-105.2631579,4,1,0,55,0,1
108463,-105.2631579,4,1,0,55,0,0
108824,-105.2631579,4,1,0,55,0,1
110941,-105.2631579,4,1,0,50,0,1
110986,-50,4,1,0,50,0,0
111031,-50,4,1,0,50,0,0
111661,-50,4,1,0,55,0,0
111706,-105.2631579,4,1,0,55,0,1
116391,-119.047619,4,1,0,55,0,1
117472,-105.2631579,4,1,0,55,0,0
117652,-135.1351351,4,1,0,55,0,0

[HitObjects]
256,192,716,5,4,0:0:0:0:
256,192,896,1,2,0:0:0:0:
256,192,986,1,2,0:0:0:0:
256,192,1076,1,0,0:0:0:0:
256,192,1166,1,0,0:0:0:0:
256,192,1256,1,2,0:0:0:0:
256,192,1346,1,2,0:0:0:0:
256,192,1436,1,0,0:0:0:0:
256,192,1526,1,0,0:0:0:0:
256,192,1616,1,2,0:0:0:0:
256,192,1706,1,2,0:0:0:0:
256,192,1797,1,0,0:0:0:0:
256,192,1887,1,0,0:0:0:0:
256,192,1977,1,2,0:0:0:0:
256,192,2067,1,2,0:0:0:0:
256,192,2157,1,0,0:0:0:0:
256,192,2247,1,0,0:0:0:0:
256,192,2337,1,2,0:0:0:0:
256,192,2427,1,2,0:0:0:0:
256,192,2517,1,0,0:0:0:0:
256,192,2607,1,0,0:0:0:0:
256,192,2697,1,2,0:0:0:0:
256,192,2788,1,2,0:0:0:0:
256,192,2878,1,0,0:0:0:0:
256,192,3058,1,6,0:0:0:0:
256,192,3238,1,6,0:0:0:0:
256,192,3598,1,4,0:0:0:0:
256,192,3779,1,2,0:0:0:0:
256,192,3869,1,2,0:0:0:0:
256,192,3959,1,0,0:0:0:0:
256,192,4049,1,0,0:0:0:0:
256,192,4139,1,2,0:0:0:0:
256,192,4229,1,2,0:0:0:0:
256,192,4319,1,0,0:0:0:0:
256,192,4409,1,0,0:0:0:0:
256,192,4499,1,2,0:0:0:0:
256,192,4589,1,2,0:0:0:0:
256,192,4679,1,0,0:0:0:0:
256,192,4770,1,0,0:0:0:0:
256,192,4860,1,2,0:0:0:0:
256,192,4950,1,2,0:0:0:0:
256,192,5040,1,0,0:0:0:0:
256,192,5130,1,0,0:0:0:0:
256,192,5220,1,2,0:0:0:0:
256,192,5310,1,2,0:0:0:0:
256,192,5400,1,0,0:0:0:0:
256,192,5490,1,0,0:0:0:0:
256,192,5580,1,2,0:0:0:0:
256,192,5670,1,2,0:0:0:0:
256,192,5761,1,0,0:0:0:0:
256,192,5941,1,6,0:0:0:0:
256,192,6121,1,6,0:0:0:0:
256,192,6301,1,6,0:0:0:0:
256,192,6481,1,0,0:0:0:0:
256,192,6661,1,0,0:0:0:0:
256,192,6842,1,0,0:0:0:0:
256,192,7022,1,2,0:0:0:0:
256,192,7202,1,0,0:0:0:0:
256,192,7382,1,0,0:0:0:0:
256,192,7562,1,2,0:0:0:0:
256,192,7743,1,2,0:0:0:0:
256,192,7923,1,0,0:0:0:0:
256,192,8103,1,0,0:0:0:0:
256,192,8283,1,0,0:0:0:0:
256,192,8463,1,0,0:0:0:0:
256,192,8643,1,2,0:0:0:0:
256,192,8824,1,0,0:0:0:0:
256,192,9004,1,2,0:0:0:0:
256,192,9184,1,2,0:0:0:0:
256,192,9364,1,0,0:0:0:0:
256,192,9454,1,0,0:0:0:0:
256,192,9544,1,2,0:0:0:0:
256,192,9634,1,2,0:0:0:0:
256,192,9725,1,0,0:0:0:0:
256,192,9815,1,0,0:0:0:0:
256,192,9905,1,2,0:0:0:0:
256,192,9995,1,2,0:0:0:0:
256,192,10085,1,0,0:0:0:0:
256,192,10175,1,0,0:0:0:0:
256,192,10265,1,2,0:0:0:0:
256,192,10355,1,2,0:0:0:0:
256,192,10445,1,0,0:0:0:0:
256,192,10535,1,0,0:0:0:0:
256,192,10625,1,2,0:0:0:0:
256,192,10716,1,2,0:0:0:0:
256,192,10806,1,0,0:0:0:0:
256,192,10896,1,2,0:0:0:0:
256,192,10986,1,2,0:0:0:0:
256,192,11076,1,2,0:0:0:0:
256,192,11166,1,0,0:0:0:0:
256,192,11256,1,2,0:0:0:0:
256,192,11346,1,2,0:0:0:0:
256,192,11436,1,2,0:0:0:0:
256,192,11526,1,0,0:0:0:0:
256,192,11586,1,0,0:0:0:0:
256,192,11646,1,0,0:0:0:0:
256,192,11706,1,0,0:0:0:0:
256,192,11767,1,0,0:0:0:0:
256,192,11827,1,0,0:0:0:0:
256,192,11887,1,6,0:0:0:0:
256,192,12247,1,6,0:0:0:0:
256,192,12427,1,6,0:0:0:0:
256,192,12607,1,0,0:0:0:0:
256,192,12667,1,2,0:0:0:0:
256,192,12728,1,2,0:0:0:0:
256,192,12788,1,2,0:0:0:0:
256,192,12878,1,0,0:0:0:0:
256,192,12968,1,0,0:0:0:0:
256,192,13028,1,2,0:0:0:0:
256,192,13088,1,2,0:0:0:0:
256,192,13148,1,2,0:0:0:0:
256,192,13238,1,0,0:0:0:0:
256,192,13328,1,0,0:0:0:0:
256,192,13388,1,2,0:0:0:0:
256,192,13448,1,2,0:0:0:0:
256,192,13508,1,2,0:0:0:0:
256,192,13598,1,0,0:0:0:0:
256,192,13688,1,6,0:0:0:0:
256,192,13869,1,6,0:0:0:0:
256,192,14049,1,0,0:0:0:0:
256,192,14109,1,2,0:0:0:0:
256,192,14169,1,2,0:0:0:0:
256,192,14229,1,2,0:0:0:0:
256,192,14319,1,0,0:0:0:0:
256,192,14409,1,6,0:0:0:0:
256,192,14770,1,0,0:0:0:0:
256,192,14860,1,0,0:0:0:0:
256,192,14950,1,0,0:0:0:0:
256,192,15130,1,6,0:0:0:0:
256,192,15310,1,0,0:0:0:0:
256,192,15400,1,0,0:0:0:0:
256,192,15490,1,0,0:0:0:0:
256,192,15580,1,0,0:0:0:0:
256,192,15670,1,0,0:0:0:0:
256,192,15761,1,0,0:0:0:0:
256,192,15851,1,0,0:0:0:0:
256,192,15941,1,0,0:0:0:0:
256,192,16031,1,0,0:0:0:0:
256,192,16121,1,0,0:0:0:0:
256,192,16211,1,0,0:0:0:0:
256,192,16301,1,0,0:0:0:0:
256,192,16391,1,0,0:0:0:0:
256,192,16481,1,0,0:0:0:0:
256,192,16571,1,0,0:0:0:0:
256,192,16661,1,0,0:0:0:0:
256,192,16752,1,0,0:0:0:0:
256,192,16842,1,0,0:0:0:0:
256,192,16932,1,0,0:0:0:0:
256,192,17022,1,0,0:0:0:0:
256,192,17112,1,0,0:0:0:0:
256,192,17202,1,0,0:0:0:0:
256,192,17292,1,6,0:0:0:0:
256,192,17472,1,4,0:0:0:0:
256,192,17652,1,6,0:0:0:0:
256,192,17833,1,4,0:0:0:0:
256,192,18013,1,6,0:0:0:0:
256,192,18193,1,0,0:0:0:0:
256,192,18283,1,0,0:0:0:0:
256,192,18373,1,0,0:0:0:0:
256,192,18463,1,0,0:0:0:0:
256,192,18553,1,0,0:0:0:0:
256,192,18643,1,0,0:0:0:0:
256,192,18734,1,0,0:0:0:0:
256,192,18824,1,0,0:0:0:0:
256,192,18914,1,0,0:0:0:0:
256,192,19004,1,0,0:0:0:0:
256,192,19094,1,2,0:0:0:0:
256,192,19139,1,2,0:0:0:0:
256,192,19184,1,0,0:0:0:0:
256,192,19274,1,0,0:0:0:0:
256,192,19364,1,0,0:0:0:0:
256,192,19454,1,2,0:0:0:0:
256,192,19514,1,2,0:0:0:0:
256,192,19574,1,0,0:0:0:0:
256,192,19634,1,0,0:0:0:0:
256,192,19725,1,2,0:0:0:0:
256,192,19785,1,2,0:0:0:0:
256,192,19845,1,0,0:0:0:0:
256,192,19905,1,0,0:0:0:0:
256,192,19995,1,2,0:0:0:0:
256,192,20055,1,2,0:0:0:0:
256,192,20115,1,0,0:0:0:0:
256,192,20175,1,6,0:0:0:0:
256,192,20355,1,6,0:0:0:0:
256,192,20535,1,6,0:0:0:0:
256,192,20716,1,0,0:0:0:0:
256,192,20806,1,2,0:0:0:0:
256,192,20896,1,4,0:0:0:0:
256,192,21076,1,0,0:0:0:0:
256,192,21166,1,0,0:0:0:0:
256,192,21256,1,0,0:0:0:0:
256,192,21346,1,0,0:0:0:0:
256,192,21436,1,0,0:0:0:0:
256,192,21526,1,0,0:0:0:0:
256,192,21616,1,2,0:0:0:0:
256,192,21661,1,2,0:0:0:0:
256,192,21706,1,0,0:0:0:0:
256,192,21797,1,0,0:0:0:0:
256,192,21887,1,0,0:0:0:0:
256,192,21977,1,2,0:0:0:0:
256,192,22067,1,2,0:0:0:0:
256,192,22157,1,0,0:0:0:0:
256,192,22247,1,0,0:0:0:0:
256,192,22337,1,0,0:0:0:0:
256,192,22427,1,0,0:0:0:0:
256,192,22517,1,0,0:0:0:0:
256,192,22607,1,0,0:0:0:0:
256,192,22698,1,0,0:0:0:0:
256,192,22788,1,0,0:0:0:0:
256,192,22878,1,2,0:0:0:0:
256,192,22938,1,2,0:0:0:0:
256,192,22998,1,2,0:0:0:0:
256,192,23058,1,0,0:0:0:0:
256,192,23178,1,0,0:0:0:0:
256,192,23298,1,2,0:0:0:0:
256,192,23418,1,0,0:0:0:0:
256,192,23538,1,0,0:0:0:0:
256,192,23658,1,0,0:0:0:0:
256,192,23779,1,6,0:0:0:0:
256,192,23959,1,0,0:0:0:0:
256,192,24049,1,0,0:0:0:0:
256,192,24139,1,2,0:0:0:0:
256,192,24199,1,2,0:0:0:0:
256,192,24259,1,0,0:0:0:0:
256,192,24319,1,0,0:0:0:0:
256,192,24409,1,0,0:0:0:0:
256,192,24499,1,0,0:0:0:0:
256,192,24589,1,0,0:0:0:0:
256,192,24679,1,2,0:0:0:0:
256,192,24702,1,2,0:0:0:0:
256,192,24770,1,2,0:0:0:0:
256,192,24792,1,2,0:0:0:0:
256,192,24860,1,4,0:0:0:0:
256,192,24950,1,6,0:0:0:0:
256,192,25130,1,4,0:0:0:0:
256,192,25220,1,6,0:0:0:0:
256,192,25580,2,6,L|384:192,2,125.999996154785
256,192,26301,1,2,0:0:0:0:
256,192,26391,1,2,0:0:0:0:
256,192,26481,1,0,0:0:0:0:
256,192,26541,1,0,0:0:0:0:
256,192,26601,1,0,0:0:0:0:
256,192,26661,1,6,0:0:0:0:
256,192,26842,1,6,0:0:0:0:
256,192,27022,1,4,0:0:0:0:
256,192,27202,1,6,0:0:0:0:
256,192,27382,1,4,0:0:0:0:
256,192,27562,1,4,0:0:0:0:
256,192,27743,1,6,0:0:0:0:
256,192,27923,1,2,0:0:0:0:
256,192,28013,1,2,0:0:0:0:
256,192,28103,1,4,0:0:0:0:
256,192,28283,1,4,0:0:0:0:
256,192,28463,1,6,0:0:0:0:
256,192,28643,1,4,0:0:0:0:
256,192,28824,1,6,0:0:0:0:
256,192,29004,1,6,0:0:0:0:
256,192,29184,1,0,0:0:0:0:
256,192,29274,1,2,0:0:0:0:
256,192,29364,1,0,0:0:0:0:
256,192,29544,1,6,0:0:0:0:
256,192,29725,1,6,0:0:0:0:
256,192,29905,1,4,0:0:0:0:
256,192,30085,1,4,0:0:0:0:
256,192,30265,1,6,0:0:0:0:
256,192,30445,1,6,0:0:0:0:
256,192,30626,1,6,0:0:0:0:
256,192,30746,1,4,0:0:0:0:
256,192,30866,1,6,0:0:0:0:
256,192,30986,1,4,0:0:0:0:
256,192,31166,1,2,0:0:0:0:
256,192,31226,1,0,0:0:0:0:
256,192,31286,1,0,0:0:0:0:
256,192,31346,1,6,0:0:0:0:
256,192,31436,1,4,0:0:0:0:
256,192,31616,1,0,0:0:0:0:
256,192,31707,1,6,0:0:0:0:
256,192,31887,1,0,0:0:0:0:
256,192,31977,1,6,0:0:0:0:
256,192,32157,1,2,0:0:0:0:
256,192,32247,1,2,0:0:0:0:
256,192,32337,1,0,0:0:0:0:
256,192,32788,1,0,0:0:0:0:
256,192,32848,1,0,0:0:0:0:
256,192,32908,1,0,0:0:0:0:
256,192,32968,1,6,0:0:0:0:
256,192,33148,1,4,0:0:0:0:
256,192,33328,1,4,0:0:0:0:
256,192,33508,1,6,0:0:0:0:
256,192,33688,1,2,0:0:0:0:
256,192,33779,1,2,0:0:0:0:
256,192,33869,1,4,0:0:0:0:
256,192,34049,1,6,0:0:0:0:
256,192,34229,1,4,0:0:0:0:
256,192,34409,1,6,0:0:0:0:
256,192,34589,1,0,0:0:0:0:
256,192,34679,1,0,0:0:0:0:
256,192,34770,1,2,0:0:0:0:
256,192,34860,1,2,0:0:0:0:
256,192,35040,1,2,0:0:0:0:
256,192,35220,1,2,0:0:0:0:
256,192,35310,1,0,0:0:0:0:
256,192,35370,1,0,0:0:0:0:
256,192,35430,1,0,0:0:0:0:
256,192,35490,1,6,0:0:0:0:
256,192,35670,1,6,0:0:0:0:
256,192,35851,1,6,0:0:0:0:
256,192,36031,1,2,0:0:0:0:
256,192,36091,1,0,0:0:0:0:
256,192,36151,1,0,0:0:0:0:
256,192,36211,1,6,0:0:0:0:
256,192,36391,1,6,0:0:0:0:
256,192,36572,1,6,0:0:0:0:
256,192,36752,1,4,0:0:0:0:
256,192,36932,1,2,0:0:0:0:
256,192,37022,1,4,0:0:0:0:
256,192,37202,1,2,0:0:0:0:
256,192,37292,1,4,0:0:0:0:
256,192,37472,1,0,0:0:0:0:
256,192,37652,1,6,0:0:0:0:
256,192,38193,1,4,0:0:0:0:
256,192,38238,8,4,38824,0:0:0:0:
256,192,38914,5,2,0:0:0:0:
256,192,39004,1,0,0:0:0:0:
256,192,39094,1,0,0:0:0:0:
256,192,39184,1,0,0:0:0:0:
256,192,39274,1,2,0:0:0:0:
256,192,39364,1,0,0:0:0:0:
256,192,39454,1,2,0:0:0:0:
256,192,39544,1,0,0:0:0:0:
256,192,39634,1,0,0:0:0:0:
256,192,39725,1,2,0:0:0:0:
256,192,39815,1,2,0:0:0:0:
256,192,39905,1,2,0:0:0:0:
256,192,39995,1,0,0:0:0:0:
256,192,40085,1,2,0:0:0:0:
256,192,40175,1,2,0:0:0:0:
256,192,40265,1,2,0:0:0:0:
256,192,40355,1,0,0:0:0:0:
256,192,40415,1,0,0:0:0:0:
256,192,40475,1,0,0:0:0:0:
256,192,40535,1,0,0:0:0:0:
256,192,40595,1,0,0:0:0:0:
256,192,40655,1,0,0:0:0:0:
256,192,40716,1,6,0:0:0:0:
256,192,41076,1,4,0:0:0:0:
256,192,41436,1,2,0:0:0:0:
256,192,41526,1,2,0:0:0:0:
256,192,41616,1,2,0:0:0:0:
256,192,41706,1,2,0:0:0:0:
256,192,41797,1,4,0:0:0:0:
256,192,41977,1,2,0:0:0:0:
256,192,42067,1,2,0:0:0:0:
256,192,42157,1,2,0:0:0:0:
256,192,42247,1,2,0:0:0:0:
256,192,42337,1,2,0:0:0:0:
256,192,42427,1,2,0:0:0:0:
256,192,42517,1,0,0:0:0:0:
256,192,42607,1,2,0:0:0:0:
256,192,42697,1,2,0:0:0:0:
256,192,42788,1,2,0:0:0:0:
256,192,42878,1,2,0:0:0:0:
256,192,42968,1,2,0:0:0:0:
256,192,43058,1,0,0:0:0:0:
256,192,43238,1,6,0:0:0:0:
256,192,43418,1,2,0:0:0:0:
256,192,43508,1,2,0:0:0:0:
256,192,43598,1,2,0:0:0:0:
256,192,43688,1,2,0:0:0:0:
256,192,43779,1,2,0:0:0:0:
256,192,43869,1,2,0:0:0:0:
256,192,43959,2,2,L|432:192,2,167.999994873047
256,192,44860,1,2,0:0:0:0:
256,192,44950,1,2,0:0:0:0:
256,192,45040,1,2,0:0:0:0:
256,192,45130,1,2,0:0:0:0:
256,192,45220,1,2,0:0:0:0:
256,192,45310,1,2,0:0:0:0:
256,192,45400,1,0,0:0:0:0:
256,192,45490,1,0,0:0:0:0:
256,192,45580,1,2,0:0:0:0:
256,192,45670,1,2,0:0:0:0:
256,192,45761,1,2,0:0:0:0:
256,192,45851,1,2,0:0:0:0:
256,192,45941,1,0,0:0:0:0:
256,192,46031,1,0,0:0:0:0:
256,192,46121,1,6,0:0:0:0:
256,192,46301,1,6,0:0:0:0:
256,192,46481,1,4,0:0:0:0:
256,192,46661,1,6,0:0:0:0:
256,192,46842,1,4,0:0:0:0:
256,192,47112,1,4,0:0:0:0:
256,192,47382,1,4,0:0:0:0:
256,192,47562,1,2,0:0:0:0:
256,192,47637,1,2,0:0:0:0:
256,192,47712,1,0,0:0:0:0:
256,192,47788,1,2,0:0:0:0:
256,192,47923,1,2,0:0:0:0:
256,192,48013,1,2,0:0:0:0:
256,192,48103,1,2,0:0:0:0:
256,192,48193,1,2,0:0:0:0:
256,192,48283,1,4,0:0:0:0:
256,192,48463,1,0,0:0:0:0:
256,192,48553,1,0,0:0:0:0:
256,192,48643,1,2,0:0:0:0:
256,192,48703,1,2,0:0:0:0:
256,192,48764,1,0,0:0:0:0:
256,192,48824,1,0,0:0:0:0:
256,192,49004,1,6,0:0:0:0:
256,192,49184,1,6,0:0:0:0:
256,192,49364,1,2,0:0:0:0:
256,192,49454,1,2,0:0:0:0:
256,192,49544,1,2,0:0:0:0:
256,192,49634,1,2,0:0:0:0:
256,192,49725,1,4,0:0:0:0:
256,192,49905,1,2,0:0:0:0:
256,192,50085,1,0,0:0:0:0:
256,192,50175,1,2,0:0:0:0:
256,192,50265,1,0,0:0:0:0:
256,192,50355,1,2,0:0:0:0:
256,192,50445,1,2,0:0:0:0:
256,192,50625,1,2,0:0:0:0:
256,192,50716,1,2,0:0:0:0:
256,192,50806,1,0,0:0:0:0:
256,192,50986,1,2,0:0:0:0:
256,192,51166,1,0,0:0:0:0:
256,192,51346,1,2,0:0:0:0:
256,192,51406,1,2,0:0:0:0:
256,192,51466,1,2,0:0:0:0:
256,192,51526,1,0,0:0:0:0:
256,192,51616,1,2,0:0:0:0:
256,192,51706,1,0,0:0:0:0:
256,192,51797,1,2,0:0:0:0:
256,192,51887,1,2,0:0:0:0:
256,192,52067,1,2,0:0:0:0:
256,192,52247,1,0,0:0:0:0:
256,192,52427,1,2,0:0:0:0:
256,192,52607,1,4,0:0:0:0:
256,192,52968,1,4,0:0:0:0:
256,192,53328,1,2,0:0:0:0:
256,192,53508,1,0,0:0:0:0:
256,192,53568,1,0,0:0:0:0:
256,192,53628,1,0,0:0:0:0:
256,192,53688,1,2,0:0:0:0:
256,192,53869,1,2,0:0:0:0:
256,192,53929,1,2,0:0:0:0:
256,192,53989,1,2,0:0:0:0:
256,192,54049,1,0,0:0:0:0:
256,192,54109,1,0,0:0:0:0:
256,192,54169,1,0,0:0:0:0:
256,192,54229,1,2,0:0:0:0:
256,192,54319,1,0,0:0:0:0:
256,192,54590,1,0,0:0:0:0:
256,192,54770,1,2,0:0:0:0:
256,192,54950,1,0,0:0:0:0:
256,192,55010,1,0,0:0:0:0:
256,192,55070,1,0,0:0:0:0:
256,192,55130,1,2,0:0:0:0:
256,192,55310,1,2,0:0:0:0:
256,192,55370,1,0,0:0:0:0:
256,192,55430,1,0,0:0:0:0:
256,192,55491,1,2,0:0:0:0:
256,192,55595,1,2,0:0:0:0:
256,192,55700,1,0,0:0:0:0:
256,192,55806,1,0,0:0:0:0:
256,192,55851,1,2,0:0:0:0:
256,192,55903,1,2,0:0:0:0:
256,192,55956,1,0,0:0:0:0:
256,192,56008,1,0,0:0:0:0:
256,192,56211,1,2,0:0:0:0:
256,192,56331,1,2,0:0:0:0:
256,192,56451,1,2,0:0:0:0:
256,192,56571,1,0,0:0:0:0:
256,192,56752,1,2,0:0:0:0:
256,192,56812,1,2,0:0:0:0:
256,192,56872,1,2,0:0:0:0:
256,192,56932,1,0,0:0:0:0:
256,192,57112,1,2,0:0:0:0:
256,192,57172,1,2,0:0:0:0:
256,192,57232,1,2,0:0:0:0:
256,192,57292,1,0,0:0:0:0:
256,192,57382,1,0,0:0:0:0:
256,192,57472,1,0,0:0:0:0:
256,192,57562,1,0,0:0:0:0:
256,192,57652,1,2,0:0:0:0:
256,192,57833,1,2,0:0:0:0:
256,192,58013,1,2,0:0:0:0:
256,192,58193,1,2,0:0:0:0:
256,192,58373,1,4,0:0:0:0:
256,192,58734,1,4,0:0:0:0:
256,192,59094,1,2,0:0:0:0:
256,192,59154,1,2,0:0:0:0:
256,192,59214,1,2,0:0:0:0:
256,192,59274,1,0,0:0:0:0:
256,192,59334,1,0,0:0:0:0:
256,192,59394,1,0,0:0:0:0:
256,192,59454,1,6,0:0:0:0:
256,192,59815,1,2,0:0:0:0:
256,192,59875,1,2,0:0:0:0:
256,192,59935,1,2,0:0:0:0:
256,192,59995,1,2,0:0:0:0:
256,192,60055,1,2,0:0:0:0:
256,192,60115,1,2,0:0:0:0:
256,192,60175,1,4,0:0:0:0:
256,192,60355,1,0,0:0:0:0:
256,192,60535,1,2,0:0:0:0:
256,192,60716,1,2,0:0:0:0:
256,192,60896,1,4,0:0:0:0:
256,192,61256,1,4,0:0:0:0:
256,192,61526,1,0,0:0:0:0:
256,192,61616,1,6,0:0:0:0:
256,192,61771,1,2,0:0:0:0:
256,192,61822,1,2,0:0:0:0:
256,192,61874,1,0,0:0:0:0:
256,192,61924,1,0,0:0:0:0:
256,192,61977,1,2,0:0:0:0:
256,192,62157,1,0,0:0:0:0:
256,192,62247,1,0,0:0:0:0:
256,192,62337,1,6,0:0:0:0:
256,192,62517,1,6,0:0:0:0:
256,192,62697,1,0,0:0:0:0:
256,192,62878,1,6,0:0:0:0:
256,192,63058,1,4,0:0:0:0:
256,192,63238,1,0,0:0:0:0:
256,192,63418,1,6,0:0:0:0:
256,192,63779,1,4,0:0:0:0:
256,192,64139,1,4,0:0:0:0:
256,192,65220,1,2,0:0:0:0:
256,192,65580,1,0,0:0:0:0:
256,192,65941,1,0,0:0:0:0:
256,192,66121,1,2,0:0:0:0:
256,192,66661,1,2,0:0:0:0:
256,192,66752,1,2,0:0:0:0:
256,192,66842,1,2,0:0:0:0:
256,192,66932,1,2,0:0:0:0:
256,192,67022,1,0,0:0:0:0:
256,192,67382,1,2,0:0:0:0:
256,192,67472,1,2,0:0:0:0:
256,192,67562,1,2,0:0:0:0:
256,192,67652,1,2,0:0:0:0:
256,192,67743,1,0,0:0:0:0:
256,192,67923,1,2,0:0:0:0:
256,192,68103,1,0,0:0:0:0:
256,192,68283,1,2,0:0:0:0:
256,192,68373,1,2,0:0:0:0:
256,192,68463,1,0,0:0:0:0:
256,192,68643,1,0,0:0:0:0:
256,192,68824,1,2,0:0:0:0:
256,192,68914,1,2,0:0:0:0:
256,192,69004,1,2,0:0:0:0:
256,192,69094,1,2,0:0:0:0:
256,192,69184,1,0,0:0:0:0:
256,192,69274,1,0,0:0:0:0:
256,192,69364,1,0,0:0:0:0:
256,192,69454,1,0,0:0:0:0:
256,192,69544,1,2,0:0:0:0:
256,192,69905,1,0,0:0:0:0:
256,192,70085,1,0,0:0:0:0:
256,192,70265,1,0,0:0:0:0:
256,192,70445,1,0,0:0:0:0:
256,192,70625,1,0,0:0:0:0:
256,192,70806,1,0,0:0:0:0:
256,192,70986,1,2,0:0:0:0:
256,192,71166,1,0,0:0:0:0:
256,192,71346,1,2,0:0:0:0:
256,192,71526,1,0,0:0:0:0:
256,192,71706,1,0,0:0:0:0:
256,192,71887,1,0,0:0:0:0:
256,192,72067,1,0,0:0:0:0:
256,192,72247,1,0,0:0:0:0:
256,192,72427,1,0,0:0:0:0:
256,192,72607,1,0,0:0:0:0:
256,192,72788,1,2,0:0:0:0:
256,192,72878,1,2,0:0:0:0:
256,192,72968,1,0,0:0:0:0:
256,192,73058,1,0,0:0:0:0:
256,192,73148,1,2,0:0:0:0:
256,192,73238,1,2,0:0:0:0:
256,192,73328,1,0,0:0:0:0:
256,192,73418,1,0,0:0:0:0:
256,192,73508,1,2,0:0:0:0:
256,192,73598,1,2,0:0:0:0:
256,192,73688,1,2,0:0:0:0:
256,192,73779,1,0,0:0:0:0:
256,192,73869,1,2,0:0:0:0:
256,192,73959,1,2,0:0:0:0:
256,192,74049,1,2,0:0:0:0:
256,192,74139,1,0,0:0:0:0:
256,192,74229,1,2,0:0:0:0:
256,192,74950,1,2,0:0:0:0:
256,192,75010,1,2,0:0:0:0:
256,192,75070,1,2,0:0:0:0:
256,192,75130,1,0,0:0:0:0:
256,192,75190,1,0,0:0:0:0:
256,192,75250,1,0,0:0:0:0:
256,192,75310,1,6,0:0:0:0:
256,192,75670,1,6,0:0:0:0:
256,192,75851,1,6,0:0:0:0:
256,192,76031,1,0,0:0:0:0:
256,192,76091,1,2,0:0:0:0:
256,192,76151,1,2,0:0:0:0:
256,192,76211,1,2,0:0:0:0:
256,192,76301,1,0,0:0:0:0:
256,192,76391,1,6,0:0:0:0:
256,192,76572,1,6,0:0:0:0:
256,192,76752,1,0,0:0:0:0:
256,192,76812,1,2,0:0:0:0:
256,192,76872,1,2,0:0:0:0:
256,192,76932,1,2,0:0:0:0:
256,192,77022,1,0,0:0:0:0:
256,192,77112,1,6,0:0:0:0:
256,192,77293,1,6,0:0:0:0:
256,192,77473,1,0,0:0:0:0:
256,192,77533,1,2,0:0:0:0:
256,192,77593,1,2,0:0:0:0:
256,192,77653,1,2,0:0:0:0:
256,192,77743,1,0,0:0:0:0:
256,192,77833,1,6,0:0:0:0:
256,192,78014,1,6,0:0:0:0:
256,192,78194,1,4,0:0:0:0:
256,192,78553,1,6,0:0:0:0:
256,192,78734,1,6,0:0:0:0:
256,192,78914,1,0,0:0:0:0:
256,192,78974,1,2,0:0:0:0:
256,192,79034,1,2,0:0:0:0:
256,192,79094,1,2,0:0:0:0:
256,192,79184,1,0,0:0:0:0:
256,192,79274,1,6,0:0:0:0:
256,192,79455,1,6,0:0:0:0:
256,192,79635,1,0,0:0:0:0:
256,192,79694,1,2,0:0:0:0:
256,192,79755,1,2,0:0:0:0:
256,192,79815,1,2,0:0:0:0:
256,192,79905,1,0,0:0:0:0:
256,192,79995,1,6,0:0:0:0:
256,192,80176,1,6,0:0:0:0:
256,192,80356,1,0,0:0:0:0:
256,192,80416,1,2,0:0:0:0:
256,192,80476,1,2,0:0:0:0:
256,192,80536,1,2,0:0:0:0:
256,192,80626,1,0,0:0:0:0:
256,192,80716,1,6,0:0:0:0:
256,192,80897,1,4,0:0:0:0:
256,192,81077,1,6,0:0:0:0:
256,192,81436,1,0,0:0:0:0:
256,192,81616,1,2,0:0:0:0:
256,192,81797,1,0,0:0:0:0:
256,192,81977,1,2,0:0:0:0:
256,192,82157,1,0,0:0:0:0:
256,192,82337,1,0,0:0:0:0:
256,192,82517,1,2,0:0:0:0:
256,192,82697,1,2,0:0:0:0:
256,192,82878,1,0,0:0:0:0:
256,192,83058,1,2,0:0:0:0:
256,192,83238,1,2,0:0:0:0:
256,192,83328,1,0,0:0:0:0:
256,192,83418,1,2,0:0:0:0:
256,192,83508,1,0,0:0:0:0:
256,192,83598,1,2,0:0:0:0:
256,192,83779,1,2,0:0:0:0:
256,192,83959,1,0,0:0:0:0:
256,192,84139,1,0,0:0:0:0:
256,192,84319,1,0,0:0:0:0:
256,192,84409,1,0,0:0:0:0:
256,192,84499,1,2,0:0:0:0:
256,192,84589,1,2,0:0:0:0:
256,192,84679,1,0,0:0:0:0:
256,192,84770,1,0,0:0:0:0:
256,192,84860,1,2,0:0:0:0:
256,192,84950,1,0,0:0:0:0:
256,192,85040,1,2,0:0:0:0:
256,192,85130,1,2,0:0:0:0:
256,192,85220,1,0,0:0:0:0:
256,192,85310,1,0,0:0:0:0:
256,192,85400,1,2,0:0:0:0:
256,192,85490,1,2,0:0:0:0:
256,192,85580,1,0,0:0:0:0:
256,192,85670,1,0,0:0:0:0:
256,192,85761,1,6,0:0:0:0:
256,192,87202,1,0,0:0:0:0:
256,192,87382,1,2,0:0:0:0:
256,192,87562,1,0,0:0:0:0:
256,192,87743,1,2,0:0:0:0:
256,192,87923,1,4,0:0:0:0:
256,192,88103,1,6,0:0:0:0:
256,192,88283,1,0,0:0:0:0:
256,192,88373,1,0,0:0:0:0:
256,192,88463,1,2,0:0:0:0:
256,192,88523,1,2,0:0:0:0:
256,192,88583,1,2,0:0:0:0:
256,192,88643,1,4,0:0:0:0:
256,192,88824,1,6,0:0:0:0:
256,192,89004,1,2,0:0:0:0:
256,192,89094,1,0,0:0:0:0:
256,192,89184,1,2,0:0:0:0:
256,192,89274,1,2,0:0:0:0:
256,192,89364,1,4,0:0:0:0:
256,192,89544,1,6,0:0:0:0:
256,192,89725,1,4,0:0:0:0:
256,192,89905,1,6,0:0:0:0:
256,192,90085,1,4,0:0:0:0:
256,192,90265,1,6,0:0:0:0:
256,192,90445,1,2,0:0:0:0:
256,192,90535,1,0,0:0:0:0:
256,192,90625,1,2,0:0:0:0:
256,192,90716,1,2,0:0:0:0:
256,192,90806,1,4,0:0:0:0:
256,192,90986,1,6,0:0:0:0:
256,192,91166,1,6,0:0:0:0:
256,192,91346,1,2,0:0:0:0:
256,192,91436,1,2,0:0:0:0:
256,192,91526,1,4,0:0:0:0:
256,192,91706,1,6,0:0:0:0:
256,192,91887,1,2,0:0:0:0:
256,192,91977,1,0,0:0:0:0:
256,192,92067,1,2,0:0:0:0:
256,192,92157,1,2,0:0:0:0:
256,192,92247,1,4,0:0:0:0:
256,192,92427,1,6,0:0:0:0:
256,192,92607,1,4,0:0:0:0:
256,192,92788,1,2,0:0:0:0:
256,192,92878,1,0,0:0:0:0:
256,192,92968,1,6,0:0:0:0:
256,192,93148,1,4,0:0:0:0:
256,192,93238,1,4,0:0:0:0:
256,192,93328,1,6,0:0:0:0:
256,192,93418,1,4,0:0:0:0:
256,192,93508,1,6,0:0:0:0:
256,192,93688,1,0,0:0:0:0:
256,192,93749,1,0,0:0:0:0:
256,192,93809,1,0,0:0:0:0:
256,192,93869,1,6,0:0:0:0:
256,192,94049,1,0,0:0:0:0:
256,192,94109,1,0,0:0:0:0:
256,192,94169,1,0,0:0:0:0:
256,192,94229,1,6,0:0:0:0:
256,192,94409,1,0,0:0:0:0:
256,192,94589,1,6,0:0:0:0:
256,192,94679,1,6,0:0:0:0:
256,192,94770,1,4,0:0:0:0:
256,192,94950,1,2,0:0:0:0:
256,192,95040,1,0,0:0:0:0:
256,192,95130,1,6,0:0:0:0:
256,192,95310,1,6,0:0:0:0:
256,192,95490,1,4,0:0:0:0:
256,192,95670,1,6,0:0:0:0:
256,192,95851,1,4,0:0:0:0:
256,192,96031,1,6,0:0:0:0:
256,192,96211,1,2,0:0:0:0:
256,192,96301,1,0,0:0:0:0:
256,192,96391,1,2,0:0:0:0:
256,192,96481,1,2,0:0:0:0:
256,192,96571,1,0,0:0:0:0:
256,192,96661,1,0,0:0:0:0:
256,192,96752,1,2,0:0:0:0:
256,192,96842,1,2,0:0:0:0:
256,192,96932,1,0,0:0:0:0:
256,192,97052,1,0,0:0:0:0:
256,192,97172,1,0,0:0:0:0:
256,192,97292,1,2,0:0:0:0:
256,192,97382,1,2,0:0:0:0:
256,192,97472,1,0,0:0:0:0:
256,192,97562,1,0,0:0:0:0:
256,192,97652,1,6,0:0:0:0:
256,192,97833,1,6,0:0:0:0:
256,192,98013,1,0,0:0:0:0:
256,192,98073,1,0,0:0:0:0:
256,192,98133,1,0,0:0:0:0:
256,192,98193,1,6,0:0:0:0:
256,192,98373,1,0,0:0:0:0:
256,192,98433,1,0,0:0:0:0:
256,192,98493,1,0,0:0:0:0:
256,192,98553,1,2,0:0:0:0:
256,192,98613,1,2,0:0:0:0:
256,192,98673,1,2,0:0:0:0:
256,192,98734,1,0,0:0:0:0:
256,192,98914,1,0,0:0:0:0:
256,192,99094,1,0,0:0:0:0:
256,192,99274,1,0,0:0:0:0:
256,192,99454,8,4,100085,0:0:0:0:
256,192,100175,5,2,0:0:0:0:
256,192,100235,1,0,0:0:0:0:
256,192,100295,1,0,0:0:0:0:
256,192,100355,1,2,0:0:0:0:
256,192,100445,1,0,0:0:0:0:
256,192,100535,1,2,0:0:0:0:
256,192,100625,1,0,0:0:0:0:
256,192,100716,1,0,0:0:0:0:
256,192,100806,1,2,0:0:0:0:
256,192,100896,1,2,0:0:0:0:
256,192,100986,1,0,0:0:0:0:
256,192,101076,1,2,0:0:0:0:
256,192,101166,1,0,0:0:0:0:
256,192,101256,1,2,0:0:0:0:
256,192,101346,1,2,0:0:0:0:
256,192,101436,1,0,0:0:0:0:
256,192,101526,1,0,0:0:0:0:
256,192,101616,1,2,0:0:0:0:
256,192,101676,1,2,0:0:0:0:
256,192,101737,1,0,0:0:0:0:
256,192,101797,1,0,0:0:0:0:
256,192,101887,1,2,0:0:0:0:
256,192,101977,1,2,0:0:0:0:
256,192,102067,1,2,0:0:0:0:
256,192,102157,1,0,0:0:0:0:
256,192,102247,1,0,0:0:0:0:
256,192,102337,1,2,0:0:0:0:
256,192,102397,1,0,0:0:0:0:
256,192,102457,1,2,0:0:0:0:
256,192,102517,1,0,0:0:0:0:
256,192,102577,1,2,0:0:0:0:
256,192,102637,1,0,0:0:0:0:
256,192,102697,1,2,0:0:0:0:
256,192,102758,1,0,0:0:0:0:
256,192,102818,1,2,0:0:0:0:
256,192,102878,1,0,0:0:0:0:
256,192,102968,1,0,0:0:0:0:
256,192,103058,1,2,0:0:0:0:
256,192,103118,1,2,0:0:0:0:
256,192,103178,1,0,0:0:0:0:
256,192,103238,1,2,0:0:0:0:
256,192,103328,1,0,0:0:0:0:
256,192,103418,1,2,0:0:0:0:
256,192,103508,1,2,0:0:0:0:
256,192,103598,1,0,0:0:0:0:
256,192,103688,1,2,0:0:0:0:
256,192,103779,1,2,0:0:0:0:
256,192,103869,1,0,0:0:0:0:
256,192,103959,1,2,0:0:0:0:
256,192,104049,1,0,0:0:0:0:
256,192,104139,1,2,0:0:0:0:
256,192,104229,1,0,0:0:0:0:
256,192,104319,1,2,0:0:0:0:
256,192,104409,1,0,0:0:0:0:
256,192,104499,1,2,0:0:0:0:
256,192,104559,1,2,0:0:0:0:
256,192,104619,1,0,0:0:0:0:
256,192,104679,1,0,0:0:0:0:
256,192,104770,1,0,0:0:0:0:
256,192,104860,1,2,0:0:0:0:
256,192,104950,1,2,0:0:0:0:
256,192,105040,1,0,0:0:0:0:
256,192,105220,1,2,0:0:0:0:
256,192,105310,1,2,0:0:0:0:
256,192,105400,1,2,0:0:0:0:
256,192,105580,1,2,0:0:0:0:
256,192,105670,1,0,0:0:0:0:
256,192,105716,1,0,0:0:0:0:
256,192,105761,1,2,0:0:0:0:
256,192,105851,1,0,0:0:0:0:
256,192,105896,1,0,0:0:0:0:
256,192,105941,1,6,0:0:0:0:
256,192,106121,1,6,0:0:0:0:
256,192,106301,1,6,0:0:0:0:
256,192,106391,1,4,0:0:0:0:
256,192,106481,1,6,0:0:0:0:
256,192,106661,1,6,0:0:0:0:
256,192,106752,1,4,0:0:0:0:
256,192,106842,1,6,0:0:0:0:
256,192,106932,1,4,0:0:0:0:
256,192,107382,1,6,0:0:0:0:
256,192,107562,1,6,0:0:0:0:
256,192,107652,1,4,0:0:0:0:
256,192,107743,1,4,0:0:0:0:
256,192,107833,1,6,0:0:0:0:
256,192,107923,1,4,0:0:0:0:
256,192,108013,1,4,0:0:0:0:
256,192,108103,1,6,0:0:0:0:
256,192,108193,1,6,0:0:0:0:
256,192,108283,1,4,0:0:0:0:
256,192,108824,1,6,0:0:0:0:
256,192,109004,1,2,0:0:0:0:
256,192,109094,1,2,0:0:0:0:
256,192,109184,1,0,0:0:0:0:
256,192,109274,1,2,0:0:0:0:
256,192,109364,1,2,0:0:0:0:
256,192,109544,1,6,0:0:0:0:
256,192,109725,1,2,0:0:0:0:
256,192,109815,1,2,0:0:0:0:
256,192,109905,1,0,0:0:0:0:
256,192,109995,1,0,0:0:0:0:
256,192,110085,1,2,0:0:0:0:
256,192,110265,1,0,0:0:0:0:
256,192,110355,1,2,0:0:0:0:
256,192,110445,1,0,0:0:0:0:
256,192,110505,1,0,0:0:0:0:
256,192,110565,1,0,0:0:0:0:
256,192,110625,1,2,0:0:0:0:
256,192,110716,1,0,0:0:0:0:
256,192,110806,1,2,0:0:0:0:
256,192,110866,1,2,0:0:0:0:
256,192,110926,1,2,0:0:0:0:
256,192,110986,8,4,111526,0:0:0:0:
256,192,111706,5,2,0:0:0:0:
256,192,111797,1,0,0:0:0:0:
256,192,111887,1,0,0:0:0:0:
256,192,111977,1,0,0:0:0:0:
256,192,112067,1,0,0:0:0:0:
256,192,112157,1,0,0:0:0:0:
256,192,112247,1,0,0:0:0:0:
256,192,112337,1,0,0:0:0:0:
256,192,112427,1,0,0:0:0:0:
256,192,112517,1,0,0:0:0:0:
256,192,112607,1,0,0:0:0:0:
256,192,112697,1,0,0:0:0:0:
256,192,112788,1,0,0:0:0:0:
256,192,112878,1,0,0:0:0:0:
256,192,112968,1,0,0:0:0:0:
256,192,113058,1,0,0:0:0:0:
256,192,113148,1,0,0:0:0:0:
256,192,113238,1,0,0:0:0:0:
256,192,113328,1,0,0:0:0:0:
256,192,113418,1,0,0:0:0:0:
256,192,113508,1,0,0:0:0:0:
256,192,113598,1,0,0:0:0:0:
256,192,113688,1,0,0:0:0:0:
256,192,113779,1,0,0:0:0:0:
256,192,113869,1,0,0:0:0:0:
256,192,114049,1,6,0:0:0:0:
256,192,114229,1,6,0:0:0:0:
256,192,114409,1,4,0:0:0:0:
256,192,114589,1,0,0:0:0:0:
256,192,114679,1,0,0:0:0:0:
256,192,114770,1,2,0:0:0:0:
256,192,114860,1,2,0:0:0:0:
256,192,114950,1,0,0:0:0:0:
256,192,115040,1,0,0:0:0:0:
256,192,115130,1,2,0:0:0:0:
256,192,115220,1,2,0:0:0:0:
256,192,115310,1,0,0:0:0:0:
256,192,115400,1,0,0:0:0:0:
256,192,115490,1,0,0:0:0:0:
256,192,115580,1,0,0:0:0:0:
256,192,115670,1,0,0:0:0:0:
256,192,115761,1,0,0:0:0:0:
256,192,115851,1,0,0:0:0:0:
256,192,115941,1,0,0:0:0:0:
256,192,116031,1,2,0:0:0:0:
256,192,116211,1,6,0:0:0:0:
256,192,116391,1,0,0:0:0:0:
256,192,116451,1,2,0:0:0:0:
256,192,116512,1,2,0:0:0:0:
256,192,116572,1,2,0:0:0:0:
256,192,116662,1,0,0:0:0:0:
256,192,116752,1,0,0:0:0:0:
256,192,116812,1,2,0:0:0:0:
256,192,116872,1,2,0:0:0:0:
256,192,116932,1,2,0:0:0:0:
256,192,117022,1,0,0:0:0:0:
256,192,117112,1,0,0:0:0:0:
256,192,117172,1,2,0:0:0:0:
256,192,117232,1,2,0:0:0:0:
256,192,117292,1,2,0:0:0:0:
256,192,117382,1,0,0:0:0:0:
256,192,117472,1,6,0:0:0:0:
256,192,117652,2,4,L|384:192,2,97.6800023847657
