osu file format v14

[General]
AudioFilename: audio.mp3
AudioLeadIn: 0
PreviewTime: 75220
Countdown: 0
SampleSet: Normal
StackLeniency: 0.7
Mode: 1
LetterboxInBreaks: 0
WidescreenStoryboard: 0

[Editor]
DistanceSpacing: 1.1
BeatDivisor: 4
GridSize: 32
TimelineZoom: 2

[Metadata]
Title:666
TitleUnicode:666
Artist:RoughSketch
ArtistUnicode:RoughSketch
Creator:Cynplytholowazy
Version:INFINITE
Source:SOUND VOLTEX VIVID WAVE
Tags:SDVX The 9th KAC KONAMI Arcade Championship Original Gakkyoku Song Contest オリジナル楽曲コンテスト BEMANI Electronic Instrumental HEXA DIVER Kureha [_Chichinya_] Peter Faputa
BeatmapID:2313753
BeatmapSetID:1107042

[Difficulty]
HPDrainRate:6
CircleSize:6.66
OverallDifficulty:6
ApproachRate:6.6
SliderMultiplier:2.64
SliderTickRate:1

[Events]
//Background and Video events
0,0,"opera_9s4LGClyl6.jpg",0,86
//Break Periods
//Storyboard Layer 0 (Background)
//Storyboard Layer 1 (Fail)
//Storyboard Layer 2 (Pass)
//Storyboard Layer 3 (Foreground)
//Storyboard Layer 4 (Overlay)
//Storyboard Sound Samples

[TimingPoints]
716,360.36036036036,4,1,0,40,1,0
716,-142.0096212,4,1,0,40,0,0
806,-161.8290087,4,1,0,40,0,0
3058,-142.0096212,4,1,0,40,0,0
3688,-161.8290087,4,1,0,40,0,0
5941,-142.0096212,4,1,0,40,0,0
6481,-188.5714286,4,1,0,40,0,0
6661,-186.3564914,4,1,0,40,0,0
6842,-184.1838011,4,1,0,40,0,0
7022,-182.0753801,4,1,0,40,0,0
7202,-180.0171958,4,1,0,41,0,0
7382,-178.0074574,4,1,0,41,0,0
7562,-176.0444584,4,1,0,41,0,0
7652,-175.0799747,4,1,0,41,0,0
7743,-174.1160399,4,1,0,41,0,0
7833,-173.1736457,4,1,0,41,0,0
7923,-172.2419511,4,1,0,42,0,0
8103,-170.409933,4,1,0,42,0,0
8283,-168.6185709,4,1,0,42,0,0
8463,-166.866513,4,1,0,42,0,0
8643,-165.1524672,4,1,0,43,0,0
8824,-163.4659796,4,1,0,43,0,0
9004,-161.8244973,4,1,0,43,0,0
9094,-161.0167454,4,1,0,43,0,0
9184,-160.2174695,4,1,0,43,0,0
9274,-159.4265352,4,1,0,43,0,0
9364,-158.6438113,4,1,0,44,0,0
9454,-157.8691695,4,1,0,44,0,0
9544,-157.1024837,4,1,0,44,0,0
9634,-156.3436308,4,1,0,44,0,0
9725,-155.5841869,4,1,0,44,0,0
9815,-154.8407237,4,1,0,44,0,0
9905,-154.1047372,4,1,0,44,0,0
9995,-153.3761142,4,1,0,44,0,0
10085,-152.6547434,4,1,0,45,0,0
10175,-151.940516,4,1,0,45,0,0
10265,-151.2333251,4,1,0,45,0,0
10355,-150.5330661,4,1,0,45,0,0
10445,-149.8396365,4,1,0,45,0,0
10535,-149.1529359,4,1,0,45,0,0
10625,-148.4728655,4,1,0,45,0,0
10716,-147.7918815,4,1,0,45,0,0
10806,-147.1248548,4,1,0,46,0,0
10896,-146.4641731,4,1,0,46,0,0
10986,-145.8097453,4,1,0,46,0,0
11076,-145.1614819,4,1,0,46,0,0
11166,-144.5192954,4,1,0,46,0,0
11256,-143.8830996,4,1,0,46,0,0
11346,-143.2528103,4,1,0,46,0,0
11436,-142.6283446,4,1,0,46,0,0
11526,-142.0096211,4,1,0,46,0,0
11586,-145.5533101,4,1,0,46,0,0
11646,-149.2897425,4,1,0,46,0,0
11706,-153.2352832,4,1,0,46,0,0
11767,-157.4082112,4,1,0,46,0,0
11827,-161.8290087,4,1,0,46,0,0
11887,-133.9007666,4,1,0,46,0,0
12157,-126.7155997,4,1,0,50,0,0
12607,-142.0096212,4,1,0,50,0,0
13688,-126.7155997,4,1,0,50,0,0
14049,-142.0096212,4,1,0,50,0,0
14409,-126.7155997,4,1,0,50,0,0
14770,-161.8290087,4,1,0,48,0,0
15130,-109.3420012,4,1,0,50,0,0
15310,-114.5440529,4,1,0,50,0,0
17292,-109.3420012,4,1,0,50,0,0
18193,-114.5440529,4,1,0,50,0,0
19454,-109.3420012,4,1,0,50,0,0
20716,-114.5440529,4,1,0,50,0,0
20896,-109.3420012,4,1,0,50,0,0
21076,-114.5440529,4,1,0,50,0,0
21977,-109.3420012,4,1,0,50,0,0
22067,-111.0193898,4,1,0,50,0,0
22157,-112.7523127,4,1,0,50,0,0
22247,-114.5440529,4,1,0,50,0,0
22878,-109.3420012,4,1,0,50,0,0
23058,-101.1421952,4,1,0,50,0,0
23178,-104.6190451,4,1,0,50,0,0
23298,-108.3613118,4,1,0,50,0,0
23418,-112.401101,4,1,0,50,0,0
23538,-116.7759454,4,1,0,50,0,0
23658,-121.5300047,4,1,0,50,0,0
23779,-109.3420012,4,1,0,50,0,0
23959,-114.5440529,4,1,0,50,0,0
24679,-109.3420012,4,1,0,50,0,0
25220,-101.1421952,4,1,0,50,0,0
25580,-114.5440529,4,1,0,50,0,0
26301,-121.5300047,4,1,0,50,0,0
26391,-122.7836978,4,1,0,50,0,0
26481,-124.0652209,4,1,0,50,0,0
26526,-124.7167138,4,1,0,50,0,0
26571,-125.3755236,4,1,0,50,0,0
26616,-126.0417761,4,1,0,50,0,0
26639,-126.7155997,4,1,0,48,0,0
32067,-129.4892808,4,1,0,48,0,0
32157,-132.3951935,4,1,0,48,0,0
32247,-135.4431542,4,1,0,48,0,0
32337,-138.6439803,4,1,0,48,0,0
32427,-142.0096212,4,1,0,48,0,0
32788,-133.9007666,4,1,0,48,0,0
32968,-126.7155997,4,1,0,48,0,0
35040,-129.4892808,4,1,0,48,0,0
35220,-132.3951935,4,1,0,48,0,0
35310,-133.9007666,4,1,0,48,0,0
35490,-126.7155997,4,1,0,48,0,0
36031,-133.9007666,4,1,0,48,0,0
36211,-126.7155997,4,1,0,48,0,0
36932,-124.0652209,4,1,0,48,0,0
37022,-126.7155997,4,1,0,48,0,0
37202,-124.0652209,4,1,0,48,0,0
37292,-126.7155997,4,1,0,48,0,0
37652,-120.3032334,4,1,0,48,0,0
38103,-104.6190451,4,1,0,50,0,0
38238,-57.43585863,4,1,0,50,0,0
38891,-161.8290087,4,1,0,45,0,0
39004,-160.3276049,4,1,0,45,0,0
39094,-158.8553481,4,1,0,45,0,0
39184,-157.4113891,4,1,0,45,0,0
39274,-155.9949114,4,1,0,45,0,0
39364,-154.6051295,4,1,0,45,0,0
39454,-153.2412879,4,1,0,45,0,0
39544,-151.9026593,4,1,0,45,0,0
39634,-150.5885434,4,1,0,45,0,0
39725,-149.2840608,4,1,0,45,0,0
39815,-148.0172258,4,1,0,45,0,0
39905,-146.772946,4,1,0,45,0,0
39995,-145.5506176,4,1,0,45,0,0
40085,-144.3496588,4,1,0,45,0,0
40175,-143.1695072,4,1,0,45,0,0
40265,-142.0096211,4,1,0,45,0,0
40355,-151.5151515,4,1,0,45,0,0
40986,-142.0096212,4,1,0,50,0,0
41076,-126.7155997,4,1,0,50,0,0
41436,-142.0096212,4,1,0,50,0,0
41797,-126.7155997,4,1,0,50,0,0
41887,-142.0096212,4,1,0,50,0,0
43238,-126.7155997,4,1,0,50,0,0
43328,-142.0096212,4,1,0,50,0,0
43959,-161.8290087,4,1,0,50,0,0
44860,-142.0096212,4,1,0,50,0,0
46121,-126.7155997,4,1,0,50,0,0
47562,-142.0096212,4,1,0,50,0,0
47637,-148.0218759,4,1,0,50,0,0
47712,-154.6000309,4,1,0,50,0,0
47788,-161.8290087,4,1,0,50,0,0
47923,-142.0096212,4,1,0,50,0,0
49004,-126.7155997,4,1,0,50,0,0
49094,-142.0096212,4,1,0,50,0,0
49184,-126.7155997,4,1,0,50,0,0
49364,-142.0096212,4,1,0,50,0,0
52607,-126.7155997,4,1,0,50,0,0
53238,-161.8290087,4,1,0,46,0,0
58373,-142.0096212,4,1,0,46,0,0
59094,-161.8290087,4,1,0,46,0,0
59454,-142.0096212,4,1,0,46,0,0
59815,-161.8290087,4,1,0,46,0,0
60175,-142.0096212,4,1,0,46,0,0
60355,-161.8290087,4,1,0,46,0,0
60535,-157.4082112,4,1,0,46,0,0
60716,-153.2352832,4,1,0,46,0,0
60896,-142.0096212,4,1,0,46,0,0
61526,-161.8290087,4,1,0,46,0,0
61616,-142.0096212,4,1,0,46,0,0
61661,-161.8290087,4,1,0,46,0,0
62337,-147.3964523,4,1,0,46,0,0
62427,-161.8290087,4,1,0,46,0,0
62517,-142.0096212,4,1,0,46,0,0
62697,-161.8290087,4,1,0,46,0,0
62878,-142.0096212,4,1,0,46,0,0
63148,-161.8290087,4,1,0,46,0,0
63418,-142.0096212,4,1,0,46,0,0
63688,-126.7155997,4,1,0,48,0,0
64049,-109.3420012,4,1,0,50,0,0
64499,-188.5714286,4,1,0,40,0,0
69905,-188.5714286,4,1,0,40,0,0
70085,-186.7583344,4,1,0,40,0,0
70265,-184.9815763,4,1,0,40,0,0
70445,-183.240063,4,1,0,40,0,0
70625,-181.5327465,4,1,0,41,0,0
70806,-179.8494103,4,1,0,41,0,0
70986,-178.207683,4,1,0,41,0,0
71166,-176.5972429,4,1,0,41,0,0
71346,-175.0171959,4,1,0,42,0,0
71526,-173.4666814,4,1,0,42,0,0
71706,-171.944871,4,1,0,42,0,0
71887,-170.4427444,4,1,0,42,0,0
72067,-168.976128,4,1,0,43,0,0
72247,-167.5359061,4,1,0,43,0,0
72427,-166.1213653,4,1,0,43,0,0
72607,-164.7318182,4,1,0,43,0,0
72788,-163.3590835,4,1,0,44,0,0
72878,-162.6854633,4,1,0,44,0,0
72968,-162.0176868,4,1,0,44,0,0
73058,-161.3556772,4,1,0,44,0,0
73148,-160.6993594,4,1,0,44,0,0
73238,-160.0486596,4,1,0,44,0,0
73328,-159.4035052,4,1,0,44,0,0
73418,-158.7638249,4,1,0,44,0,0
73508,-158.1295485,4,1,0,45,0,0
73598,-157.5006072,4,1,0,45,0,0
73688,-156.8769332,4,1,0,45,0,0
73779,-156.2516168,4,1,0,45,0,0
73869,-155.6383353,4,1,0,45,0,0
73959,-155.0301241,4,1,0,45,0,0
74049,-154.4269196,4,1,0,45,0,0
74139,-153.8286596,4,1,0,45,0,0
74229,-153.2352832,4,1,0,46,0,0
74950,-142.0096212,4,1,0,46,0,0
75010,-145.5533101,4,1,0,46,0,0
75070,-149.2897425,4,1,0,46,0,0
75130,-153.2352832,4,1,0,46,0,0
75190,-157.4082112,4,1,0,46,0,0
75250,-161.8290087,4,1,0,46,0,0
75310,-133.9007666,4,1,0,46,0,0
75580,-126.7155997,4,1,0,50,0,0
76031,-142.0096212,4,1,0,50,0,0
76391,-126.7155997,4,1,0,50,0,0
76752,-142.0096212,4,1,0,50,0,0
77112,-126.7155997,4,1,0,50,0,0
77472,-142.0096212,4,1,0,50,0,0
77833,-126.7155997,4,1,0,50,0,0
78914,-142.0096212,4,1,0,50,0,0
79274,-126.7155997,4,1,0,50,0,0
79634,-142.0096212,4,1,0,50,0,0
79995,-126.7155997,4,1,0,50,0,0
80355,-142.0096212,4,1,0,50,0,0
80716,-126.7155997,4,1,0,50,0,0
81436,-188.5714286,4,1,0,50,0,0
81616,-185.9930697,4,1,0,50,0,0
81797,-183.474156,4,1,0,50,0,0
81977,-181.0394085,4,1,0,50,0,0
82157,-178.6717858,4,1,0,50,0,0
82337,-176.3685241,4,1,0,50,0,0
82517,-174.12701,4,1,0,50,0,0
82697,-171.94477,4,1,0,50,0,0
82878,-169.8078088,4,1,0,50,0,0
83058,-167.7375085,4,1,0,50,0,0
83238,-165.7198012,4,1,0,50,0,0
83328,-164.7300414,4,1,0,50,0,0
83418,-163.7526884,4,1,0,50,0,0
83508,-162.7875079,4,1,0,50,0,0
83598,-161.8342716,4,1,0,50,0,0
83779,-159.9524769,4,1,0,50,0,0
83959,-158.126374,4,1,0,50,0,0
84049,-157.2297469,4,1,0,50,0,0
84139,-156.3438054,4,1,0,50,0,0
84319,-154.6032162,4,1,0,50,0,0
84409,-153.7481982,4,1,0,50,0,0
84499,-152.9031253,4,1,0,50,0,0
84589,-152.067823,4,1,0,50,0,0
84679,-151.2421208,4,1,0,50,0,0
84770,-150.4168353,4,1,0,50,0,0
84860,-149.6099405,4,1,0,50,0,0
84950,-148.8121566,4,1,0,50,0,0
85040,-148.0233283,4,1,0,50,0,0
85130,-147.243304,4,1,0,50,0,0
85220,-146.4719357,4,1,0,50,0,0
85310,-145.7090782,4,1,0,50,0,0
85400,-144.9545898,4,1,0,50,0,0
85490,-144.2083323,4,1,0,50,0,0
85580,-143.47017,4,1,0,50,0,0
85670,-142.7399704,4,1,0,50,0,0
85761,-114.5440529,4,1,0,50,0,0
87112,-161.8290087,4,1,0,50,0,0
87878,-142.0096212,4,1,0,50,0,0
88103,-161.8290087,4,1,0,50,0,0
88283,-142.0096212,4,1,0,50,0,0
88373,-135.1351351,4,1,0,50,0,0
88463,-126.7155997,4,1,0,50,0,0
88553,-117.6470588,4,1,0,50,0,0
88621,-126.7155997,4,1,0,55,0,0
88643,-104.6190451,4,1,0,55,0,1
93688,-109.3420012,4,1,0,55,0,1
93869,-104.6190451,4,1,0,55,0,1
94049,-109.3420012,4,1,0,55,0,1
94229,-104.6190451,4,1,0,55,0,1
94364,-104.6190451,4,1,0,50,0,1
94409,-114.5440529,4,1,0,50,0,0
94544,-104.6190451,4,1,0,55,0,0
94770,-104.6190451,4,1,0,55,0,1
98013,-109.3420012,4,1,0,55,0,1
98193,-104.6190451,4,1,0,55,0,1
98373,-109.3420012,4,1,0,55,0,1
98553,-104.6190451,4,1,0,55,0,1
98824,-108.3613118,4,1,0,54,0,1
99004,-112.401101,4,1,0,53,0,1
99184,-116.7759454,4,1,0,52,0,1
99364,-116.7759454,4,1,0,50,0,1
99454,-57.43585863,4,1,0,50,0,0
100152,-57.43585863,4,1,0,55,0,0
100175,-104.6190451,4,1,0,55,0,1
107022,-104.6190451,4,1,0,55,0,0
107382,-104.6190451,4,1,0,55,0,1
108463,-104.6190451,4,1,0,55,0,0
108824,-104.6190451,4,1,0,55,0,1
110941,-104.6190451,4,1,0,50,0,1
110986,-104.6190451,4,1,0,50,0,0
111031,-57.43585863,4,1,0,50,0,0
111661,-57.43585863,4,1,0,55,0,0
111706,-104.6190451,4,1,0,55,0,1
116391,-117.927018,4,1,0,55,0,1
117472,-104.6190451,4,1,0,55,0,0
117652,-126.7155997,4,1,0,55,0,0

[HitObjects]
256,192,716,5,4,0:0:0:0:
256,192,896,1,2,0:0:0:0:
256,192,986,1,2,0:0:0:0:
256,192,1076,1,0,0:0:0:0:
256,192,1256,1,2,0:0:0:0:
256,192,1346,1,2,0:0:0:0:
256,192,1436,1,0,0:0:0:0:
256,192,1616,1,2,0:0:0:0:
256,192,1706,1,2,0:0:0:0:
256,192,1797,1,0,0:0:0:0:
256,192,1977,1,2,0:0:0:0:
256,192,2157,1,0,0:0:0:0:
256,192,2337,1,2,0:0:0:0:
256,192,2427,1,2,0:0:0:0:
256,192,2517,1,0,0:0:0:0:
256,192,2697,1,2,0:0:0:0:
256,192,2788,1,2,0:0:0:0:
256,192,2878,1,0,0:0:0:0:
256,192,3058,1,6,0:0:0:0:
256,192,3238,1,6,0:0:0:0:
256,192,3598,1,4,0:0:0:0:
256,192,3779,1,2,0:0:0:0:
256,192,3869,1,2,0:0:0:0:
256,192,3959,1,0,0:0:0:0:
256,192,4139,1,2,0:0:0:0:
256,192,4229,1,2,0:0:0:0:
256,192,4319,1,0,0:0:0:0:
256,192,4499,1,2,0:0:0:0:
256,192,4589,1,2,0:0:0:0:
256,192,4679,1,0,0:0:0:0:
256,192,4860,1,2,0:0:0:0:
256,192,5040,1,0,0:0:0:0:
256,192,5220,1,2,0:0:0:0:
256,192,5310,1,2,0:0:0:0:
256,192,5400,1,0,0:0:0:0:
256,192,5580,1,2,0:0:0:0:
256,192,5670,1,2,0:0:0:0:
256,192,5761,1,0,0:0:0:0:
256,192,5941,1,6,0:0:0:0:
256,192,6121,1,6,0:0:0:0:
256,192,6301,1,6,0:0:0:0:
256,192,6481,1,0,0:0:0:0:
256,192,6842,1,0,0:0:0:0:
256,192,7022,1,2,0:0:0:0:
256,192,7202,1,0,0:0:0:0:
256,192,7382,1,0,0:0:0:0:
256,192,7562,1,2,0:0:0:0:
256,192,7652,1,2,0:0:0:0:
256,192,7743,1,0,0:0:0:0:
256,192,7923,1,0,0:0:0:0:
256,192,8283,1,0,0:0:0:0:
256,192,8463,1,0,0:0:0:0:
256,192,8643,1,2,0:0:0:0:
256,192,8824,1,0,0:0:0:0:
256,192,9004,1,2,0:0:0:0:
256,192,9094,1,2,0:0:0:0:
256,192,9184,1,0,0:0:0:0:
256,192,9364,1,0,0:0:0:0:
256,192,9454,1,0,0:0:0:0:
256,192,9544,1,2,0:0:0:0:
256,192,9634,1,2,0:0:0:0:
256,192,9725,1,0,0:0:0:0:
256,192,9905,1,2,0:0:0:0:
256,192,9995,1,2,0:0:0:0:
256,192,10085,1,0,0:0:0:0:
256,192,10175,1,0,0:0:0:0:
256,192,10265,1,2,0:0:0:0:
256,192,10445,1,0,0:0:0:0:
256,192,10535,1,2,0:0:0:0:
256,192,10625,1,2,0:0:0:0:
256,192,10806,1,0,0:0:0:0:
256,192,10896,1,2,0:0:0:0:
256,192,10986,1,2,0:0:0:0:
256,192,11076,1,2,0:0:0:0:
256,192,11166,1,2,0:0:0:0:
256,192,11256,1,2,0:0:0:0:
256,192,11346,1,2,0:0:0:0:
256,192,11526,1,2,0:0:0:0:
256,192,11586,1,2,0:0:0:0:
256,192,11646,1,2,0:0:0:0:
256,192,11706,1,0,0:0:0:0:
256,192,11887,1,6,0:0:0:0:
256,192,12247,1,6,0:0:0:0:
256,192,12427,1,6,0:0:0:0:
256,192,12607,1,0,0:0:0:0:
256,192,12667,1,2,0:0:0:0:
256,192,12728,1,2,0:0:0:0:
256,192,12878,1,0,0:0:0:0:
256,192,12968,1,0,0:0:0:0:
256,192,13028,1,2,0:0:0:0:
256,192,13088,1,2,0:0:0:0:
256,192,13238,1,0,0:0:0:0:
256,192,13328,1,0,0:0:0:0:
256,192,13388,1,2,0:0:0:0:
256,192,13448,1,2,0:0:0:0:
256,192,13688,1,6,0:0:0:0:
256,192,13869,1,6,0:0:0:0:
256,192,14049,1,0,0:0:0:0:
256,192,14109,1,2,0:0:0:0:
256,192,14169,1,2,0:0:0:0:
256,192,14319,1,0,0:0:0:0:
256,192,14409,1,6,0:0:0:0:
256,192,14770,1,0,0:0:0:0:
256,192,14860,1,0,0:0:0:0:
256,192,14950,1,0,0:0:0:0:
256,192,15130,1,6,0:0:0:0:
256,192,15310,1,0,0:0:0:0:
256,192,15400,1,0,0:0:0:0:
256,192,15490,1,0,0:0:0:0:
256,192,15580,1,0,0:0:0:0:
256,192,15670,1,0,0:0:0:0:
256,192,15851,1,0,0:0:0:0:
256,192,15941,1,0,0:0:0:0:
256,192,16031,1,0,0:0:0:0:
256,192,16121,1,0,0:0:0:0:
256,192,16211,1,0,0:0:0:0:
256,192,16301,1,0,0:0:0:0:
256,192,16391,1,0,0:0:0:0:
256,192,16571,1,0,0:0:0:0:
256,192,16661,1,0,0:0:0:0:
256,192,16752,1,0,0:0:0:0:
256,192,16842,1,0,0:0:0:0:
256,192,16932,1,0,0:0:0:0:
256,192,17112,1,0,0:0:0:0:
256,192,17202,1,0,0:0:0:0:
256,192,17292,1,6,0:0:0:0:
256,192,17472,1,4,0:0:0:0:
256,192,17652,1,6,0:0:0:0:
256,192,17833,1,4,0:0:0:0:
256,192,18013,1,6,0:0:0:0:
256,192,18193,1,0,0:0:0:0:
256,192,18283,1,0,0:0:0:0:
256,192,18373,1,0,0:0:0:0:
256,192,18463,1,0,0:0:0:0:
256,192,18553,1,0,0:0:0:0:
256,192,18734,1,0,0:0:0:0:
256,192,18824,1,0,0:0:0:0:
256,192,18914,1,0,0:0:0:0:
256,192,19004,1,0,0:0:0:0:
256,192,19094,1,2,0:0:0:0:
256,192,19184,1,0,0:0:0:0:
256,192,19274,1,0,0:0:0:0:
256,192,19454,1,0,0:0:0:0:
256,192,19634,1,6,0:0:0:0:
256,192,19815,1,0,0:0:0:0:
256,192,19905,1,6,0:0:0:0:
256,192,20085,1,0,0:0:0:0:
256,192,20175,1,6,0:0:0:0:
256,192,20355,1,6,0:0:0:0:
256,192,20535,1,6,0:0:0:0:
256,192,20896,1,6,0:0:0:0:
256,192,21076,1,0,0:0:0:0:
256,192,21166,1,0,0:0:0:0:
256,192,21256,1,0,0:0:0:0:
256,192,21346,1,0,0:0:0:0:
256,192,21436,1,0,0:0:0:0:
256,192,21616,1,2,0:0:0:0:
256,192,21706,1,0,0:0:0:0:
256,192,21797,1,0,0:0:0:0:
256,192,21887,1,0,0:0:0:0:
256,192,21977,1,2,0:0:0:0:
256,192,22067,1,2,0:0:0:0:
256,192,22157,1,0,0:0:0:0:
256,192,22337,1,0,0:0:0:0:
256,192,22427,1,0,0:0:0:0:
256,192,22517,1,0,0:0:0:0:
256,192,22607,1,0,0:0:0:0:
256,192,22698,1,0,0:0:0:0:
256,192,22878,1,2,0:0:0:0:
256,192,22968,1,2,0:0:0:0:
256,192,23058,1,0,0:0:0:0:
256,192,23178,1,0,0:0:0:0:
256,192,23298,1,2,0:0:0:0:
256,192,23418,1,0,0:0:0:0:
256,192,23538,1,0,0:0:0:0:
256,192,23658,1,0,0:0:0:0:
256,192,23779,1,6,0:0:0:0:
256,192,23959,1,0,0:0:0:0:
256,192,24049,1,0,0:0:0:0:
256,192,24139,1,0,0:0:0:0:
256,192,24229,1,0,0:0:0:0:
256,192,24319,1,0,0:0:0:0:
256,192,24499,1,0,0:0:0:0:
256,192,24679,1,2,0:0:0:0:
256,192,24770,1,2,0:0:0:0:
256,192,24860,1,0,0:0:0:0:
256,192,24950,1,2,0:0:0:0:
256,192,25130,1,0,0:0:0:0:
256,192,25220,1,6,0:0:0:0:
256,192,25580,2,6,L|384:192,2,115.239506157051
256,192,26301,1,2,0:0:0:0:
256,192,26391,1,2,0:0:0:0:
256,192,26481,1,0,0:0:0:0:
256,192,26571,1,0,0:0:0:0:
256,192,26661,1,6,0:0:0:0:
256,192,26842,1,6,0:0:0:0:
256,192,27022,1,4,0:0:0:0:
256,192,27202,1,6,0:0:0:0:
256,192,27382,1,4,0:0:0:0:
256,192,27562,1,4,0:0:0:0:
256,192,27743,1,6,0:0:0:0:
256,192,27923,1,6,0:0:0:0:
256,192,28103,1,4,0:0:0:0:
256,192,28283,1,4,0:0:0:0:
256,192,28463,1,6,0:0:0:0:
256,192,28643,1,4,0:0:0:0:
256,192,28824,1,6,0:0:0:0:
256,192,29004,1,6,0:0:0:0:
256,192,29184,1,0,0:0:0:0:
256,192,29544,1,6,0:0:0:0:
256,192,29725,1,6,0:0:0:0:
256,192,29905,1,4,0:0:0:0:
256,192,30085,1,4,0:0:0:0:
256,192,30265,1,6,0:0:0:0:
256,192,30445,1,6,0:0:0:0:
256,192,30626,1,6,0:0:0:0:
256,192,30746,1,4,0:0:0:0:
256,192,30866,1,6,0:0:0:0:
256,192,30986,1,4,0:0:0:0:
256,192,31166,1,2,0:0:0:0:
256,192,31256,1,0,0:0:0:0:
256,192,31346,1,2,0:0:0:0:
256,192,31436,1,4,0:0:0:0:
256,192,31616,1,0,0:0:0:0:
256,192,31707,1,6,0:0:0:0:
256,192,31887,1,0,0:0:0:0:
256,192,31977,1,6,0:0:0:0:
256,192,32157,1,2,0:0:0:0:
256,192,32247,1,2,0:0:0:0:
256,192,32337,1,0,0:0:0:0:
256,192,32427,2,0,L|448:192,1,185.902887830899
256,192,32968,1,6,0:0:0:0:
256,192,33148,1,4,0:0:0:0:
256,192,33328,1,4,0:0:0:0:
256,192,33508,1,6,0:0:0:0:
256,192,33688,1,6,0:0:0:0:
256,192,33869,1,4,0:0:0:0:
256,192,34049,1,6,0:0:0:0:
256,192,34229,1,4,0:0:0:0:
256,192,34409,1,6,0:0:0:0:
256,192,34589,1,4,0:0:0:0:
256,192,34770,1,6,0:0:0:0:
256,192,35220,1,2,0:0:0:0:
256,192,35490,1,4,0:0:0:0:
256,192,35670,1,6,0:0:0:0:
256,192,35851,1,6,0:0:0:0:
256,192,36211,1,6,0:0:0:0:
256,192,36391,1,6,0:0:0:0:
256,192,36572,1,6,0:0:0:0:
256,192,36752,1,4,0:0:0:0:
256,192,36932,1,2,0:0:0:0:
256,192,37022,1,4,0:0:0:0:
256,192,37202,1,2,0:0:0:0:
256,192,37292,1,4,0:0:0:0:
256,192,37472,1,0,0:0:0:0:
256,192,37652,1,6,0:0:0:0:
256,192,38193,1,4,0:0:0:0:
256,192,38238,8,4,38824,0:0:0:0:
256,192,38914,5,2,0:0:0:0:
256,192,39004,1,0,0:0:0:0:
256,192,39094,1,0,0:0:0:0:
256,192,39184,1,0,0:0:0:0:
256,192,39274,1,2,0:0:0:0:
256,192,39454,1,2,0:0:0:0:
256,192,39634,1,0,0:0:0:0:
256,192,39725,1,2,0:0:0:0:
256,192,39815,1,2,0:0:0:0:
256,192,39905,1,2,0:0:0:0:
256,192,39995,1,0,0:0:0:0:
256,192,40175,1,2,0:0:0:0:
256,192,40265,1,2,0:0:0:0:
256,192,40355,1,0,0:0:0:0:
256,192,40415,1,0,0:0:0:0:
256,192,40475,1,0,0:0:0:0:
256,192,40535,1,0,0:0:0:0:
256,192,40716,1,6,0:0:0:0:
256,192,41076,1,4,0:0:0:0:
256,192,41436,1,2,0:0:0:0:
256,192,41526,1,2,0:0:0:0:
256,192,41616,1,2,0:0:0:0:
256,192,41706,1,2,0:0:0:0:
256,192,41797,1,4,0:0:0:0:
256,192,41977,1,2,0:0:0:0:
256,192,42067,1,2,0:0:0:0:
256,192,42157,1,2,0:0:0:0:
256,192,42247,1,2,0:0:0:0:
256,192,42337,1,2,0:0:0:0:
256,192,42427,1,2,0:0:0:0:
256,192,42517,1,0,0:0:0:0:
256,192,42697,1,2,0:0:0:0:
256,192,42788,1,2,0:0:0:0:
256,192,42878,1,2,0:0:0:0:
256,192,42968,1,2,0:0:0:0:
256,192,43058,1,0,0:0:0:0:
256,192,43238,1,6,0:0:0:0:
256,192,43418,1,2,0:0:0:0:
256,192,43508,1,2,0:0:0:0:
256,192,43598,1,2,0:0:0:0:
256,192,43688,1,2,0:0:0:0:
256,192,43779,1,2,0:0:0:0:
256,192,43869,1,2,0:0:0:0:
256,192,43959,2,2,L|448:192,2,163.135151098106
256,192,44860,1,2,0:0:0:0:
256,192,44950,1,2,0:0:0:0:
256,192,45040,1,2,0:0:0:0:
256,192,45130,1,2,0:0:0:0:
256,192,45220,1,2,0:0:0:0:
256,192,45310,1,2,0:0:0:0:
256,192,45400,1,0,0:0:0:0:
256,192,45580,1,2,0:0:0:0:
256,192,45670,1,2,0:0:0:0:
256,192,45761,1,2,0:0:0:0:
256,192,45851,1,2,0:0:0:0:
256,192,45941,1,0,0:0:0:0:
256,192,46121,1,6,0:0:0:0:
256,192,46301,1,6,0:0:0:0:
256,192,46481,1,4,0:0:0:0:
256,192,46661,1,6,0:0:0:0:
256,192,46842,1,4,0:0:0:0:
256,192,47112,1,4,0:0:0:0:
256,192,47382,1,4,0:0:0:0:
256,192,47562,1,2,0:0:0:0:
256,192,47923,1,2,0:0:0:0:
256,192,48013,1,2,0:0:0:0:
256,192,48103,1,2,0:0:0:0:
256,192,48193,1,2,0:0:0:0:
256,192,48283,1,4,0:0:0:0:
256,192,48643,1,2,0:0:0:0:
256,192,48703,1,2,0:0:0:0:
256,192,48764,1,0,0:0:0:0:
256,192,48824,1,0,0:0:0:0:
256,192,49004,1,6,0:0:0:0:
256,192,49184,1,6,0:0:0:0:
256,192,49364,1,2,0:0:0:0:
256,192,49454,1,2,0:0:0:0:
256,192,49544,1,2,0:0:0:0:
256,192,49634,1,2,0:0:0:0:
288,320,49725,1,0,0:0:0:0:
256,192,49905,1,2,0:0:0:0:
256,192,50085,1,0,0:0:0:0:
256,192,50175,1,2,0:0:0:0:
256,192,50265,1,0,0:0:0:0:
256,192,50355,1,2,0:0:0:0:
256,192,50445,1,2,0:0:0:0:
256,192,50625,1,2,0:0:0:0:
256,192,50716,1,2,0:0:0:0:
256,192,50806,1,0,0:0:0:0:
256,192,50986,1,2,0:0:0:0:
256,192,51166,1,0,0:0:0:0:
256,192,51346,1,2,0:0:0:0:
256,192,51436,1,2,0:0:0:0:
256,192,51526,1,0,0:0:0:0:
256,192,51616,1,2,0:0:0:0:
256,192,51706,1,2,0:0:0:0:
256,192,51797,1,2,0:0:0:0:
256,192,51887,1,2,0:0:0:0:
256,192,52067,1,2,0:0:0:0:
256,192,52247,1,0,0:0:0:0:
256,192,52427,1,2,0:0:0:0:
256,192,52607,1,4,0:0:0:0:
256,192,52968,1,4,0:0:0:0:
256,192,53328,1,2,0:0:0:0:
256,192,53448,1,2,0:0:0:0:
256,192,53568,1,0,0:0:0:0:
256,192,53688,1,0,0:0:0:0:
256,192,53929,1,0,0:0:0:0:
256,192,54049,1,2,0:0:0:0:
256,192,54169,1,2,0:0:0:0:
256,192,54289,1,0,0:0:0:0:
256,192,54409,1,0,0:0:0:0:
256,192,54650,1,0,0:0:0:0:
256,192,54770,1,2,0:0:0:0:
256,192,54890,1,2,0:0:0:0:
256,192,55010,1,0,0:0:0:0:
256,192,55130,1,0,0:0:0:0:
256,192,55371,1,2,0:0:0:0:
256,192,55491,1,2,0:0:0:0:
256,192,55610,1,2,0:0:0:0:
256,192,55731,1,0,0:0:0:0:
256,192,55851,1,0,0:0:0:0:
256,192,56211,1,2,0:0:0:0:
256,192,56331,1,2,0:0:0:0:
256,192,56451,1,2,0:0:0:0:
256,192,56571,1,0,0:0:0:0:
256,192,56752,1,2,0:0:0:0:
256,192,56842,1,2,0:0:0:0:
256,192,56932,1,0,0:0:0:0:
256,192,57112,1,2,0:0:0:0:
256,192,57202,1,2,0:0:0:0:
256,192,57292,1,0,0:0:0:0:
256,192,57382,1,0,0:0:0:0:
256,192,57472,1,0,0:0:0:0:
256,192,57562,1,0,0:0:0:0:
256,192,57652,1,2,0:0:0:0:
256,192,57833,1,2,0:0:0:0:
256,192,58013,1,2,0:0:0:0:
256,192,58193,1,2,0:0:0:0:
256,192,58373,1,4,0:0:0:0:
256,192,58734,1,4,0:0:0:0:
256,192,59094,1,2,0:0:0:0:
256,192,59214,1,2,0:0:0:0:
256,192,59334,1,0,0:0:0:0:
256,192,59454,1,6,0:0:0:0:
256,192,59815,1,2,0:0:0:0:
256,192,59935,1,2,0:0:0:0:
256,192,60055,1,2,0:0:0:0:
256,192,60175,1,4,0:0:0:0:
256,192,60355,1,0,0:0:0:0:
256,192,60535,1,2,0:0:0:0:
256,192,60716,1,2,0:0:0:0:
256,192,60896,1,4,0:0:0:0:
256,192,61256,1,4,0:0:0:0:
256,192,61526,1,0,0:0:0:0:
256,192,61616,1,6,0:0:0:0:
256,192,61887,1,0,0:0:0:0:
256,192,61977,1,2,0:0:0:0:
256,192,62157,1,0,0:0:0:0:
256,192,62247,1,0,0:0:0:0:
256,192,62337,1,6,0:0:0:0:
256,192,62517,1,6,0:0:0:0:
256,192,62697,1,0,0:0:0:0:
256,192,62878,1,6,0:0:0:0:
256,192,63058,1,4,0:0:0:0:
256,192,63238,1,0,0:0:0:0:
256,192,63418,1,6,0:0:0:0:
256,192,63779,1,4,0:0:0:0:
256,192,64139,1,4,0:0:0:0:
256,192,65220,1,2,0:0:0:0:
256,192,65580,1,0,0:0:0:0:
256,192,65941,1,0,0:0:0:0:
256,192,66121,1,2,0:0:0:0:
256,192,66661,1,2,0:0:0:0:
256,192,66752,1,2,0:0:0:0:
256,192,66842,1,2,0:0:0:0:
256,192,66932,1,2,0:0:0:0:
256,192,67022,1,0,0:0:0:0:
256,192,67382,1,2,0:0:0:0:
256,192,67472,1,2,0:0:0:0:
256,192,67562,1,2,0:0:0:0:
256,192,67652,1,2,0:0:0:0:
256,192,67743,1,0,0:0:0:0:
256,192,67923,1,2,0:0:0:0:
256,192,68103,1,0,0:0:0:0:
256,192,68283,1,2,0:0:0:0:
256,192,68373,1,2,0:0:0:0:
256,192,68463,1,0,0:0:0:0:
256,192,68643,1,0,0:0:0:0:
256,192,68824,1,2,0:0:0:0:
256,192,68914,1,2,0:0:0:0:
256,192,69004,1,2,0:0:0:0:
256,192,69094,1,2,0:0:0:0:
256,192,69184,1,2,0:0:0:0:
256,192,69364,1,0,0:0:0:0:
256,192,69454,1,0,0:0:0:0:
256,192,69544,1,2,0:0:0:0:
256,192,69905,1,0,0:0:0:0:
256,192,70085,1,0,0:0:0:0:
256,192,70265,1,0,0:0:0:0:
256,192,70445,1,0,0:0:0:0:
256,192,70625,1,0,0:0:0:0:
256,192,70806,1,0,0:0:0:0:
256,192,70986,1,2,0:0:0:0:
256,192,71166,1,0,0:0:0:0:
256,192,71346,1,2,0:0:0:0:
256,192,71526,1,0,0:0:0:0:
256,192,71706,1,0,0:0:0:0:
256,192,71887,1,0,0:0:0:0:
256,192,72067,1,0,0:0:0:0:
256,192,72247,1,0,0:0:0:0:
256,192,72427,1,0,0:0:0:0:
256,192,72607,1,0,0:0:0:0:
256,192,72788,1,2,0:0:0:0:
256,192,72878,1,2,0:0:0:0:
256,192,72968,1,0,0:0:0:0:
256,192,73148,1,2,0:0:0:0:
256,192,73238,1,0,0:0:0:0:
256,192,73328,1,2,0:0:0:0:
256,192,73418,1,0,0:0:0:0:
256,192,73508,1,2,0:0:0:0:
256,192,73688,1,2,0:0:0:0:
256,192,73779,1,0,0:0:0:0:
256,192,73869,1,2,0:0:0:0:
256,192,73959,1,2,0:0:0:0:
256,192,74049,1,2,0:0:0:0:
256,192,74139,1,2,0:0:0:0:
256,192,74229,1,0,0:0:0:0:
256,192,74950,1,2,0:0:0:0:
256,192,75010,1,2,0:0:0:0:
256,192,75070,1,2,0:0:0:0:
256,192,75130,1,0,0:0:0:0:
256,192,75310,1,6,0:0:0:0:
256,192,75670,1,6,0:0:0:0:
256,192,75851,1,6,0:0:0:0:
256,192,76031,1,0,0:0:0:0:
256,192,76091,1,2,0:0:0:0:
256,192,76151,1,2,0:0:0:0:
256,192,76301,1,0,0:0:0:0:
256,192,76391,1,6,0:0:0:0:
256,192,76572,1,6,0:0:0:0:
256,192,76752,1,0,0:0:0:0:
256,192,76812,1,2,0:0:0:0:
256,192,76872,1,2,0:0:0:0:
256,192,77022,1,0,0:0:0:0:
256,192,77112,1,6,0:0:0:0:
256,192,77293,1,6,0:0:0:0:
256,192,77473,1,0,0:0:0:0:
256,192,77533,1,2,0:0:0:0:
256,192,77593,1,2,0:0:0:0:
256,192,77743,1,0,0:0:0:0:
256,192,77833,1,6,0:0:0:0:
256,192,78014,1,6,0:0:0:0:
256,192,78194,1,4,0:0:0:0:
256,192,78553,1,6,0:0:0:0:
256,192,78734,1,6,0:0:0:0:
256,192,78914,1,0,0:0:0:0:
256,192,78974,1,2,0:0:0:0:
256,192,79034,1,2,0:0:0:0:
256,192,79184,1,0,0:0:0:0:
256,192,79274,1,6,0:0:0:0:
256,192,79455,1,6,0:0:0:0:
256,192,79635,1,0,0:0:0:0:
256,192,79695,1,2,0:0:0:0:
256,192,79755,1,2,0:0:0:0:
256,192,79905,1,0,0:0:0:0:
256,192,79995,1,6,0:0:0:0:
256,192,80176,1,6,0:0:0:0:
256,192,80356,1,0,0:0:0:0:
256,192,80416,1,2,0:0:0:0:
256,192,80476,1,2,0:0:0:0:
256,192,80626,1,0,0:0:0:0:
256,192,80716,1,6,0:0:0:0:
256,192,80897,1,4,0:0:0:0:
256,192,81077,1,6,0:0:0:0:
256,192,81436,1,0,0:0:0:0:
256,192,81616,1,2,0:0:0:0:
256,192,81797,1,0,0:0:0:0:
256,192,81977,1,2,0:0:0:0:
256,192,82157,1,0,0:0:0:0:
256,192,82337,1,0,0:0:0:0:
256,192,82517,1,2,0:0:0:0:
256,192,82697,1,2,0:0:0:0:
256,192,82878,1,0,0:0:0:0:
256,192,83058,1,2,0:0:0:0:
256,192,83238,1,2,0:0:0:0:
256,192,83328,1,0,0:0:0:0:
256,192,83418,1,2,0:0:0:0:
256,192,83508,1,0,0:0:0:0:
256,192,83598,1,2,0:0:0:0:
256,192,83779,1,2,0:0:0:0:
256,192,83959,1,0,0:0:0:0:
256,192,84049,1,2,0:0:0:0:
256,192,84139,1,0,0:0:0:0:
256,192,84319,1,0,0:0:0:0:
256,192,84409,1,0,0:0:0:0:
256,192,84499,1,2,0:0:0:0:
256,192,84589,1,2,0:0:0:0:
256,192,84679,1,2,0:0:0:0:
256,192,84860,1,2,0:0:0:0:
256,192,84950,1,2,0:0:0:0:
256,192,85040,1,2,0:0:0:0:
256,192,85130,1,2,0:0:0:0:
256,192,85220,1,0,0:0:0:0:
256,192,85400,1,2,0:0:0:0:
256,192,85490,1,2,0:0:0:0:
256,192,85580,1,0,0:0:0:0:
256,192,85670,1,0,0:0:0:0:
256,192,85761,1,6,0:0:0:0:
256,192,87202,1,0,0:0:0:0:
256,192,87382,1,2,0:0:0:0:
256,192,87562,1,0,0:0:0:0:
256,192,87743,1,0,0:0:0:0:
256,192,87923,1,6,0:0:0:0:
256,192,88103,1,6,0:0:0:0:
256,192,88283,1,0,0:0:0:0:
256,192,88373,1,0,0:0:0:0:
256,192,88463,1,2,0:0:0:0:
256,192,88553,1,2,0:0:0:0:
256,192,88643,1,4,0:0:0:0:
256,192,88824,1,6,0:0:0:0:
256,192,89004,1,2,0:0:0:0:
256,192,89094,1,0,0:0:0:0:
256,192,89184,1,2,0:0:0:0:
256,192,89274,1,2,0:0:0:0:
256,192,89364,1,4,0:0:0:0:
256,192,89544,1,6,0:0:0:0:
256,192,89725,1,4,0:0:0:0:
256,192,89905,1,6,0:0:0:0:
256,192,90085,1,4,0:0:0:0:
256,192,90265,1,6,0:0:0:0:
256,192,90445,1,2,0:0:0:0:
256,192,90535,1,0,0:0:0:0:
256,192,90625,1,2,0:0:0:0:
256,192,90716,1,2,0:0:0:0:
256,192,90806,1,4,0:0:0:0:
256,192,90986,1,6,0:0:0:0:
256,192,91166,1,6,0:0:0:0:
256,192,91526,1,4,0:0:0:0:
256,192,91706,1,6,0:0:0:0:
256,192,91887,1,2,0:0:0:0:
256,192,91977,1,0,0:0:0:0:
256,192,92067,1,2,0:0:0:0:
256,192,92157,1,2,0:0:0:0:
256,192,92247,1,4,0:0:0:0:
256,192,92427,1,6,0:0:0:0:
256,192,92607,1,4,0:0:0:0:
256,192,92788,1,2,0:0:0:0:
256,192,92878,1,0,0:0:0:0:
256,192,92968,1,6,0:0:0:0:
256,192,93148,1,0,0:0:0:0:
256,192,93238,1,0,0:0:0:0:
256,192,93328,1,2,0:0:0:0:
256,192,93418,1,0,0:0:0:0:
256,192,93508,1,6,0:0:0:0:
256,192,93688,1,0,0:0:0:0:
256,192,93779,1,0,0:0:0:0:
256,192,93869,1,6,0:0:0:0:
256,192,94049,1,0,0:0:0:0:
256,192,94139,1,0,0:0:0:0:
256,192,94229,1,6,0:0:0:0:
256,192,94409,1,0,0:0:0:0:
256,192,94589,1,2,0:0:0:0:
256,192,94679,1,2,0:0:0:0:
256,192,94770,1,0,0:0:0:0:
256,192,94860,1,0,0:0:0:0:
256,192,94950,1,2,0:0:0:0:
256,192,95130,1,6,0:0:0:0:
256,192,95310,1,6,0:0:0:0:
256,192,95490,1,4,0:0:0:0:
256,192,95670,1,6,0:0:0:0:
256,192,95851,1,4,0:0:0:0:
256,192,96031,1,6,0:0:0:0:
256,192,96211,1,2,0:0:0:0:
256,192,96301,1,0,0:0:0:0:
256,192,96391,1,2,0:0:0:0:
256,192,96481,1,2,0:0:0:0:
256,192,96571,1,4,0:0:0:0:
256,192,96932,1,2,0:0:0:0:
256,192,97052,1,2,0:0:0:0:
256,192,97172,1,2,0:0:0:0:
256,192,97292,1,0,0:0:0:0:
256,192,97382,1,0,0:0:0:0:
256,192,97472,1,0,0:0:0:0:
256,192,97562,1,0,0:0:0:0:
256,192,97652,1,6,0:0:0:0:
256,192,97833,1,6,0:0:0:0:
256,192,98013,1,0,0:0:0:0:
256,192,98103,1,0,0:0:0:0:
256,192,98193,1,6,0:0:0:0:
256,192,98373,1,0,0:0:0:0:
256,192,98463,1,0,0:0:0:0:
256,192,98553,1,2,0:0:0:0:
256,192,98643,1,2,0:0:0:0:
256,192,98734,1,0,0:0:0:0:
256,192,98914,1,0,0:0:0:0:
256,192,99094,1,0,0:0:0:0:
256,192,99274,1,0,0:0:0:0:
256,192,99454,12,4,100085,0:0:0:0:
256,192,100175,5,6,0:0:0:0:
256,192,100355,1,0,0:0:0:0:
256,192,100535,1,2,0:0:0:0:
256,192,100716,1,0,0:0:0:0:
256,192,100806,1,0,0:0:0:0:
256,192,100896,1,6,0:0:0:0:
256,192,101076,1,2,0:0:0:0:
256,192,101166,1,0,0:0:0:0:
256,192,101256,1,2,0:0:0:0:
256,192,101436,1,0,0:0:0:0:
256,192,101616,1,6,0:0:0:0:
256,192,101797,1,2,0:0:0:0:
256,192,101977,1,2,0:0:0:0:
256,192,102157,1,0,0:0:0:0:
256,192,102247,1,0,0:0:0:0:
256,192,102337,1,6,0:0:0:0:
256,192,102517,1,0,0:0:0:0:
256,192,102577,1,0,0:0:0:0:
256,192,102637,1,0,0:0:0:0:
256,192,102697,1,6,0:0:0:0:
256,192,103058,1,6,0:0:0:0:
256,192,103238,1,2,0:0:0:0:
256,192,103418,1,2,0:0:0:0:
256,192,103598,1,0,0:0:0:0:
256,192,103688,1,0,0:0:0:0:
256,192,103779,1,6,0:0:0:0:
256,192,103959,1,2,0:0:0:0:
256,192,104049,1,0,0:0:0:0:
256,192,104139,1,2,0:0:0:0:
256,192,104319,1,2,0:0:0:0:
256,192,104499,1,6,0:0:0:0:
256,192,104679,1,0,0:0:0:0:
256,192,104770,1,0,0:0:0:0:
256,192,104860,1,2,0:0:0:0:
256,192,105040,1,2,0:0:0:0:
256,192,105220,1,6,0:0:0:0:
256,192,105580,1,6,0:0:0:0:
256,192,105761,1,2,0:0:0:0:
256,192,105851,1,0,0:0:0:0:
256,192,105941,1,6,0:0:0:0:
256,192,106121,1,0,0:0:0:0:
256,192,106301,1,6,0:0:0:0:
256,192,106481,1,2,0:0:0:0:
256,192,106661,1,2,0:0:0:0:
256,192,106752,1,0,0:0:0:0:
256,192,106842,1,2,0:0:0:0:
256,192,106932,1,0,0:0:0:0:
256,192,107382,1,6,0:0:0:0:
256,192,107562,1,2,0:0:0:0:
256,192,107652,1,0,0:0:0:0:
256,192,107743,1,0,0:0:0:0:
256,192,107923,1,0,0:0:0:0:
256,192,108013,1,0,0:0:0:0:
256,192,108103,1,2,0:0:0:0:
256,192,108193,1,2,0:0:0:0:
256,192,108283,1,0,0:0:0:0:
256,192,108824,1,6,0:0:0:0:
256,192,109004,1,2,0:0:0:0:
256,192,109094,1,2,0:0:0:0:
256,192,109184,1,0,0:0:0:0:
256,192,109274,1,2,0:0:0:0:
256,192,109364,1,2,0:0:0:0:
256,192,109544,1,6,0:0:0:0:
256,192,109725,1,2,0:0:0:0:
256,192,109815,1,2,0:0:0:0:
256,192,109905,1,0,0:0:0:0:
256,192,109995,1,0,0:0:0:0:
256,192,110085,1,2,0:0:0:0:
256,192,110265,1,0,0:0:0:0:
256,192,110355,1,2,0:0:0:0:
256,192,110445,1,0,0:0:0:0:
256,192,110625,1,2,0:0:0:0:
256,192,110716,1,0,0:0:0:0:
256,192,110806,1,2,0:0:0:0:
256,192,110896,1,2,0:0:0:0:
256,192,110986,12,4,111526,0:0:0:0:
256,192,111706,5,2,0:0:0:0:
256,192,111887,1,0,0:0:0:0:
256,192,111977,1,0,0:0:0:0:
256,192,112067,1,0,0:0:0:0:
256,192,112157,1,0,0:0:0:0:
256,192,112247,1,0,0:0:0:0:
256,192,112337,1,0,0:0:0:0:
256,192,112427,1,0,0:0:0:0:
256,192,112607,1,0,0:0:0:0:
256,192,112697,1,0,0:0:0:0:
256,192,112788,1,0,0:0:0:0:
256,192,112878,1,0,0:0:0:0:
256,192,112968,1,0,0:0:0:0:
256,192,113058,1,0,0:0:0:0:
256,192,113148,1,0,0:0:0:0:
256,192,113328,1,0,0:0:0:0:
256,192,113418,1,0,0:0:0:0:
256,192,113508,1,0,0:0:0:0:
256,192,113598,1,0,0:0:0:0:
256,192,113688,1,0,0:0:0:0:
256,192,113779,1,0,0:0:0:0:
256,192,113869,1,0,0:0:0:0:
256,192,114049,1,6,0:0:0:0:
256,192,114229,1,6,0:0:0:0:
256,192,114409,1,4,0:0:0:0:
256,192,114589,1,0,0:0:0:0:
256,192,114679,1,2,0:0:0:0:
256,192,114770,1,2,0:0:0:0:
256,192,114860,1,0,0:0:0:0:
256,192,114950,1,0,0:0:0:0:
256,192,115130,1,2,0:0:0:0:
256,192,115220,1,0,0:0:0:0:
256,192,115310,1,2,0:0:0:0:
256,192,115490,1,2,0:0:0:0:
256,192,115580,1,2,0:0:0:0:
256,192,115670,1,2,0:0:0:0:
256,192,115761,1,2,0:0:0:0:
256,192,115851,1,2,0:0:0:0:
256,192,116031,1,6,0:0:0:0:
256,192,116211,1,6,0:0:0:0:
256,192,116391,1,0,0:0:0:0:
256,192,116451,1,2,0:0:0:0:
256,192,116512,1,2,0:0:0:0:
256,192,116662,1,0,0:0:0:0:
256,192,116752,1,0,0:0:0:0:
256,192,116812,1,2,0:0:0:0:
256,192,116872,1,2,0:0:0:0:
256,192,117022,1,0,0:0:0:0:
256,192,117112,1,0,0:0:0:0:
256,192,117172,1,2,0:0:0:0:
256,192,117232,1,2,0:0:0:0:
256,192,117382,1,0,0:0:0:0:
256,192,117472,1,6,0:0:0:0:
256,192,117652,2,4,L|384:192,2,104.170284463112
