osu file format v14

[General]
AudioFilename: audio.mp3
AudioLeadIn: 0
PreviewTime: 75220
Countdown: 0
SampleSet: Normal
StackLeniency: 0.7
Mode: 1
LetterboxInBreaks: 0
WidescreenStoryboard: 0

[Editor]
Bookmarks: 41076
DistanceSpacing: 1.1
BeatDivisor: 1
GridSize: 32
TimelineZoom: 2.2

[Metadata]
Title:666
TitleUnicode:666
Artist:RoughSketch
ArtistUnicode:RoughSketch
Creator:Cynplytholowazy
Version:FAPU'S EXHAUST
Source:SOUND VOLTEX VIVID WAVE
Tags:SDVX The 9th KAC KONAMI Arcade Championship Original Gakkyoku Song Contest オリジナル楽曲コンテスト BEMANI Electronic Instrumental HEXA DIVER Kureha [_Chichinya_] Peter Faputa
BeatmapID:2315753
BeatmapSetID:1107042

[Difficulty]
HPDrainRate:5.5
CircleSize:2
OverallDifficulty:5.5
ApproachRate:10
SliderMultiplier:2.64
SliderTickRate:1

[Events]
//Background and Video events
0,0,"opera_9s4LGClyl6.jpg",0,86
//Break Periods
//Storyboard Layer 0 (Background)
//Storyboard Layer 1 (Fail)
//Storyboard Layer 2 (Pass)
//Storyboard Layer 3 (Foreground)
//Storyboard Layer 4 (Overlay)
//Storyboard Sound Samples

[TimingPoints]
716,360.36036036036,4,1,0,40,1,0
716,-200,4,1,0,40,0,0
7202,-200,4,1,0,41,0,0
7923,-200,4,1,0,42,0,0
8643,-200,4,1,0,43,0,0
9364,-200,4,1,0,44,0,0
10085,-200,4,1,0,45,0,0
10806,-200,4,1,0,46,0,0
12157,-181.8181818,4,1,0,50,0,0
26639,-161.2903226,4,1,0,48,0,0
38103,-200,4,1,0,50,0,0
38891,-200,4,1,0,45,0,0
40986,-200,4,1,0,50,0,0
41346,-250,4,1,0,50,0,0
41706,-285.7142857,4,1,0,50,0,0
44319,-312.5,4,1,0,50,0,0
44679,-322.5806452,4,1,0,50,0,0
46121,-200,4,1,0,50,0,0
47112,-196.0784314,4,1,0,50,0,0
47382,-192.3076923,4,1,0,50,0,0
47652,-322.5806452,4,1,0,50,0,0
47923,-303.030303,4,1,0,50,0,0
48013,-294.1176471,4,1,0,50,0,0
48103,-285.7142857,4,1,0,50,0,0
48193,-277.7777778,4,1,0,50,0,0
48283,-270.2702703,4,1,0,50,0,0
48463,-256.4102564,4,1,0,50,0,0
48643,-243.902439,4,1,0,50,0,0
48734,-238.0952381,4,1,0,50,0,0
48824,-232.5581395,4,1,0,50,0,0
49004,-222.2222222,4,1,0,50,0,0
49184,-212.7659574,4,1,0,50,0,0
49364,-200,4,1,0,50,0,0
53238,-200,4,1,0,46,0,0
63688,-200,4,1,0,48,0,0
64049,-200,4,1,0,50,0,0
64499,-200,4,1,0,40,0,0
70625,-200,4,1,0,41,0,0
71346,-200,4,1,0,42,0,0
72067,-200,4,1,0,43,0,0
72788,-200,4,1,0,44,0,0
73508,-200,4,1,0,45,0,0
74229,-200,4,1,0,46,0,0
75580,-181.8181818,4,1,0,50,0,0
88621,-200,4,1,0,55,0,0
88643,-161.2903226,4,1,0,55,0,1
94364,-161.2903226,4,1,0,50,0,1
94409,-161.2903226,4,1,0,50,0,0
94544,-161.2903226,4,1,0,55,0,0
94770,-161.2903226,4,1,0,55,0,1
98824,-161.2903226,4,1,0,54,0,1
99004,-161.2903226,4,1,0,53,0,1
99184,-161.2903226,4,1,0,52,0,1
99364,-161.2903226,4,1,0,50,0,1
99454,-161.2903226,4,1,0,50,0,0
100152,-149.2537313,4,1,0,55,0,0
100175,-149.2537313,4,1,0,55,0,1
107022,-149.2537313,4,1,0,55,0,0
107382,-149.2537313,4,1,0,55,0,1
108463,-149.2537313,4,1,0,55,0,0
108824,-149.2537313,4,1,0,55,0,1
110941,-149.2537313,4,1,0,50,0,1
110986,-149.2537313,4,1,0,50,0,0
111661,-133.3333333,4,1,0,55,0,0
111706,-133.3333333,4,1,0,55,0,1
117472,-121.9512195,4,1,0,55,0,0

[HitObjects]
256,192,716,5,12,0:0:0:0:
256,192,896,8,12,2878,0:0:0:0:
256,192,3058,5,12,0:0:0:0:
256,192,3238,1,12,0:0:0:0:
256,192,3598,1,12,0:0:0:0:
256,192,3779,8,12,5761,0:0:0:0:
256,192,5941,5,12,0:0:0:0:
256,192,6121,1,12,0:0:0:0:
256,192,6301,1,12,0:0:0:0:
256,192,6481,1,4,0:0:0:0:
256,192,6661,1,0,0:0:0:0:
256,192,6842,1,0,0:0:0:0:
256,192,7022,1,8,0:0:0:0:
256,192,7202,1,8,0:0:0:0:
256,192,7382,1,8,0:0:0:0:
256,192,7562,1,0,0:0:0:0:
256,192,7743,1,0,0:0:0:0:
256,192,7833,1,0,0:0:0:0:
256,192,7923,1,0,0:0:0:0:
256,192,8103,1,0,0:0:0:0:
256,192,8283,1,0,0:0:0:0:
256,192,8463,1,8,0:0:0:0:
256,192,8643,1,8,0:0:0:0:
256,192,8824,1,8,0:0:0:0:
256,192,9004,1,0,0:0:0:0:
256,192,9094,1,0,0:0:0:0:
256,192,9184,1,0,0:0:0:0:
256,192,9364,5,0,0:0:0:0:
256,192,9454,1,0,0:0:0:0:
256,192,9544,1,8,0:0:0:0:
256,192,9725,1,0,0:0:0:0:
256,192,9815,1,0,0:0:0:0:
256,192,9905,1,8,0:0:0:0:
256,192,10085,1,0,0:0:0:0:
256,192,10175,1,0,0:0:0:0:
256,192,10265,1,8,0:0:0:0:
256,192,10445,1,0,0:0:0:0:
256,192,10535,1,0,0:0:0:0:
256,192,10625,1,8,0:0:0:0:
256,192,10716,1,8,0:0:0:0:
256,192,10806,1,0,0:0:0:0:
256,192,10986,1,8,0:0:0:0:
256,192,11076,1,8,0:0:0:0:
256,192,11166,1,0,0:0:0:0:
256,192,11346,1,8,0:0:0:0:
256,192,11436,1,8,0:0:0:0:
256,192,11526,1,0,0:0:0:0:
256,192,11706,1,0,0:0:0:0:
256,192,11797,1,0,0:0:0:0:
256,192,11887,1,8,0:0:0:0:
256,192,12247,1,12,0:0:0:0:
256,192,12427,1,4,0:0:0:0:
256,192,12607,1,0,0:0:0:0:
256,192,12697,1,8,0:0:0:0:
256,192,12788,1,8,0:0:0:0:
256,192,12968,1,0,0:0:0:0:
256,192,13058,1,8,0:0:0:0:
256,192,13148,1,8,0:0:0:0:
256,192,13328,1,0,0:0:0:0:
256,192,13418,1,8,0:0:0:0:
256,192,13508,1,8,0:0:0:0:
256,192,13688,1,12,0:0:0:0:
256,192,13869,1,4,0:0:0:0:
256,192,14049,1,0,0:0:0:0:
256,192,14139,1,8,0:0:0:0:
256,192,14229,1,8,0:0:0:0:
256,192,14409,1,12,0:0:0:0:
256,192,14770,1,0,0:0:0:0:
256,192,14860,1,0,0:0:0:0:
256,192,14950,1,8,0:0:0:0:
256,192,15130,1,4,0:0:0:0:
256,192,15310,1,0,0:0:0:0:
256,192,15400,1,0,0:0:0:0:
256,192,15490,1,0,0:0:0:0:
256,192,15670,1,0,0:0:0:0:
256,192,15761,1,0,0:0:0:0:
256,192,15851,1,0,0:0:0:0:
256,192,16031,1,0,0:0:0:0:
256,192,16121,1,0,0:0:0:0:
256,192,16211,1,0,0:0:0:0:
256,192,16391,1,0,0:0:0:0:
256,192,16481,1,0,0:0:0:0:
256,192,16571,1,8,0:0:0:0:
256,192,16661,1,8,0:0:0:0:
256,192,16752,1,0,0:0:0:0:
256,192,16932,1,8,0:0:0:0:
256,192,17022,1,8,0:0:0:0:
256,192,17112,1,0,0:0:0:0:
256,192,17292,1,12,0:0:0:0:
256,192,17472,1,4,0:0:0:0:
256,192,17652,1,12,0:0:0:0:
256,192,17833,1,12,0:0:0:0:
256,192,18013,1,4,0:0:0:0:
256,192,18193,1,8,0:0:0:0:
256,192,18283,1,8,0:0:0:0:
256,192,18373,1,8,0:0:0:0:
256,192,18553,1,8,0:0:0:0:
256,192,18643,1,8,0:0:0:0:
256,192,18734,1,8,0:0:0:0:
256,192,18914,1,8,0:0:0:0:
256,192,19004,1,8,0:0:0:0:
256,192,19094,1,0,0:0:0:0:
256,192,19274,1,8,0:0:0:0:
256,192,19364,1,0,0:0:0:0:
256,192,19454,1,8,0:0:0:0:
256,192,19634,1,0,0:0:0:0:
256,192,19725,1,0,0:0:0:0:
256,192,19815,1,8,0:0:0:0:
256,192,20175,1,4,0:0:0:0:
256,192,20355,1,4,0:0:0:0:
256,192,20535,1,12,0:0:0:0:
256,192,20716,1,4,0:0:0:0:
256,192,20896,1,12,0:0:0:0:
256,192,21076,1,0,0:0:0:0:
256,192,21166,1,0,0:0:0:0:
256,192,21256,1,0,0:0:0:0:
256,192,21436,1,0,0:0:0:0:
256,192,21526,1,0,0:0:0:0:
256,192,21616,1,8,0:0:0:0:
256,192,21797,1,0,0:0:0:0:
256,192,21887,1,0,0:0:0:0:
256,192,21977,1,8,0:0:0:0:
256,192,22067,1,8,0:0:0:0:
256,192,22157,1,0,0:0:0:0:
256,192,22337,1,8,0:0:0:0:
256,192,22427,1,8,0:0:0:0:
256,192,22517,1,8,0:0:0:0:
256,192,22697,1,8,0:0:0:0:
256,192,22788,1,0,0:0:0:0:
256,192,22878,1,8,0:0:0:0:
256,192,23058,1,0,0:0:0:0:
256,192,23178,1,0,0:0:0:0:
256,192,23298,1,8,0:0:0:0:
256,192,23418,1,0,0:0:0:0:
256,192,23538,1,0,0:0:0:0:
256,192,23658,1,0,0:0:0:0:
256,192,23779,1,12,0:0:0:0:
256,192,23959,1,8,0:0:0:0:
256,192,24049,1,8,0:0:0:0:
256,192,24139,1,0,0:0:0:0:
256,192,24319,1,8,0:0:0:0:
256,192,24409,1,8,0:0:0:0:
256,192,24499,1,8,0:0:0:0:
256,192,24679,1,8,0:0:0:0:
256,192,24770,1,8,0:0:0:0:
256,192,24860,1,0,0:0:0:0:
256,192,25040,1,0,0:0:0:0:
256,192,25220,1,4,0:0:0:0:
256,192,25941,1,12,0:0:0:0:
256,192,26301,1,0,0:0:0:0:
256,192,26391,1,0,0:0:0:0:
256,192,26481,1,8,0:0:0:0:
256,192,26661,1,4,0:0:0:0:
256,192,26842,1,4,0:0:0:0:
256,192,27022,1,12,0:0:0:0:
256,192,27202,1,12,0:0:0:0:
256,192,27382,1,4,0:0:0:0:
256,192,27562,1,4,0:0:0:0:
256,192,27743,1,12,0:0:0:0:
256,192,27923,1,0,0:0:0:0:
256,192,28013,1,0,0:0:0:0:
256,192,28103,1,0,0:0:0:0:
256,192,28283,1,12,0:0:0:0:
256,192,28463,1,12,0:0:0:0:
256,192,28643,1,4,0:0:0:0:
256,192,28824,1,4,0:0:0:0:
256,192,29004,1,12,0:0:0:0:
256,192,29184,1,0,0:0:0:0:
256,192,29274,1,0,0:0:0:0:
256,192,29364,1,0,0:0:0:0:
256,192,29544,1,4,0:0:0:0:
256,192,29725,1,12,0:0:0:0:
256,192,29905,1,4,0:0:0:0:
256,192,30085,1,12,0:0:0:0:
256,192,30265,1,12,0:0:0:0:
256,192,30445,1,4,0:0:0:0:
256,192,30625,1,8,0:0:0:0:
256,192,30746,1,0,0:0:0:0:
256,192,30866,1,0,0:0:0:0:
256,192,30986,1,12,0:0:0:0:
256,192,31166,1,0,0:0:0:0:
256,192,31256,1,0,0:0:0:0:
256,192,31346,1,8,0:0:0:0:
256,192,31436,1,8,0:0:0:0:
256,192,31616,1,8,0:0:0:0:
256,192,31706,1,0,0:0:0:0:
256,192,31977,1,0,0:0:0:0:
256,192,32157,1,8,0:0:0:0:
256,192,32247,1,8,0:0:0:0:
256,192,32337,1,0,0:0:0:0:
256,192,32427,1,0,0:0:0:0:
256,192,32788,1,8,0:0:0:0:
256,192,32878,1,8,0:0:0:0:
256,192,32968,1,8,0:0:0:0:
256,192,33148,1,4,0:0:0:0:
256,192,33328,1,4,0:0:0:0:
256,192,33508,1,12,0:0:0:0:
256,192,33688,1,0,0:0:0:0:
256,192,33779,1,0,0:0:0:0:
256,192,33869,1,0,0:0:0:0:
256,192,34049,1,12,0:0:0:0:
256,192,34229,1,4,0:0:0:0:
256,192,34409,1,12,0:0:0:0:
256,192,34589,1,0,0:0:0:0:
256,192,34679,1,0,0:0:0:0:
256,192,34770,1,8,0:0:0:0:
256,192,34860,1,8,0:0:0:0:
256,192,35040,1,8,0:0:0:0:
256,192,35220,1,0,0:0:0:0:
256,192,35490,1,12,0:0:0:0:
256,192,35670,1,4,0:0:0:0:
256,192,35851,1,12,0:0:0:0:
256,192,36211,1,12,0:0:0:0:
256,192,36391,1,12,0:0:0:0:
256,192,36571,1,12,0:0:0:0:
256,192,36752,1,12,0:0:0:0:
256,192,37022,1,4,0:0:0:0:
256,192,37292,1,12,0:0:0:0:
256,192,37652,1,4,0:0:0:0:
256,192,38193,1,12,0:0:0:0:
256,192,38914,1,0,0:0:0:0:
256,192,39094,1,8,0:0:0:0:
256,192,39274,1,0,0:0:0:0:
256,192,39454,1,8,0:0:0:0:
256,192,39544,1,8,0:0:0:0:
256,192,39634,1,0,0:0:0:0:
256,192,39815,1,8,0:0:0:0:
256,192,39905,1,8,0:0:0:0:
256,192,39995,1,0,0:0:0:0:
256,192,40175,1,8,0:0:0:0:
256,192,40355,1,0,0:0:0:0:
256,192,40445,1,0,0:0:0:0:
256,192,40535,1,0,0:0:0:0:
256,192,40716,1,12,0:0:0:0:
256,192,41076,1,4,0:0:0:0:
256,192,41436,1,8,0:0:0:0:
256,192,41797,1,8,0:0:0:0:
256,192,41887,1,0,0:0:0:0:
256,192,41977,1,0,0:0:0:0:
256,192,42067,1,0,0:0:0:0:
256,192,42157,1,8,0:0:0:0:
256,192,42337,1,0,0:0:0:0:
256,192,42427,1,0,0:0:0:0:
256,192,42517,1,8,0:0:0:0:
256,192,42697,1,8,0:0:0:0:
256,192,42788,1,8,0:0:0:0:
256,192,42878,1,0,0:0:0:0:
256,192,43058,1,0,0:0:0:0:
256,192,43148,1,0,0:0:0:0:
256,192,43238,1,8,0:0:0:0:
256,192,43328,1,8,0:0:0:0:
256,192,43418,1,0,0:0:0:0:
256,192,43598,1,8,0:0:0:0:
256,192,43688,1,8,0:0:0:0:
256,192,43779,1,8,0:0:0:0:
256,192,43959,1,0,0:0:0:0:
256,192,44319,1,0,0:0:0:0:
256,192,44679,1,8,0:0:0:0:
256,192,44860,1,8,0:0:0:0:
256,192,44950,1,8,0:0:0:0:
256,192,45040,1,8,0:0:0:0:
256,192,45220,1,8,0:0:0:0:
256,192,45310,1,8,0:0:0:0:
256,192,45400,1,0,0:0:0:0:
256,192,45580,1,8,0:0:0:0:
256,192,45670,1,8,0:0:0:0:
256,192,45761,1,8,0:0:0:0:
256,192,45941,1,8,0:0:0:0:
256,192,46121,1,4,0:0:0:0:
256,192,46301,1,4,0:0:0:0:
256,192,46481,1,12,0:0:0:0:
256,192,46661,1,12,0:0:0:0:
256,192,46842,1,4,0:0:0:0:
256,192,47112,1,4,0:0:0:0:
256,192,47382,1,4,0:0:0:0:
256,192,47743,1,0,0:0:0:0:
256,192,47923,1,8,0:0:0:0:
256,192,48013,1,8,0:0:0:0:
256,192,48103,1,8,0:0:0:0:
256,192,48193,1,8,0:0:0:0:
256,192,48283,1,4,0:0:0:0:
256,192,48463,1,0,0:0:0:0:
256,192,48643,1,8,0:0:0:0:
256,192,48734,1,8,0:0:0:0:
256,192,48824,1,0,0:0:0:0:
256,192,49004,1,12,0:0:0:0:
256,192,49184,1,12,0:0:0:0:
256,192,49364,1,0,0:0:0:0:
256,192,49454,1,0,0:0:0:0:
256,192,49544,1,0,0:0:0:0:
256,192,49634,1,0,0:0:0:0:
256,192,49725,1,8,0:0:0:0:
256,192,49905,1,8,0:0:0:0:
256,192,50085,1,0,0:0:0:0:
256,192,50265,1,8,0:0:0:0:
256,192,50355,1,8,0:0:0:0:
256,192,50445,1,0,0:0:0:0:
256,192,50625,1,0,0:0:0:0:
256,192,50716,1,0,0:0:0:0:
256,192,50806,1,8,0:0:0:0:
256,192,50986,1,0,0:0:0:0:
256,192,51166,1,8,0:0:0:0:
256,192,51526,1,8,0:0:0:0:
256,192,51706,1,8,0:0:0:0:
256,192,51797,1,8,0:0:0:0:
256,192,51887,1,0,0:0:0:0:
256,192,52067,1,0,0:0:0:0:
256,192,52247,1,8,0:0:0:0:
256,192,52607,1,4,0:0:0:0:
256,192,52968,1,4,0:0:0:0:
256,192,53328,1,8,0:0:0:0:
256,192,53418,1,0,0:0:0:0:
256,192,53508,1,0,0:0:0:0:
256,192,53688,1,8,0:0:0:0:
256,192,53779,1,0,0:0:0:0:
256,192,53869,1,8,0:0:0:0:
256,192,54049,1,0,0:0:0:0:
256,192,54229,1,8,0:0:0:0:
256,192,54319,1,0,0:0:0:0:
256,192,54499,1,8,0:0:0:0:
256,192,54589,1,0,0:0:0:0:
256,192,54770,1,8,0:0:0:0:
256,192,54950,1,8,0:0:0:0:
256,192,55130,1,0,0:0:0:0:
256,192,55310,1,0,0:0:0:0:
256,192,55490,1,8,0:0:0:0:
256,192,55670,1,8,0:0:0:0:
256,192,55851,1,0,0:0:0:0:
256,192,55941,1,0,0:0:0:0:
256,192,56031,1,0,0:0:0:0:
256,192,56211,1,8,0:0:0:0:
256,192,56331,1,8,0:0:0:0:
256,192,56451,1,8,0:0:0:0:
256,192,56571,1,0,0:0:0:0:
256,192,56752,1,8,0:0:0:0:
256,192,56842,1,8,0:0:0:0:
256,192,56932,1,8,0:0:0:0:
256,192,57112,1,0,0:0:0:0:
256,192,57292,1,8,0:0:0:0:
256,192,57382,1,8,0:0:0:0:
256,192,57472,1,0,0:0:0:0:
256,192,57562,1,0,0:0:0:0:
256,192,57652,1,8,0:0:0:0:
256,192,57833,1,8,0:0:0:0:
256,192,58013,1,0,0:0:0:0:
256,192,58193,1,0,0:0:0:0:
256,192,58373,1,12,0:0:0:0:
256,192,58734,1,4,0:0:0:0:
256,192,59094,1,8,0:0:0:0:
256,192,59184,1,8,0:0:0:0:
256,192,59274,1,8,0:0:0:0:
256,192,59454,1,4,0:0:0:0:
256,192,59815,1,8,0:0:0:0:
256,192,59905,1,8,0:0:0:0:
256,192,59995,1,8,0:0:0:0:
256,192,60175,1,4,0:0:0:0:
256,192,60355,1,0,0:0:0:0:
256,192,60535,1,8,0:0:0:0:
256,192,60716,1,8,0:0:0:0:
256,192,60896,1,0,0:0:0:0:
256,192,60986,1,0,0:0:0:0:
256,192,61076,1,0,0:0:0:0:
256,192,61256,1,8,0:0:0:0:
256,192,61526,1,0,0:0:0:0:
256,192,61616,1,8,0:0:0:0:
256,192,61797,1,0,0:0:0:0:
256,192,61977,1,8,0:0:0:0:
256,192,62067,1,8,0:0:0:0:
256,192,62157,1,8,0:0:0:0:
256,192,62337,1,0,0:0:0:0:
256,192,62427,1,0,0:0:0:0:
256,192,62517,1,8,0:0:0:0:
256,192,62697,1,0,0:0:0:0:
256,192,62878,1,8,0:0:0:0:
256,192,62968,1,8,0:0:0:0:
256,192,63058,1,0,0:0:0:0:
256,192,63238,1,8,0:0:0:0:
256,192,63328,1,0,0:0:0:0:
256,192,63418,1,8,0:0:0:0:
256,192,63598,1,0,0:0:0:0:
256,192,63688,1,0,0:0:0:0:
256,192,63779,1,8,0:0:0:0:
256,192,63959,1,8,0:0:0:0:
256,192,64139,1,4,0:0:0:0:
256,192,64319,12,0,69725,0:0:0:0:
256,192,69905,5,0,0:0:0:0:
256,192,70265,1,0,0:0:0:0:
256,192,70625,1,0,0:0:0:0:
256,192,70806,1,0,0:0:0:0:
256,192,70986,1,8,0:0:0:0:
256,192,71166,1,8,0:0:0:0:
256,192,71256,1,8,0:0:0:0:
256,192,71346,1,8,0:0:0:0:
256,192,71706,1,8,0:0:0:0:
256,192,72067,1,8,0:0:0:0:
256,192,72247,1,0,0:0:0:0:
256,192,72427,1,8,0:0:0:0:
256,192,72607,1,0,0:0:0:0:
256,192,72788,1,8,0:0:0:0:
256,192,72968,1,0,0:0:0:0:
256,192,73058,1,0,0:0:0:0:
256,192,73148,1,8,0:0:0:0:
256,192,73328,1,0,0:0:0:0:
256,192,73418,1,0,0:0:0:0:
256,192,73508,1,8,0:0:0:0:
256,192,73688,1,0,0:0:0:0:
256,192,73869,1,8,0:0:0:0:
256,192,73959,1,8,0:0:0:0:
256,192,74049,1,8,0:0:0:0:
256,192,74139,1,8,0:0:0:0:
256,192,74229,1,0,0:0:0:0:
256,192,74950,1,8,0:0:0:0:
256,192,75040,1,0,0:0:0:0:
256,192,75130,1,0,0:0:0:0:
256,192,75310,1,8,0:0:0:0:
256,192,75670,1,12,0:0:0:0:
256,192,75851,1,4,0:0:0:0:
256,192,76031,1,0,0:0:0:0:
256,192,76121,1,8,0:0:0:0:
256,192,76211,1,8,0:0:0:0:
256,192,76391,1,12,0:0:0:0:
256,192,76571,1,4,0:0:0:0:
256,192,76752,1,0,0:0:0:0:
256,192,76842,1,8,0:0:0:0:
256,192,76932,1,8,0:0:0:0:
256,192,77112,1,12,0:0:0:0:
256,192,77292,1,4,0:0:0:0:
256,192,77472,1,0,0:0:0:0:
256,192,77562,1,8,0:0:0:0:
256,192,77652,1,8,0:0:0:0:
256,192,77833,1,12,0:0:0:0:
256,192,78013,1,12,0:0:0:0:
256,192,78193,1,4,0:0:0:0:
256,192,78553,1,12,0:0:0:0:
256,192,78734,1,12,0:0:0:0:
256,192,78914,1,0,0:0:0:0:
256,192,79004,1,8,0:0:0:0:
256,192,79094,1,8,0:0:0:0:
256,192,79274,1,12,0:0:0:0:
256,192,79454,1,4,0:0:0:0:
256,192,79634,1,0,0:0:0:0:
256,192,79725,1,8,0:0:0:0:
256,192,79815,1,8,0:0:0:0:
256,192,79995,1,12,0:0:0:0:
256,192,80175,1,4,0:0:0:0:
256,192,80355,1,0,0:0:0:0:
256,192,80445,1,8,0:0:0:0:
256,192,80535,1,8,0:0:0:0:
256,192,80716,1,12,0:0:0:0:
256,192,80896,1,4,0:0:0:0:
256,192,81076,1,12,0:0:0:0:
256,192,81436,1,4,0:0:0:0:
256,192,81616,8,0,84139,0:0:0:0:
256,192,84319,5,0,0:0:0:0:
256,192,84499,1,8,0:0:0:0:
256,192,84679,1,0,0:0:0:0:
256,192,84860,1,8,0:0:0:0:
256,192,84950,1,8,0:0:0:0:
256,192,85040,1,8,0:0:0:0:
256,192,85220,1,8,0:0:0:0:
256,192,85310,1,0,0:0:0:0:
256,192,85400,1,8,0:0:0:0:
256,192,85580,1,8,0:0:0:0:
256,192,85761,1,4,0:0:0:0:
256,192,87202,1,8,0:0:0:0:
256,192,87382,1,8,0:0:0:0:
256,192,87562,1,0,0:0:0:0:
256,192,87743,1,0,0:0:0:0:
256,192,87923,1,8,0:0:0:0:
256,192,88103,1,8,0:0:0:0:
256,192,88283,1,0,0:0:0:0:
256,192,88373,1,0,0:0:0:0:
256,192,88463,1,8,0:0:0:0:
256,192,88643,1,12,0:0:0:0:
256,192,88824,1,4,0:0:0:0:
256,192,89004,1,8,0:0:0:0:
256,192,89184,1,8,0:0:0:0:
256,192,89364,1,4,0:0:0:0:
256,192,89544,1,4,0:0:0:0:
256,192,89725,1,4,0:0:0:0:
256,192,89905,1,4,0:0:0:0:
256,192,90085,1,12,0:0:0:0:
256,192,90265,1,12,0:0:0:0:
256,192,90445,1,0,0:0:0:0:
256,192,90625,1,0,0:0:0:0:
256,192,90806,1,12,0:0:0:0:
256,192,90986,1,12,0:0:0:0:
256,192,91166,1,4,0:0:0:0:
256,192,91346,1,8,0:0:0:0:
256,192,91436,1,8,0:0:0:0:
256,192,91526,1,8,0:0:0:0:
256,192,91706,1,8,0:0:0:0:
256,192,91887,1,0,0:0:0:0:
256,192,92067,1,0,0:0:0:0:
256,192,92247,1,12,0:0:0:0:
256,192,92427,1,12,0:0:0:0:
256,192,92607,1,4,0:0:0:0:
256,192,92788,1,12,0:0:0:0:
256,192,92968,1,4,0:0:0:0:
256,192,93148,1,8,0:0:0:0:
256,192,93238,1,8,0:0:0:0:
256,192,93328,1,0,0:0:0:0:
256,192,93418,1,0,0:0:0:0:
256,192,93508,1,8,0:0:0:0:
256,192,93688,1,0,0:0:0:0:
256,192,93779,1,0,0:0:0:0:
256,192,93869,1,8,0:0:0:0:
256,192,94049,1,0,0:0:0:0:
256,192,94139,1,0,0:0:0:0:
256,192,94229,1,8,0:0:0:0:
256,192,94589,1,0,0:0:0:0:
256,192,94679,1,0,0:0:0:0:
256,192,94770,1,8,0:0:0:0:
256,192,94950,1,8,0:0:0:0:
256,192,95130,1,4,0:0:0:0:
256,192,95310,1,4,0:0:0:0:
256,192,95490,1,12,0:0:0:0:
256,192,95670,1,12,0:0:0:0:
256,192,95851,1,4,0:0:0:0:
256,192,96031,1,12,0:0:0:0:
256,192,96211,1,0,0:0:0:0:
256,192,96391,1,0,0:0:0:0:
256,192,96571,1,8,0:0:0:0:
256,192,96661,1,8,0:0:0:0:
256,192,96752,1,0,0:0:0:0:
256,192,96932,1,8,0:0:0:0:
256,192,97052,1,8,0:0:0:0:
256,192,97172,1,8,0:0:0:0:
256,192,97292,1,0,0:0:0:0:
256,192,97472,1,0,0:0:0:0:
256,192,97652,1,12,0:0:0:0:
256,192,97833,1,12,0:0:0:0:
256,192,98013,1,0,0:0:0:0:
256,192,98103,1,0,0:0:0:0:
256,192,98193,1,8,0:0:0:0:
256,192,98373,1,0,0:0:0:0:
256,192,98463,1,0,0:0:0:0:
256,192,98553,1,8,0:0:0:0:
256,192,98643,1,8,0:0:0:0:
256,192,98734,1,0,0:0:0:0:
256,192,98914,1,0,0:0:0:0:
256,192,99094,1,8,0:0:0:0:
256,192,99274,1,8,0:0:0:0:
256,192,99815,1,0,0:0:0:0:
256,192,99905,1,0,0:0:0:0:
256,192,99995,1,0,0:0:0:0:
256,192,100175,1,12,0:0:0:0:
256,192,100355,1,12,0:0:0:0:
256,192,100535,1,4,0:0:0:0:
256,192,100716,1,4,0:0:0:0:
256,192,100896,1,12,0:0:0:0:
256,192,101076,1,12,0:0:0:0:
256,192,101256,1,4,0:0:0:0:
256,192,101436,1,12,0:0:0:0:
256,192,101616,1,12,0:0:0:0:
256,192,101797,1,12,0:0:0:0:
256,192,101977,1,4,0:0:0:0:
256,192,102157,1,4,0:0:0:0:
256,192,102337,1,12,0:0:0:0:
256,192,102517,1,4,0:0:0:0:
256,192,102697,1,12,0:0:0:0:
256,192,102878,1,8,0:0:0:0:
256,192,102968,1,8,0:0:0:0:
256,192,103058,1,8,0:0:0:0:
256,192,103238,1,12,0:0:0:0:
256,192,103418,1,12,0:0:0:0:
256,192,103598,1,12,0:0:0:0:
256,192,103779,1,4,0:0:0:0:
256,192,103959,1,4,0:0:0:0:
256,192,104139,1,12,0:0:0:0:
256,192,104319,1,12,0:0:0:0:
256,192,104499,1,4,0:0:0:0:
256,192,104679,1,8,0:0:0:0:
256,192,104770,1,8,0:0:0:0:
256,192,104860,1,0,0:0:0:0:
256,192,104950,1,0,0:0:0:0:
256,192,105040,1,8,0:0:0:0:
256,192,105220,1,0,0:0:0:0:
256,192,105310,1,0,0:0:0:0:
256,192,105400,1,8,0:0:0:0:
256,192,105580,1,0,0:0:0:0:
256,192,105670,1,8,0:0:0:0:
256,192,105851,1,8,0:0:0:0:
256,192,105941,1,4,0:0:0:0:
256,192,106121,1,4,0:0:0:0:
256,192,106301,1,8,0:0:0:0:
256,192,106391,1,8,0:0:0:0:
256,192,106481,1,8,0:0:0:0:
256,192,106661,1,0,0:0:0:0:
256,192,106752,1,0,0:0:0:0:
256,192,106842,1,0,0:0:0:0:
256,192,106932,1,8,0:0:0:0:
256,192,107382,1,4,0:0:0:0:
256,192,107562,1,0,0:0:0:0:
256,192,107652,1,0,0:0:0:0:
256,192,107743,1,0,0:0:0:0:
256,192,107833,1,8,0:0:0:0:
256,192,108013,1,0,0:0:0:0:
256,192,108103,1,8,0:0:0:0:
256,192,108193,1,8,0:0:0:0:
256,192,108283,1,0,0:0:0:0:
256,192,108824,1,12,0:0:0:0:
256,192,109004,1,8,0:0:0:0:
256,192,109094,1,8,0:0:0:0:
256,192,109184,1,0,0:0:0:0:
256,192,109274,1,0,0:0:0:0:
256,192,109364,1,8,0:0:0:0:
256,192,109544,1,4,0:0:0:0:
256,192,109725,1,0,0:0:0:0:
256,192,109815,1,0,0:0:0:0:
256,192,109905,1,8,0:0:0:0:
256,192,109995,1,8,0:0:0:0:
256,192,110085,1,0,0:0:0:0:
256,192,110265,1,8,0:0:0:0:
256,192,110355,1,8,0:0:0:0:
256,192,110445,1,8,0:0:0:0:
256,192,110625,1,8,0:0:0:0:
256,192,110716,1,8,0:0:0:0:
256,192,110806,1,8,0:0:0:0:
256,192,110986,1,0,0:0:0:0:
256,192,111706,1,8,0:0:0:0:
256,192,111797,1,8,0:0:0:0:
256,192,111887,1,8,0:0:0:0:
256,192,111977,1,8,0:0:0:0:
256,192,112067,1,8,0:0:0:0:
256,192,112247,1,8,0:0:0:0:
256,192,112337,1,8,0:0:0:0:
256,192,112427,1,8,0:0:0:0:
256,192,112517,1,8,0:0:0:0:
256,192,112607,1,8,0:0:0:0:
256,192,112788,1,8,0:0:0:0:
256,192,112878,1,8,0:0:0:0:
256,192,112968,1,8,0:0:0:0:
256,192,113058,1,8,0:0:0:0:
256,192,113148,1,8,0:0:0:0:
256,192,113328,1,8,0:0:0:0:
256,192,113418,1,8,0:0:0:0:
256,192,113508,1,8,0:0:0:0:
256,192,113598,1,8,0:0:0:0:
256,192,113688,1,8,0:0:0:0:
256,192,113869,1,8,0:0:0:0:
256,192,114049,1,4,0:0:0:0:
256,192,114229,1,4,0:0:0:0:
256,192,114409,1,4,0:0:0:0:
256,192,114589,1,8,0:0:0:0:
256,192,114679,1,8,0:0:0:0:
256,192,114770,1,8,0:0:0:0:
256,192,114860,1,8,0:0:0:0:
256,192,114950,1,8,0:0:0:0:
256,192,115130,1,8,0:0:0:0:
256,192,115220,1,8,0:0:0:0:
256,192,115310,1,8,0:0:0:0:
256,192,115400,1,8,0:0:0:0:
256,192,115490,1,8,0:0:0:0:
256,192,115670,1,8,0:0:0:0:
256,192,115761,1,8,0:0:0:0:
256,192,115851,1,8,0:0:0:0:
256,192,115941,1,8,0:0:0:0:
256,192,116031,1,8,0:0:0:0:
256,192,116211,1,4,0:0:0:0:
256,192,116391,1,0,0:0:0:0:
256,192,116481,1,8,0:0:0:0:
256,192,116571,1,8,0:0:0:0:
256,192,116752,1,0,0:0:0:0:
256,192,116842,1,8,0:0:0:0:
256,192,116932,1,8,0:0:0:0:
256,192,117112,1,0,0:0:0:0:
256,192,117202,1,8,0:0:0:0:
256,192,117292,1,8,0:0:0:0:
256,192,117472,1,4,0:0:0:0:
