osu file format v14

[General]
AudioFilename: audio.mp3
AudioLeadIn: 0
PreviewTime: 75220
Countdown: 0
SampleSet: Normal
StackLeniency: 0.7
Mode: 1
LetterboxInBreaks: 0
WidescreenStoryboard: 0

[Editor]
DistanceSpacing: 1.1
BeatDivisor: 6
GridSize: 32
TimelineZoom: 2.5

[Metadata]
Title:666
TitleUnicode:666
Artist:RoughSketch
ArtistUnicode:RoughSketch
Creator:Cynplytholowazy
Version:CHI'S GRAVITY
Source:SOUND VOLTEX VIVID WAVE
Tags:SDVX The 9th KAC KONAMI Arcade Championship Original Gakkyoku Song Contest オリジナル楽曲コンテスト BEMANI Electronic Instrumental HEXA DIVER Kureha [_Chichinya_] Peter Faputa
BeatmapID:2313755
BeatmapSetID:1107042

[Difficulty]
HPDrainRate:6.3
CircleSize:2
OverallDifficulty:6.3
ApproachRate:10
SliderMultiplier:2.64
SliderTickRate:1

[Events]
//Background and Video events
0,0,"opera_9s4LGClyl6.jpg",0,86
//Break Periods
//Storyboard Layer 0 (Background)
//Storyboard Layer 1 (Fail)
//Storyboard Layer 2 (Pass)
//Storyboard Layer 3 (Foreground)
//Storyboard Layer 4 (Overlay)
//Storyboard Sound Samples

[TimingPoints]
716,360.36036036036,4,1,0,40,1,0
716,-125,4,1,0,40,0,0
7202,-125,4,1,0,41,0,0
7923,-125,4,1,0,42,0,0
8643,-125,4,1,0,43,0,0
9364,-125,4,1,0,44,0,0
10085,-125,4,1,0,45,0,0
10806,-125,4,1,0,46,0,0
12157,-125,4,1,0,50,0,0
26639,-125,4,1,0,48,0,0
38103,-125,4,1,0,50,0,0
38891,-125,4,1,0,45,0,0
40986,-125,4,1,0,50,0,0
53238,-125,4,1,0,46,0,0
63688,-125,4,1,0,48,0,0
64049,-125,4,1,0,50,0,0
64499,-125,4,1,0,40,0,0
70625,-125,4,1,0,41,0,0
71346,-125,4,1,0,42,0,0
72067,-125,4,1,0,43,0,0
72788,-125,4,1,0,44,0,0
73508,-125,4,1,0,45,0,0
74229,-125,4,1,0,46,0,0
75580,-125,4,1,0,50,0,0
88643,-111.1111111,4,1,0,55,0,1
88734,-111.1111111,4,1,0,55,0,1
94409,-111.1111111,4,1,0,50,0,0
94544,-111.1111111,4,1,0,55,0,0
94770,-111.1111111,4,1,0,55,0,1
98824,-111.1111111,4,1,0,54,0,1
99004,-111.1111111,4,1,0,53,0,1
99184,-111.1111111,4,1,0,52,0,1
99274,-111.1111111,4,1,0,52,0,1
99454,-111.1111111,4,1,0,52,0,0
99995,-108.6956522,4,1,0,52,0,0
100040,-106.3829787,4,1,0,52,0,0
100085,-104.1666667,4,1,0,52,0,0
100130,-102.0408163,4,1,0,52,0,0
100175,-100,4,1,0,55,0,1
107022,-100,4,1,0,55,0,0
107382,-98.03921569,4,1,0,55,0,1
108463,-100,4,1,0,55,0,0
108824,-96.1538461538461,4,1,0,55,0,1
110986,-96.1538461538461,4,1,0,50,0,0
111706,-100,4,1,0,55,0,1
111752,-98.03921569,4,1,0,55,0,1
111842,-96.15384615,4,1,0,55,0,1
111932,-94.33962264,4,1,0,55,0,1
112022,-92.59259259,4,1,0,55,0,1
112112,-90.90909091,4,1,0,55,0,1
112202,-89.28571429,4,1,0,55,0,1
112292,-87.71929825,4,1,0,55,0,1
112382,-86.20689655,4,1,0,55,0,1
112472,-84.74576271,4,1,0,55,0,1
112562,-83.33333333,4,1,0,55,0,1
112652,-81.96721311,4,1,0,55,0,1
112743,-80.64516129,4,1,0,55,0,1
112833,-79.36507937,4,1,0,55,0,1
112923,-78.125,4,1,0,55,0,1
113013,-76.92307692,4,1,0,55,0,1
113103,-75.75757576,4,1,0,55,0,1
113193,-74.62686567,4,1,0,55,0,1
113283,-73.52941176,4,1,0,55,0,1
113373,-72.46376812,4,1,0,55,0,1
113463,-71.42857143,4,1,0,55,0,1
113553,-70.42253521,4,1,0,55,0,1
113643,-69.44444444,4,1,0,55,0,1
113734,-68.49315068,4,1,0,55,0,1
113824,-67.56756757,4,1,0,55,0,1
114004,-76.92307692,4,1,0,55,0,1
114184,-83.33333333,4,1,0,55,0,1
114364,-90.90909091,4,1,0,55,0,1
114589,-100,4,1,0,55,0,1
114635,-98.03921569,4,1,0,55,0,1
114725,-96.15384615,4,1,0,55,0,1
114815,-94.33962264,4,1,0,55,0,1
114905,-92.59259259,4,1,0,55,0,1
114995,-90.90909091,4,1,0,55,0,1
115085,-89.28571429,4,1,0,55,0,1
115175,-87.71929825,4,1,0,55,0,1
115265,-86.20689655,4,1,0,55,0,1
115355,-84.74576271,4,1,0,55,0,1
115445,-83.33333333,4,1,0,55,0,1
115535,-81.96721311,4,1,0,55,0,1
115626,-80.64516129,4,1,0,55,0,1
115716,-79.36507937,4,1,0,55,0,1
115806,-78.125,4,1,0,55,0,1
115896,-76.92307692,4,1,0,55,0,1
115986,-75.75757576,4,1,0,55,0,1
116076,-86.95652174,4,1,0,55,0,1
116346,-100,4,1,0,55,0,1
117472,-100,4,1,0,55,0,0

[HitObjects]
256,192,716,5,12,0:0:0:0:
256,192,896,1,0,0:0:0:0:
256,192,986,1,0,0:0:0:0:
256,192,1076,1,8,0:0:0:0:
256,192,1166,1,8,0:0:0:0:
256,192,1256,1,0,0:0:0:0:
256,192,1346,1,0,0:0:0:0:
256,192,1436,1,8,0:0:0:0:
256,192,1616,1,8,0:0:0:0:
256,192,1706,1,8,0:0:0:0:
256,192,1797,1,0,0:0:0:0:
256,192,1887,1,0,0:0:0:0:
256,192,1977,1,8,0:0:0:0:
256,192,2067,1,8,0:0:0:0:
256,192,2157,1,0,0:0:0:0:
256,192,2337,1,0,0:0:0:0:
256,192,2427,1,0,0:0:0:0:
256,192,2517,1,8,0:0:0:0:
256,192,2607,1,8,0:0:0:0:
256,192,2697,1,0,0:0:0:0:
256,192,2788,1,0,0:0:0:0:
256,192,2878,1,8,0:0:0:0:
256,192,3058,1,12,0:0:0:0:
256,192,3238,1,12,0:0:0:0:
256,192,3418,1,0,0:0:0:0:
256,192,3508,1,0,0:0:0:0:
256,192,3598,1,12,0:0:0:0:
256,192,3779,1,0,0:0:0:0:
256,192,3869,1,0,0:0:0:0:
256,192,3959,1,8,0:0:0:0:
256,192,4049,1,8,0:0:0:0:
256,192,4139,1,0,0:0:0:0:
256,192,4229,1,0,0:0:0:0:
256,192,4319,1,8,0:0:0:0:
256,192,4499,1,8,0:0:0:0:
256,192,4590,1,8,0:0:0:0:
256,192,4680,1,8,0:0:0:0:
256,192,4770,1,0,0:0:0:0:
256,192,4860,1,0,0:0:0:0:
256,192,4950,1,8,0:0:0:0:
256,192,5040,1,0,0:0:0:0:
256,192,5220,1,0,0:0:0:0:
256,192,5310,1,0,0:0:0:0:
256,192,5400,1,0,0:0:0:0:
256,192,5490,1,8,0:0:0:0:
256,192,5580,1,8,0:0:0:0:
256,192,5670,1,0,0:0:0:0:
256,192,5761,1,8,0:0:0:0:
256,192,5941,1,12,0:0:0:0:
256,192,6121,1,12,0:0:0:0:
256,192,6301,1,4,0:0:0:0:
256,192,6481,1,0,0:0:0:0:
256,192,6661,1,0,0:0:0:0:
256,192,6842,1,0,0:0:0:0:
256,192,7022,1,0,0:0:0:0:
256,192,7202,1,0,0:0:0:0:
256,192,7382,1,0,0:0:0:0:
256,192,7562,1,0,0:0:0:0:
256,192,7652,1,0,0:0:0:0:
256,192,7743,1,8,0:0:0:0:
256,192,7788,1,8,0:0:0:0:
256,192,7833,1,8,0:0:0:0:
256,192,7923,1,0,0:0:0:0:
256,192,8103,1,0,0:0:0:0:
256,192,8283,1,0,0:0:0:0:
256,192,8463,1,0,0:0:0:0:
256,192,8643,1,0,0:0:0:0:
256,192,8824,1,0,0:0:0:0:
256,192,9004,1,0,0:0:0:0:
256,192,9184,1,0,0:0:0:0:
256,192,9274,1,0,0:0:0:0:
256,192,9364,1,8,0:0:0:0:
256,192,9454,1,0,0:0:0:0:
256,192,9544,1,8,0:0:0:0:
256,192,9634,1,8,0:0:0:0:
256,192,9725,1,8,0:0:0:0:
256,192,9815,1,0,0:0:0:0:
256,192,9905,1,8,0:0:0:0:
256,192,9995,1,8,0:0:0:0:
256,192,10085,1,8,0:0:0:0:
256,192,10175,1,0,0:0:0:0:
256,192,10265,1,8,0:0:0:0:
256,192,10355,1,8,0:0:0:0:
256,192,10445,1,8,0:0:0:0:
256,192,10535,1,0,0:0:0:0:
256,192,10625,1,8,0:0:0:0:
256,192,10716,1,8,0:0:0:0:
256,192,10806,1,8,0:0:0:0:
256,192,10896,1,0,0:0:0:0:
256,192,10986,1,8,0:0:0:0:
256,192,11076,1,8,0:0:0:0:
256,192,11166,1,8,0:0:0:0:
256,192,11256,1,0,0:0:0:0:
256,192,11346,1,8,0:0:0:0:
256,192,11436,1,8,0:0:0:0:
256,192,11526,1,0,0:0:0:0:
256,192,11586,1,0,0:0:0:0:
256,192,11646,1,8,0:0:0:0:
256,192,11706,1,8,0:0:0:0:
256,192,11767,1,0,0:0:0:0:
256,192,11827,1,0,0:0:0:0:
256,192,11887,1,8,0:0:0:0:
256,192,12247,1,12,0:0:0:0:
256,192,12427,1,12,0:0:0:0:
256,192,12607,1,8,0:0:0:0:
256,192,12667,1,8,0:0:0:0:
256,192,12728,1,8,0:0:0:0:
256,192,12788,1,0,0:0:0:0:
256,192,12878,1,0,0:0:0:0:
256,192,12968,1,8,0:0:0:0:
256,192,13028,1,8,0:0:0:0:
256,192,13088,1,8,0:0:0:0:
256,192,13148,1,0,0:0:0:0:
256,192,13238,1,0,0:0:0:0:
256,192,13328,1,8,0:0:0:0:
256,192,13388,1,8,0:0:0:0:
256,192,13448,1,8,0:0:0:0:
256,192,13508,1,0,0:0:0:0:
256,192,13598,1,0,0:0:0:0:
256,192,13688,1,12,0:0:0:0:
256,192,13869,1,12,0:0:0:0:
256,192,14049,1,8,0:0:0:0:
256,192,14109,1,8,0:0:0:0:
256,192,14170,1,8,0:0:0:0:
256,192,14230,1,0,0:0:0:0:
256,192,14320,1,0,0:0:0:0:
256,192,14410,1,12,0:0:0:0:
256,192,14770,1,8,0:0:0:0:
256,192,14860,1,8,0:0:0:0:
256,192,14950,1,0,0:0:0:0:
256,192,15040,1,0,0:0:0:0:
256,192,15130,1,12,0:0:0:0:
256,192,15310,1,0,0:0:0:0:
256,192,15400,1,0,0:0:0:0:
256,192,15490,1,0,0:0:0:0:
256,192,15580,1,0,0:0:0:0:
256,192,15670,1,0,0:0:0:0:
256,192,15761,1,0,0:0:0:0:
256,192,15851,1,0,0:0:0:0:
256,192,15941,1,0,0:0:0:0:
256,192,16031,1,0,0:0:0:0:
256,192,16121,1,0,0:0:0:0:
256,192,16211,1,0,0:0:0:0:
256,192,16301,1,0,0:0:0:0:
256,192,16391,1,0,0:0:0:0:
256,192,16481,1,0,0:0:0:0:
256,192,16571,1,0,0:0:0:0:
256,192,16661,1,0,0:0:0:0:
256,192,16752,1,0,0:0:0:0:
256,192,16842,1,0,0:0:0:0:
256,192,16932,1,0,0:0:0:0:
256,192,17022,1,0,0:0:0:0:
256,192,17112,1,0,0:0:0:0:
256,192,17202,1,0,0:0:0:0:
256,192,17292,1,12,0:0:0:0:
256,192,17472,1,12,0:0:0:0:
256,192,17652,1,4,0:0:0:0:
256,192,17833,1,4,0:0:0:0:
256,192,18013,1,12,0:0:0:0:
256,192,18193,1,0,0:0:0:0:
256,192,18283,1,0,0:0:0:0:
256,192,18373,1,0,0:0:0:0:
256,192,18463,1,0,0:0:0:0:
256,192,18553,1,0,0:0:0:0:
256,192,18643,1,0,0:0:0:0:
256,192,18734,1,0,0:0:0:0:
256,192,18824,1,0,0:0:0:0:
256,192,18914,1,0,0:0:0:0:
256,192,19004,1,0,0:0:0:0:
256,192,19094,1,8,0:0:0:0:
256,192,19274,1,8,0:0:0:0:
256,192,19364,1,8,0:0:0:0:
256,192,19454,1,0,0:0:0:0:
256,192,19634,1,12,0:0:0:0:
256,192,19905,1,4,0:0:0:0:
256,192,20175,1,12,0:0:0:0:
256,192,20355,1,12,0:0:0:0:
256,192,20535,1,12,0:0:0:0:
256,192,20716,1,8,0:0:0:0:
256,192,20806,1,8,0:0:0:0:
256,192,20896,1,4,0:0:0:0:
256,192,21076,1,0,0:0:0:0:
256,192,21166,1,0,0:0:0:0:
256,192,21256,1,0,0:0:0:0:
256,192,21346,1,0,0:0:0:0:
256,192,21436,1,0,0:0:0:0:
256,192,21526,1,0,0:0:0:0:
256,192,21616,1,8,0:0:0:0:
256,192,21797,1,8,0:0:0:0:
256,192,21887,1,0,0:0:0:0:
256,192,21977,1,8,0:0:0:0:
256,192,22067,1,8,0:0:0:0:
256,192,22157,1,0,0:0:0:0:
256,192,22247,1,0,0:0:0:0:
256,192,22337,1,8,0:0:0:0:
256,192,22517,1,0,0:0:0:0:
256,192,22607,1,0,0:0:0:0:
256,192,22697,1,0,0:0:0:0:
256,192,22788,1,0,0:0:0:0:
256,192,22878,1,8,0:0:0:0:
256,192,22923,1,8,0:0:0:0:
256,192,22968,1,8,0:0:0:0:
256,192,23058,1,4,0:0:0:0:
256,192,23178,1,4,0:0:0:0:
256,192,23298,1,12,0:0:0:0:
256,192,23418,1,12,0:0:0:0:
256,192,23538,1,4,0:0:0:0:
256,192,23658,1,12,0:0:0:0:
256,192,23779,1,4,0:0:0:0:
256,192,23959,1,8,0:0:0:0:
256,192,24049,1,8,0:0:0:0:
256,192,24139,1,0,0:0:0:0:
256,192,24184,1,0,0:0:0:0:
256,192,24229,1,0,0:0:0:0:
256,192,24319,1,8,0:0:0:0:
256,192,24409,1,8,0:0:0:0:
256,192,24499,1,0,0:0:0:0:
256,192,24589,1,0,0:0:0:0:
256,192,24679,1,8,0:0:0:0:
256,192,24770,1,8,0:0:0:0:
256,192,24860,1,4,0:0:0:0:
256,192,24950,1,12,0:0:0:0:
256,192,25130,1,12,0:0:0:0:
256,192,25220,1,4,0:0:0:0:
128,192,25580,2,0,B|128:128|128:128|224:128|224:128|256:192,1,211.2
256,192,26301,1,8,0:0:0:0:
256,192,26391,1,8,0:0:0:0:
256,192,26481,1,0,0:0:0:0:
256,192,26571,1,0,0:0:0:0:
256,192,26661,1,12,0:0:0:0:
256,192,26842,1,12,0:0:0:0:
256,192,27022,1,4,0:0:0:0:
256,192,27202,1,12,0:0:0:0:
256,192,27382,1,4,0:0:0:0:
256,192,27562,1,12,0:0:0:0:
256,192,27743,1,12,0:0:0:0:
256,192,27923,1,4,0:0:0:0:
256,192,28013,1,4,0:0:0:0:
256,192,28103,1,12,0:0:0:0:
256,192,28283,1,12,0:0:0:0:
256,192,28463,1,4,0:0:0:0:
256,192,28643,1,12,0:0:0:0:
256,192,28824,1,12,0:0:0:0:
256,192,29004,1,4,0:0:0:0:
256,192,29184,1,4,0:0:0:0:
256,192,29274,1,12,0:0:0:0:
256,192,29364,1,4,0:0:0:0:
256,192,29544,1,12,0:0:0:0:
256,192,29725,1,12,0:0:0:0:
256,192,29905,1,4,0:0:0:0:
256,192,30085,1,4,0:0:0:0:
256,192,30265,1,12,0:0:0:0:
256,192,30445,1,4,0:0:0:0:
256,192,30625,1,12,0:0:0:0:
256,192,30746,1,12,0:0:0:0:
256,192,30866,1,4,0:0:0:0:
256,192,30986,1,4,0:0:0:0:
256,192,31166,1,12,0:0:0:0:
256,192,31346,1,4,0:0:0:0:
256,192,31436,1,12,0:0:0:0:
256,192,31616,1,12,0:0:0:0:
256,192,31706,1,4,0:0:0:0:
256,192,31977,1,4,0:0:0:0:
256,192,32157,1,4,0:0:0:0:
256,192,32247,1,4,0:0:0:0:
256,192,32337,1,12,0:0:0:0:
256,192,32788,1,12,0:0:0:0:
256,192,32878,1,12,0:0:0:0:
256,192,32968,1,4,0:0:0:0:
256,192,33148,1,4,0:0:0:0:
256,192,33328,1,12,0:0:0:0:
256,192,33508,1,12,0:0:0:0:
256,192,33688,1,4,0:0:0:0:
256,192,33779,1,12,0:0:0:0:
256,192,33869,1,4,0:0:0:0:
256,192,34049,1,4,0:0:0:0:
256,192,34229,1,12,0:0:0:0:
256,192,34409,1,12,0:0:0:0:
256,192,34589,1,4,0:0:0:0:
256,192,34679,1,12,0:0:0:0:
256,192,34860,1,12,0:0:0:0:
256,192,35040,1,4,0:0:0:0:
256,192,35220,1,12,0:0:0:0:
256,192,35490,1,4,0:0:0:0:
256,192,35670,1,4,0:0:0:0:
256,192,35851,1,4,0:0:0:0:
256,192,36211,1,12,0:0:0:0:
256,192,36391,1,12,0:0:0:0:
256,192,36571,1,12,0:0:0:0:
256,192,36752,1,4,0:0:0:0:
256,192,36932,1,4,0:0:0:0:
256,192,37022,1,12,0:0:0:0:
256,192,37202,1,12,0:0:0:0:
256,192,37292,1,4,0:0:0:0:
256,192,37652,1,4,0:0:0:0:
256,192,38193,1,12,0:0:0:0:
256,192,38914,1,0,0:0:0:0:
256,192,39004,1,8,0:0:0:0:
256,192,39094,1,8,0:0:0:0:
256,192,39184,1,8,0:0:0:0:
256,192,39274,1,0,0:0:0:0:
256,192,39364,1,8,0:0:0:0:
256,192,39454,1,8,0:0:0:0:
256,192,39544,1,8,0:0:0:0:
256,192,39634,1,0,0:0:0:0:
256,192,39725,1,0,0:0:0:0:
256,192,39815,1,8,0:0:0:0:
256,192,39905,1,8,0:0:0:0:
256,192,39995,1,0,0:0:0:0:
256,192,40085,1,0,0:0:0:0:
256,192,40175,1,8,0:0:0:0:
256,192,40265,1,8,0:0:0:0:
256,192,40355,1,0,0:0:0:0:
256,192,40716,1,12,0:0:0:0:
256,192,41076,1,4,0:0:0:0:
256,192,41436,1,0,0:0:0:0:
256,192,41797,1,0,0:0:0:0:
256,192,41887,1,8,0:0:0:0:
256,192,41977,1,8,0:0:0:0:
256,192,42067,1,8,0:0:0:0:
256,192,42157,1,0,0:0:0:0:
256,192,42247,1,0,0:0:0:0:
256,192,42337,1,8,0:0:0:0:
256,192,42427,1,8,0:0:0:0:
256,192,42517,1,0,0:0:0:0:
256,192,42697,1,8,0:0:0:0:
256,192,42788,1,8,0:0:0:0:
256,192,42878,1,8,0:0:0:0:
256,192,42968,1,8,0:0:0:0:
256,192,43058,1,0,0:0:0:0:
256,192,43148,1,0,0:0:0:0:
256,192,43238,1,8,0:0:0:0:
256,192,43328,1,8,0:0:0:0:
256,192,43418,1,8,0:0:0:0:
256,192,43508,1,0,0:0:0:0:
256,192,43598,1,8,0:0:0:0:
256,192,43688,1,0,0:0:0:0:
256,192,43779,1,0,0:0:0:0:
256,192,43869,1,8,0:0:0:0:
256,192,43959,1,0,0:0:0:0:
256,192,44319,1,8,0:0:0:0:
256,192,44679,1,0,0:0:0:0:
256,192,44770,1,0,0:0:0:0:
256,192,44860,1,8,0:0:0:0:
256,192,44950,1,8,0:0:0:0:
256,192,45040,1,8,0:0:0:0:
256,192,45130,1,8,0:0:0:0:
256,192,45220,1,8,0:0:0:0:
256,192,45310,1,8,0:0:0:0:
256,192,45400,1,0,0:0:0:0:
256,192,45490,1,0,0:0:0:0:
256,192,45580,1,8,0:0:0:0:
256,192,45670,1,8,0:0:0:0:
256,192,45761,1,8,0:0:0:0:
256,192,45851,1,0,0:0:0:0:
256,192,45941,1,8,0:0:0:0:
256,192,46031,1,8,0:0:0:0:
256,192,46121,1,4,0:0:0:0:
256,192,46301,1,4,0:0:0:0:
256,192,46481,1,12,0:0:0:0:
256,192,46661,1,12,0:0:0:0:
256,192,46842,1,4,0:0:0:0:
256,192,47112,1,4,0:0:0:0:
256,192,47382,1,4,0:0:0:0:
256,192,47562,1,8,0:0:0:0:
256,192,47743,1,8,0:0:0:0:
256,192,47833,1,8,0:0:0:0:
256,192,47923,1,0,0:0:0:0:
256,192,48013,1,8,0:0:0:0:
256,192,48103,1,8,0:0:0:0:
256,192,48193,1,8,0:0:0:0:
256,192,48283,1,0,0:0:0:0:
256,192,48373,1,8,0:0:0:0:
256,192,48463,1,8,0:0:0:0:
256,192,48553,1,0,0:0:0:0:
256,192,48643,1,0,0:0:0:0:
256,192,48734,1,0,0:0:0:0:
256,192,48824,1,8,0:0:0:0:
256,192,49004,1,12,0:0:0:0:
256,192,49184,1,12,0:0:0:0:
256,192,49364,1,8,0:0:0:0:
256,192,49454,1,8,0:0:0:0:
256,192,49544,1,8,0:0:0:0:
256,192,49634,1,8,0:0:0:0:
256,192,49725,1,0,0:0:0:0:
256,192,49905,1,0,0:0:0:0:
256,192,50265,1,0,0:0:0:0:
256,192,50445,1,8,0:0:0:0:
256,192,50625,1,8,0:0:0:0:
256,192,50716,1,8,0:0:0:0:
256,192,50806,1,0,0:0:0:0:
256,192,50986,1,8,0:0:0:0:
256,192,51166,1,0,0:0:0:0:
256,192,51346,1,8,0:0:0:0:
256,192,51391,1,8,0:0:0:0:
256,192,51436,1,8,0:0:0:0:
256,192,51526,1,0,0:0:0:0:
256,192,51706,1,0,0:0:0:0:
256,192,51887,1,8,0:0:0:0:
256,192,52067,1,8,0:0:0:0:
256,192,52247,1,0,0:0:0:0:
256,192,52607,1,12,0:0:0:0:
256,192,52788,1,0,0:0:0:0:
256,192,52968,1,12,0:0:0:0:
256,192,53238,1,8,0:0:0:0:
256,192,53283,1,8,0:0:0:0:
256,192,53328,1,0,0:0:0:0:
256,192,53418,1,8,0:0:0:0:
256,192,53508,1,0,0:0:0:0:
256,192,53598,1,0,0:0:0:0:
256,192,53688,1,8,0:0:0:0:
256,192,53779,1,0,0:0:0:0:
256,192,53869,1,8,0:0:0:0:
256,192,53959,1,0,0:0:0:0:
256,192,54004,1,0,0:0:0:0:
256,192,54049,1,0,0:0:0:0:
256,192,54319,1,0,0:0:0:0:
256,192,54589,1,0,0:0:0:0:
256,192,54679,1,0,0:0:0:0:
256,192,54770,1,12,0:0:0:0:
256,192,54950,1,0,0:0:0:0:
256,192,55130,1,0,0:0:0:0:
256,192,55310,1,8,0:0:0:0:
256,192,55400,1,0,0:0:0:0:
256,192,55445,1,0,0:0:0:0:
256,192,55490,1,0,0:0:0:0:
256,192,55580,1,8,0:0:0:0:
256,192,55670,1,0,0:0:0:0:
256,192,55761,1,8,0:0:0:0:
256,192,55851,1,0,0:0:0:0:
256,192,55896,1,0,0:0:0:0:
256,192,55941,1,8,0:0:0:0:
256,192,55986,1,8,0:0:0:0:
256,192,56031,1,0,0:0:0:0:
256,192,56211,1,8,0:0:0:0:
256,192,56331,1,8,0:0:0:0:
256,192,56451,1,8,0:0:0:0:
256,192,56571,1,0,0:0:0:0:
256,192,56752,1,0,0:0:0:0:
256,192,56797,1,0,0:0:0:0:
256,192,56842,1,0,0:0:0:0:
256,192,56932,1,8,0:0:0:0:
256,192,57112,1,8,0:0:0:0:
256,192,57157,1,8,0:0:0:0:
256,192,57202,1,8,0:0:0:0:
256,192,57292,1,0,0:0:0:0:
256,192,57382,1,0,0:0:0:0:
256,192,57472,1,0,0:0:0:0:
256,192,57562,1,0,0:0:0:0:
256,192,57652,1,8,0:0:0:0:
256,192,57833,1,8,0:0:0:0:
256,192,58013,1,8,0:0:0:0:
256,192,58193,1,0,0:0:0:0:
256,192,58373,1,12,0:0:0:0:
256,192,58734,1,4,0:0:0:0:
256,192,59094,1,8,0:0:0:0:
256,192,59454,1,12,0:0:0:0:
256,192,59815,1,0,0:0:0:0:
256,192,60175,1,12,0:0:0:0:
256,192,60355,1,0,0:0:0:0:
256,192,60445,1,0,0:0:0:0:
256,192,60535,1,8,0:0:0:0:
256,192,60716,1,8,0:0:0:0:
256,192,60896,1,12,0:0:0:0:
256,192,61256,1,0,0:0:0:0:
256,192,61526,1,0,0:0:0:0:
256,192,61616,1,12,0:0:0:0:
256,192,61797,1,0,0:0:0:0:
256,192,61977,1,8,0:0:0:0:
256,192,62337,1,12,0:0:0:0:
256,192,62517,1,0,0:0:0:0:
256,192,62697,1,0,0:0:0:0:
256,192,63058,1,12,0:0:0:0:
256,192,63238,1,0,0:0:0:0:
256,192,63418,1,12,0:0:0:0:
256,192,63779,1,4,0:0:0:0:
256,192,64139,1,12,0:0:0:0:
256,192,64229,12,0,65490,0:0:0:0:
256,192,65580,12,0,66932,0:0:0:0:
256,192,67022,12,0,68373,0:0:0:0:
256,192,68463,12,0,69815,0:0:0:0:
256,192,69905,5,8,0:0:0:0:
256,192,70085,1,0,0:0:0:0:
256,192,70265,1,0,0:0:0:0:
256,192,70445,1,0,0:0:0:0:
256,192,70625,1,0,0:0:0:0:
256,192,70806,1,0,0:0:0:0:
256,192,70986,1,8,0:0:0:0:
256,192,71166,1,0,0:0:0:0:
256,192,71346,1,8,0:0:0:0:
256,192,71526,1,0,0:0:0:0:
256,192,71706,1,0,0:0:0:0:
256,192,71887,1,0,0:0:0:0:
256,192,72067,1,0,0:0:0:0:
256,192,72247,1,0,0:0:0:0:
256,192,72427,1,0,0:0:0:0:
256,192,72607,1,0,0:0:0:0:
256,192,72788,1,8,0:0:0:0:
256,192,72878,1,0,0:0:0:0:
256,192,72968,1,0,0:0:0:0:
256,192,73058,1,0,0:0:0:0:
256,192,73148,1,0,0:0:0:0:
256,192,73238,1,0,0:0:0:0:
256,192,73328,1,0,0:0:0:0:
256,192,73418,1,0,0:0:0:0:
256,192,73508,1,8,0:0:0:0:
256,192,73598,1,0,0:0:0:0:
256,192,73688,1,0,0:0:0:0:
256,192,73779,1,0,0:0:0:0:
256,192,73869,1,8,0:0:0:0:
256,192,73959,1,8,0:0:0:0:
256,192,74049,1,0,0:0:0:0:
256,192,74139,1,0,0:0:0:0:
256,192,74229,1,8,0:0:0:0:
256,192,74950,1,8,0:0:0:0:
256,192,75010,1,8,0:0:0:0:
256,192,75070,1,8,0:0:0:0:
256,192,75130,1,0,0:0:0:0:
256,192,75190,1,0,0:0:0:0:
256,192,75250,1,0,0:0:0:0:
256,192,75310,1,8,0:0:0:0:
256,192,75490,1,0,0:0:0:0:
256,192,75670,1,12,0:0:0:0:
256,192,75851,1,12,0:0:0:0:
256,192,76031,1,8,0:0:0:0:
256,192,76091,1,8,0:0:0:0:
256,192,76152,1,8,0:0:0:0:
256,192,76212,1,0,0:0:0:0:
256,192,76301,1,0,0:0:0:0:
256,192,76391,1,12,0:0:0:0:
256,192,76571,1,12,0:0:0:0:
256,192,76752,1,8,0:0:0:0:
256,192,76812,1,8,0:0:0:0:
256,192,76873,1,8,0:0:0:0:
256,192,76933,1,0,0:0:0:0:
256,192,77022,1,0,0:0:0:0:
256,192,77112,1,12,0:0:0:0:
256,192,77292,1,12,0:0:0:0:
256,192,77472,1,8,0:0:0:0:
256,192,77532,1,8,0:0:0:0:
256,192,77593,1,8,0:0:0:0:
256,192,77653,1,0,0:0:0:0:
256,192,77742,1,0,0:0:0:0:
256,192,77832,1,12,0:0:0:0:
256,192,78012,1,12,0:0:0:0:
256,192,78193,1,4,0:0:0:0:
256,192,78553,1,4,0:0:0:0:
256,192,78734,1,4,0:0:0:0:
256,192,78914,1,0,0:0:0:0:
256,192,78974,1,0,0:0:0:0:
256,192,79035,1,0,0:0:0:0:
256,192,79095,1,8,0:0:0:0:
256,192,79184,1,8,0:0:0:0:
256,192,79274,1,4,0:0:0:0:
256,192,79454,1,4,0:0:0:0:
256,192,79634,1,0,0:0:0:0:
256,192,79694,1,0,0:0:0:0:
256,192,79755,1,0,0:0:0:0:
256,192,79815,1,8,0:0:0:0:
256,192,79904,1,8,0:0:0:0:
256,192,79994,1,4,0:0:0:0:
256,192,80174,1,4,0:0:0:0:
256,192,80355,1,0,0:0:0:0:
256,192,80415,1,0,0:0:0:0:
256,192,80476,1,0,0:0:0:0:
256,192,80536,1,8,0:0:0:0:
256,192,80625,1,8,0:0:0:0:
256,192,80715,1,4,0:0:0:0:
256,192,80895,1,4,0:0:0:0:
256,192,81076,1,12,0:0:0:0:
256,192,81436,1,8,0:0:0:0:
256,192,81616,1,0,0:0:0:0:
256,192,81797,1,0,0:0:0:0:
256,192,81977,1,0,0:0:0:0:
256,192,82157,1,0,0:0:0:0:
256,192,82337,1,0,0:0:0:0:
256,192,82517,1,8,0:0:0:0:
256,192,82697,1,0,0:0:0:0:
256,192,82878,1,8,0:0:0:0:
256,192,83058,1,8,0:0:0:0:
256,192,83238,1,0,0:0:0:0:
256,192,83418,1,0,0:0:0:0:
256,192,83598,1,8,0:0:0:0:
256,192,83779,1,0,0:0:0:0:
256,192,83959,1,8,0:0:0:0:
256,192,84139,1,8,0:0:0:0:
256,192,84319,1,0,0:0:0:0:
256,192,84409,1,0,0:0:0:0:
256,192,84499,1,8,0:0:0:0:
256,192,84589,1,8,0:0:0:0:
256,192,84679,1,0,0:0:0:0:
256,192,84770,1,0,0:0:0:0:
256,192,84860,1,8,0:0:0:0:
256,192,84950,1,8,0:0:0:0:
256,192,85040,1,0,0:0:0:0:
256,192,85130,1,8,0:0:0:0:
256,192,85220,1,0,0:0:0:0:
256,192,85310,1,8,0:0:0:0:
256,192,85400,1,0,0:0:0:0:
256,192,85490,1,0,0:0:0:0:
256,192,85580,1,8,0:0:0:0:
256,192,85670,1,8,0:0:0:0:
256,192,85761,1,4,0:0:0:0:
256,192,87202,12,0,87923,0:0:0:0:
256,192,88283,5,0,0:0:0:0:
256,192,88373,1,0,0:0:0:0:
256,192,88463,1,8,0:0:0:0:
256,192,88508,1,8,0:0:0:0:
256,192,88553,1,8,0:0:0:0:
256,192,88598,1,8,0:0:0:0:
256,192,88643,1,4,0:0:0:0:
256,192,88824,1,4,0:0:0:0:
256,192,89004,1,8,0:0:0:0:
256,192,89184,1,8,0:0:0:0:
256,192,89364,1,4,0:0:0:0:
256,192,89544,1,4,0:0:0:0:
256,192,89725,1,12,0:0:0:0:
256,192,89905,1,12,0:0:0:0:
256,192,90085,1,4,0:0:0:0:
256,192,90265,1,12,0:0:0:0:
256,192,90445,1,0,0:0:0:0:
256,192,90625,1,0,0:0:0:0:
256,192,90806,1,12,0:0:0:0:
256,192,90986,1,12,0:0:0:0:
256,192,91166,1,4,0:0:0:0:
256,192,91346,1,12,0:0:0:0:
256,192,91436,1,12,0:0:0:0:
256,192,91526,1,4,0:0:0:0:
256,192,91706,1,12,0:0:0:0:
256,192,91887,1,0,0:0:0:0:
256,192,92067,1,0,0:0:0:0:
256,192,92247,1,12,0:0:0:0:
256,192,92427,1,12,0:0:0:0:
256,192,92607,1,4,0:0:0:0:
256,192,92788,1,0,0:0:0:0:
256,192,92878,1,0,0:0:0:0:
256,192,92968,1,12,0:0:0:0:
256,192,93148,1,12,0:0:0:0:
256,192,93238,1,12,0:0:0:0:
256,192,93328,1,12,0:0:0:0:
256,192,93418,1,12,0:0:0:0:
256,192,93508,1,4,0:0:0:0:
256,192,93688,1,8,0:0:0:0:
256,192,93734,1,8,0:0:0:0:
256,192,93779,1,8,0:0:0:0:
256,192,93824,1,8,0:0:0:0:
256,192,93869,1,0,0:0:0:0:
256,192,94049,1,8,0:0:0:0:
256,192,94094,1,8,0:0:0:0:
256,192,94139,1,8,0:0:0:0:
256,192,94184,1,8,0:0:0:0:
256,192,94229,1,0,0:0:0:0:
256,192,94589,1,12,0:0:0:0:
256,192,94679,1,12,0:0:0:0:
256,192,94770,1,4,0:0:0:0:
256,192,94950,1,0,0:0:0:0:
256,192,95130,1,12,0:0:0:0:
256,192,95310,1,12,0:0:0:0:
256,192,95490,1,4,0:0:0:0:
256,192,95670,1,12,0:0:0:0:
256,192,95851,1,4,0:0:0:0:
256,192,96031,1,12,0:0:0:0:
256,192,96211,1,0,0:0:0:0:
256,192,96391,1,8,0:0:0:0:
256,192,96571,1,0,0:0:0:0:
256,192,96661,1,0,0:0:0:0:
256,192,96752,1,0,0:0:0:0:
256,192,96842,1,0,0:0:0:0:
256,192,96932,1,8,0:0:0:0:
256,192,97052,1,8,0:0:0:0:
256,192,97172,1,8,0:0:0:0:
256,192,97292,1,0,0:0:0:0:
256,192,97382,1,0,0:0:0:0:
256,192,97472,1,0,0:0:0:0:
256,192,97562,1,0,0:0:0:0:
256,192,97652,1,12,0:0:0:0:
256,192,97833,1,12,0:0:0:0:
256,192,98013,1,8,0:0:0:0:
256,192,98058,1,8,0:0:0:0:
256,192,98103,1,8,0:0:0:0:
256,192,98148,1,8,0:0:0:0:
256,192,98193,1,0,0:0:0:0:
256,192,98373,1,8,0:0:0:0:
256,192,98418,1,8,0:0:0:0:
256,192,98463,1,8,0:0:0:0:
256,192,98508,1,8,0:0:0:0:
256,192,98553,1,0,0:0:0:0:
256,192,98734,1,0,0:0:0:0:
256,192,98914,1,0,0:0:0:0:
256,192,99094,1,8,0:0:0:0:
256,192,99274,1,8,0:0:0:0:
256,192,99995,1,8,0:0:0:0:
256,192,100040,1,8,0:0:0:0:
256,192,100085,1,8,0:0:0:0:
256,192,100130,1,8,0:0:0:0:
256,192,100175,1,0,0:0:0:0:
256,192,100355,1,8,0:0:0:0:
256,192,100535,1,8,0:0:0:0:
256,192,100625,1,8,0:0:0:0:
256,192,100716,1,0,0:0:0:0:
256,192,100806,1,8,0:0:0:0:
256,192,100896,1,0,0:0:0:0:
256,192,101076,1,0,0:0:0:0:
256,192,101256,1,0,0:0:0:0:
256,192,101301,1,0,0:0:0:0:
256,192,101346,1,0,0:0:0:0:
256,192,101436,1,8,0:0:0:0:
256,192,101526,1,0,0:0:0:0:
256,192,101616,1,8,0:0:0:0:
256,192,101797,1,8,0:0:0:0:
256,192,101977,1,8,0:0:0:0:
256,192,102022,1,8,0:0:0:0:
256,192,102067,1,0,0:0:0:0:
256,192,102157,1,0,0:0:0:0:
256,192,102247,1,8,0:0:0:0:
256,192,102337,1,0,0:0:0:0:
256,192,102427,1,0,0:0:0:0:
256,192,102517,1,8,0:0:0:0:
256,192,102697,1,8,0:0:0:0:
256,192,102743,1,8,0:0:0:0:
256,192,102788,1,8,0:0:0:0:
256,192,102878,1,0,0:0:0:0:
256,192,102968,1,0,0:0:0:0:
256,192,103058,1,8,0:0:0:0:
256,192,103118,1,8,0:0:0:0:
256,192,103178,1,8,0:0:0:0:
256,192,103238,1,0,0:0:0:0:
256,192,103418,1,0,0:0:0:0:
256,192,103598,1,8,0:0:0:0:
256,192,103779,1,8,0:0:0:0:
256,192,103869,1,8,0:0:0:0:
256,192,103959,1,0,0:0:0:0:
256,192,104139,1,8,0:0:0:0:
256,192,104319,1,8,0:0:0:0:
256,192,104409,1,8,0:0:0:0:
256,192,104499,1,0,0:0:0:0:
256,192,104679,1,0,0:0:0:0:
256,192,104770,1,0,0:0:0:0:
256,192,104860,1,0,0:0:0:0:
256,192,104950,1,0,0:0:0:0:
256,192,105040,1,0,0:0:0:0:
256,192,105220,1,8,0:0:0:0:
256,192,105310,1,8,0:0:0:0:
256,192,105400,1,8,0:0:0:0:
256,192,105580,1,0,0:0:0:0:
256,192,105670,1,0,0:0:0:0:
256,192,105716,1,0,0:0:0:0:
256,192,105761,1,0,0:0:0:0:
256,192,105851,1,8,0:0:0:0:
256,192,105896,1,8,0:0:0:0:
256,192,105941,1,4,0:0:0:0:
256,192,106121,1,12,0:0:0:0:
256,192,106301,1,12,0:0:0:0:
256,192,106391,1,4,0:0:0:0:
256,192,106481,1,12,0:0:0:0:
256,192,106661,1,4,0:0:0:0:
256,192,106752,1,12,0:0:0:0:
256,192,106842,1,4,0:0:0:0:
256,192,106932,1,12,0:0:0:0:
256,192,107382,1,12,0:0:0:0:
256,192,107562,1,12,0:0:0:0:
256,192,107652,1,12,0:0:0:0:
256,192,107743,1,4,0:0:0:0:
256,192,107833,1,4,0:0:0:0:
256,192,107923,1,12,0:0:0:0:
256,192,108013,1,4,0:0:0:0:
256,192,108103,1,4,0:0:0:0:
256,192,108193,1,12,0:0:0:0:
256,192,108283,1,4,0:0:0:0:
256,192,108824,1,4,0:0:0:0:
256,192,109004,1,8,0:0:0:0:
256,192,109094,1,8,0:0:0:0:
256,192,109184,1,0,0:0:0:0:
256,192,109274,1,8,0:0:0:0:
256,192,109364,1,0,0:0:0:0:
256,192,109544,1,12,0:0:0:0:
256,192,109725,1,8,0:0:0:0:
256,192,109815,1,0,0:0:0:0:
256,192,109905,1,8,0:0:0:0:
256,192,109995,1,8,0:0:0:0:
256,192,110085,1,0,0:0:0:0:
256,192,110265,1,0,0:0:0:0:
256,192,110355,1,0,0:0:0:0:
256,192,110445,1,8,0:0:0:0:
256,192,110490,1,8,0:0:0:0:
256,192,110535,1,8,0:0:0:0:
256,192,110580,1,8,0:0:0:0:
256,192,110625,1,0,0:0:0:0:
256,192,110716,1,0,0:0:0:0:
256,192,110807,1,8,0:0:0:0:
256,192,110852,1,8,0:0:0:0:
256,192,110897,1,8,0:0:0:0:
256,192,110942,1,8,0:0:0:0:
256,192,110987,1,0,0:0:0:0:
256,192,111706,1,0,0:0:0:0:
256,192,111797,1,0,0:0:0:0:
256,192,111887,1,0,0:0:0:0:
256,192,111977,1,0,0:0:0:0:
256,192,112067,1,0,0:0:0:0:
256,192,112157,1,0,0:0:0:0:
256,192,112247,1,0,0:0:0:0:
256,192,112337,1,0,0:0:0:0:
256,192,112427,1,0,0:0:0:0:
256,192,112517,1,0,0:0:0:0:
256,192,112607,1,0,0:0:0:0:
256,192,112697,1,0,0:0:0:0:
256,192,112788,1,0,0:0:0:0:
256,192,112878,1,0,0:0:0:0:
256,192,112968,1,0,0:0:0:0:
256,192,113058,1,0,0:0:0:0:
256,192,113148,1,0,0:0:0:0:
256,192,113238,1,0,0:0:0:0:
256,192,113328,1,0,0:0:0:0:
256,192,113418,1,0,0:0:0:0:
256,192,113508,1,0,0:0:0:0:
256,192,113598,1,0,0:0:0:0:
256,192,113688,1,0,0:0:0:0:
256,192,113779,1,0,0:0:0:0:
256,192,113869,1,12,0:0:0:0:
256,192,114049,1,12,0:0:0:0:
256,192,114229,1,12,0:0:0:0:
256,192,114409,1,12,0:0:0:0:
256,192,114589,1,0,0:0:0:0:
256,192,114679,1,0,0:0:0:0:
256,192,114770,1,0,0:0:0:0:
256,192,114860,1,0,0:0:0:0:
256,192,114950,1,0,0:0:0:0:
256,192,115040,1,0,0:0:0:0:
256,192,115130,1,0,0:0:0:0:
256,192,115220,1,0,0:0:0:0:
256,192,115310,1,0,0:0:0:0:
256,192,115400,1,0,0:0:0:0:
256,192,115490,1,0,0:0:0:0:
256,192,115580,1,0,0:0:0:0:
256,192,115670,1,0,0:0:0:0:
256,192,115761,1,0,0:0:0:0:
256,192,115851,1,0,0:0:0:0:
256,192,115941,1,0,0:0:0:0:
256,192,116031,1,12,0:0:0:0:
256,192,116211,1,12,0:0:0:0:
256,192,116391,1,8,0:0:0:0:
256,192,116451,1,8,0:0:0:0:
256,192,116512,1,8,0:0:0:0:
256,192,116572,1,0,0:0:0:0:
256,192,116662,1,0,0:0:0:0:
256,192,116752,1,8,0:0:0:0:
256,192,116812,1,8,0:0:0:0:
256,192,116872,1,8,0:0:0:0:
256,192,116932,1,0,0:0:0:0:
256,192,117022,1,0,0:0:0:0:
256,192,117112,1,8,0:0:0:0:
256,192,117172,1,8,0:0:0:0:
256,192,117232,1,8,0:0:0:0:
256,192,117292,1,0,0:0:0:0:
256,192,117382,1,0,0:0:0:0:
256,192,117472,1,12,0:0:0:0:
256,192,117652,2,0,L|416:192,2,132
