osu file format v14

[General]
AudioFilename: [SDVX II ] Booths of Fighters [NOFX].mp3
AudioLeadIn: 0
PreviewTime: 72591
Countdown: 0
SampleSet: Normal
StackLeniency: 0.7
Mode: 1
LetterboxInBreaks: 0
WidescreenStoryboard: 0

[Editor]
DistanceSpacing: 1.2
BeatDivisor: 3
GridSize: 32
TimelineZoom: 2.699999

[Metadata]
Title:Booths of Fighters
TitleUnicode:Booths of Fighters
Artist:RoughSketch + DD"Nakata"Metal
ArtistUnicode:RoughSketch + DD"ナカタ"Metal
Creator:-Kazu-
Version:NOVICE
Source:SDVX II
Tags:Backfire Skalim
BeatmapID:443333
BeatmapSetID:185427

[Difficulty]
HPDrainRate:6
CircleSize:5
OverallDifficulty:4
ApproachRate:5
SliderMultiplier:1.2
SliderTickRate:1

[Events]
//Background and Video events
0,0,"bg.jpg",0,0
//Break Periods
//Storyboard Layer 0 (Background)
//Storyboard Layer 1 (Fail)
//Storyboard Layer 2 (Pass)
//Storyboard Layer 3 (Foreground)
//Storyboard Sound Samples

[TimingPoints]
703,266.666666666667,4,1,0,100,1,0
50836,292.682926829268,4,1,0,100,1,0
52006,292.682926829268,4,1,0,100,1,8
52040,342.857142857143,4,1,0,100,1,0
72611,387.096774193548,4,1,0,100,1,0
74159,266.666666666667,4,1,0,100,1,0
84825,-100,4,1,0,100,0,1
92292,-100,4,1,0,100,0,0
93625,-100,4,1,0,100,0,1
110425,-100,4,1,0,100,0,0

[HitObjects]
256,192,703,5,0,0:0:0:0:
256,192,1236,1,8,0:0:0:0:
256,192,1503,1,0,0:0:0:0:
256,192,1636,1,8,0:0:0:0:
256,192,1769,1,0,0:0:0:0:
256,192,2036,1,0,0:0:0:0:
256,192,2303,1,8,0:0:0:0:
256,192,2569,1,0,0:0:0:0:
256,192,2836,1,0,0:0:0:0:
256,192,3369,1,8,0:0:0:0:
256,192,3636,1,0,0:0:0:0:
256,192,3769,1,0,0:0:0:0:
256,192,4169,1,0,0:0:0:0:
256,192,4436,1,8,0:0:0:0:
256,192,4703,1,8,0:0:0:0:
256,192,4969,1,12,0:0:0:0:
256,192,5503,1,8,0:0:0:0:
256,192,5769,1,0,0:0:0:0:
256,192,6303,1,0,0:0:0:0:
256,192,6436,1,0,0:0:0:0:
256,192,6569,1,8,0:0:0:0:
256,192,6836,1,0,0:0:0:0:
256,192,7103,1,0,0:0:0:0:
64,64,7369,2,0,L|256:64,2,180,0|0|0,0:0|0:0|0:0,0:0:0:0:
256,192,8703,1,8,0:0:0:0:
256,192,8836,1,8,0:0:0:0:
256,192,8969,1,8,0:0:0:0:
256,192,9236,1,4,0:0:0:0:
256,192,9503,12,0,12703,0:0:0:0:
256,192,12969,5,4,0:0:0:0:
256,192,13503,1,12,0:0:0:0:
256,192,13769,1,8,0:0:0:0:
256,192,14036,1,8,0:0:0:0:
256,192,14569,1,8,0:0:0:0:
256,192,14836,1,8,0:0:0:0:
256,192,15103,1,8,0:0:0:0:
256,192,15636,1,0,0:0:0:0:
256,192,16703,1,0,0:0:0:0:
256,192,16836,1,0,0:0:0:0:
256,192,17103,1,0,0:0:0:0:
256,192,17503,1,8,0:0:0:0:
256,192,17769,1,4,0:0:0:0:
256,192,17903,1,0,0:0:0:0:
256,192,18036,1,0,0:0:0:0:
256,192,18303,1,0,0:0:0:0:
256,192,18569,1,0,0:0:0:0:
256,192,18836,1,0,0:0:0:0:
256,192,18969,1,8,0:0:0:0:
256,192,19103,1,0,0:0:0:0:
256,192,19369,1,0,0:0:0:0:
256,192,19903,1,0,0:0:0:0:
256,192,20169,1,0,0:0:0:0:
256,192,20436,1,0,0:0:0:0:
256,192,20569,1,0,0:0:0:0:
256,192,20703,1,0,0:0:0:0:
256,192,20969,1,0,0:0:0:0:
256,192,21236,1,0,0:0:0:0:
256,192,21369,1,0,0:0:0:0:
256,192,21503,1,8,0:0:0:0:
256,192,22036,1,0,0:0:0:0:
256,192,22303,1,8,0:0:0:0:
256,192,22569,1,0,0:0:0:0:
256,192,22703,1,0,0:0:0:0:
256,192,22836,1,8,0:0:0:0:
256,192,23103,1,0,0:0:0:0:
256,192,23369,1,8,0:0:0:0:
256,192,23636,1,0,0:0:0:0:
256,192,24169,1,0,0:0:0:0:
256,192,24303,1,0,0:0:0:0:
256,192,24436,1,8,0:0:0:0:
256,192,24703,1,0,0:0:0:0:
256,192,24969,1,8,0:0:0:0:
256,192,25103,1,8,0:0:0:0:
256,192,25236,1,0,0:0:0:0:
256,192,26303,1,4,0:0:0:0:
256,192,26569,1,8,0:0:0:0:
256,192,26836,1,0,0:0:0:0:
256,192,26969,1,0,0:0:0:0:
256,192,27103,1,8,0:0:0:0:
256,192,27369,1,0,0:0:0:0:
256,192,27636,1,8,0:0:0:0:
256,192,28169,1,8,0:0:0:0:
256,192,28303,1,0,0:0:0:0:
256,192,28436,1,0,0:0:0:0:
256,192,28703,1,8,0:0:0:0:
256,192,28969,1,0,0:0:0:0:
256,192,29236,1,8,0:0:0:0:
256,192,29503,1,0,0:0:0:0:
256,192,29636,1,8,0:0:0:0:
256,192,29903,1,8,0:0:0:0:
256,192,30169,1,8,0:0:0:0:
256,192,30436,1,8,0:0:0:0:
256,192,30569,1,0,0:0:0:0:
256,192,30703,1,0,0:0:0:0:
256,192,30836,1,0,0:0:0:0:
256,192,31103,1,0,0:0:0:0:
256,192,31369,1,8,0:0:0:0:
256,192,31636,1,0,0:0:0:0:
256,192,32169,1,0,0:0:0:0:
256,192,32436,1,8,0:0:0:0:
256,192,32569,1,8,0:0:0:0:
256,192,32703,1,0,0:0:0:0:
256,192,33369,1,0,0:0:0:0:
256,192,33503,1,8,0:0:0:0:
256,192,33769,1,0,0:0:0:0:
256,192,34436,1,0,0:0:0:0:
256,192,34569,1,0,0:0:0:0:
256,192,34836,1,4,0:0:0:0:
256,192,35103,1,8,0:0:0:0:
256,192,35369,1,8,0:0:0:0:
256,192,35636,1,8,0:0:0:0:
256,192,35769,1,0,0:0:0:0:
256,192,35903,1,0,0:0:0:0:
256,192,36169,1,8,0:0:0:0:
256,192,36436,1,8,0:0:0:0:
256,192,36569,1,0,0:0:0:0:
256,192,36703,1,8,0:0:0:0:
256,192,36969,1,12,0:0:0:0:
256,192,37503,1,8,0:0:0:0:
256,192,37769,1,8,0:0:0:0:
256,192,38036,1,0,0:0:0:0:
256,192,38303,1,8,0:0:0:0:
256,192,38569,1,8,0:0:0:0:
256,192,38703,1,8,0:0:0:0:
256,192,38836,1,8,0:0:0:0:
256,192,38969,1,8,0:0:0:0:
256,192,39103,1,4,0:0:0:0:
256,192,39636,1,8,0:0:0:0:
256,192,39903,1,8,0:0:0:0:
256,192,40169,1,8,0:0:0:0:
256,192,40303,1,0,0:0:0:0:
256,192,40436,1,8,0:0:0:0:
256,192,40703,1,0,0:0:0:0:
256,192,40836,1,0,0:0:0:0:
256,192,40969,1,8,0:0:0:0:
256,192,41236,1,12,0:0:0:0:
256,192,41769,1,8,0:0:0:0:
256,192,42036,1,8,0:0:0:0:
256,192,42303,1,0,0:0:0:0:
256,192,42436,1,0,0:0:0:0:
256,192,42569,1,8,0:0:0:0:
256,192,42836,1,8,0:0:0:0:
256,192,42969,1,8,0:0:0:0:
256,192,43103,1,8,0:0:0:0:
256,192,43236,1,8,0:0:0:0:
256,192,43369,1,4,0:0:0:0:
256,192,43903,1,8,0:0:0:0:
256,192,44036,1,0,0:0:0:0:
256,192,44169,1,8,0:0:0:0:
256,192,44436,1,4,0:0:0:0:
256,192,44703,1,0,0:0:0:0:
256,192,44969,1,8,0:0:0:0:
256,192,45236,1,8,0:0:0:0:
256,192,45369,1,8,0:0:0:0:
256,192,45503,1,4,0:0:0:0:
256,192,46036,1,8,0:0:0:0:
256,192,46303,1,0,0:0:0:0:
256,192,46436,1,8,0:0:0:0:
256,192,46569,1,4,0:0:0:0:
256,192,46836,1,0,0:0:0:0:
256,192,47103,1,8,0:0:0:0:
256,192,47236,1,8,0:0:0:0:
256,192,47369,1,8,0:0:0:0:
256,192,47636,1,4,0:0:0:0:
256,192,48169,1,8,0:0:0:0:
256,192,48303,1,0,0:0:0:0:
256,192,48436,1,0,0:0:0:0:
256,192,48703,1,4,0:0:0:0:
256,192,48969,1,0,0:0:0:0:
256,192,49103,1,0,0:0:0:0:
256,192,49237,1,8,0:0:0:0:
256,192,49503,1,8,0:0:0:0:
256,192,49769,1,4,0:0:0:0:
256,192,50303,1,0,0:0:0:0:
256,192,50569,1,8,0:0:0:0:
256,192,50836,1,4,0:0:0:0:
256,192,51421,1,4,0:0:0:0:
256,192,52040,1,4,0:0:0:0:
256,192,52725,1,8,0:0:0:0:
256,192,53411,1,0,0:0:0:0:
256,192,53582,1,0,0:0:0:0:
256,192,53754,1,8,0:0:0:0:
256,192,54097,1,8,0:0:0:0:
256,192,54440,1,8,0:0:0:0:
256,192,54782,1,0,0:0:0:0:
256,192,55040,1,0,0:0:0:0:
256,192,55297,1,0,0:0:0:0:
256,192,55468,1,8,0:0:0:0:
256,192,56154,1,8,0:0:0:0:
256,192,56497,1,8,0:0:0:0:
256,192,56668,1,8,0:0:0:0:
256,192,57182,1,8,0:0:0:0:
256,192,57525,1,4,0:0:0:0:
256,192,58040,1,0,0:0:0:0:
256,192,58211,1,8,0:0:0:0:
256,192,58897,1,0,0:0:0:0:
256,192,59068,1,0,0:0:0:0:
256,192,59240,1,8,0:0:0:0:
256,192,59582,1,8,0:0:0:0:
256,192,59925,1,8,0:0:0:0:
256,192,60268,1,4,0:0:0:0:
256,192,60525,1,0,0:0:0:0:
256,192,60782,1,0,0:0:0:0:
256,192,60954,1,8,0:0:0:0:
256,192,61640,1,8,0:0:0:0:
256,192,61982,1,8,0:0:0:0:
256,192,62154,1,8,0:0:0:0:
256,192,62325,1,0,0:0:0:0:
256,192,62668,1,8,0:0:0:0:
256,192,63011,1,4,0:0:0:0:
256,192,63697,1,8,0:0:0:0:
256,192,64382,1,8,0:0:0:0:
256,192,65068,1,8,0:0:0:0:
256,192,65411,1,0,0:0:0:0:
256,192,65754,1,0,0:0:0:0:
256,192,65925,1,8,0:0:0:0:
256,192,66268,1,0,0:0:0:0:
256,192,66440,1,0,0:0:0:0:
256,192,66782,1,8,0:0:0:0:
256,192,67125,1,0,0:0:0:0:
256,192,67811,1,8,0:0:0:0:
256,192,68154,1,8,0:0:0:0:
256,192,68325,1,8,0:0:0:0:
256,192,68497,1,0,0:0:0:0:
256,192,69182,1,8,0:0:0:0:
256,192,69868,1,0,0:0:0:0:
256,192,70554,1,8,0:0:0:0:
256,192,70897,1,8,0:0:0:0:
256,192,71068,1,8,0:0:0:0:
256,192,71240,1,0,0:0:0:0:
256,192,71754,1,0,0:0:0:0:
256,192,71925,1,8,0:0:0:0:
256,192,72097,1,8,0:0:0:0:
256,192,72268,1,8,0:0:0:0:
256,192,72611,1,8,0:0:0:0:
256,192,72901,1,8,0:0:0:0:
256,192,73191,1,8,0:0:0:0:
256,192,73385,1,0,0:0:0:0:
256,192,73772,1,8,0:0:0:0:
256,192,74159,1,4,0:0:0:0:
256,192,74292,12,0,78159,0:0:0:0:
256,192,78425,5,8,0:0:0:0:
256,192,78692,1,8,0:0:0:0:
256,192,78959,1,8,0:0:0:0:
256,192,79225,1,8,0:0:0:0:
256,192,79492,1,8,0:0:0:0:
256,192,79759,1,8,0:0:0:0:
256,192,80025,1,8,0:0:0:0:
256,192,80292,1,8,0:0:0:0:
256,192,80559,1,8,0:0:0:0:
256,192,80825,1,8,0:0:0:0:
256,192,81092,1,8,0:0:0:0:
256,192,81359,1,8,0:0:0:0:
256,192,81625,1,8,0:0:0:0:
256,192,82159,1,0,0:0:0:0:
256,192,82692,1,12,0:0:0:0:
256,192,84559,1,12,0:0:0:0:
256,192,84825,1,0,0:0:0:0:
256,192,84959,1,8,0:0:0:0:
256,192,85092,1,0,0:0:0:0:
256,192,85359,1,0,0:0:0:0:
256,192,85625,1,8,0:0:0:0:
256,192,85892,1,8,0:0:0:0:
256,192,86025,1,8,0:0:0:0:
256,192,86159,1,0,0:0:0:0:
256,192,86425,1,0,0:0:0:0:
256,192,86692,1,8,0:0:0:0:
256,192,86959,1,0,0:0:0:0:
256,192,87092,1,8,0:0:0:0:
256,192,87225,1,0,0:0:0:0:
256,192,87492,1,0,0:0:0:0:
256,192,88025,1,8,0:0:0:0:
256,192,88559,1,8,0:0:0:0:
256,192,88825,1,0,0:0:0:0:
256,192,89092,1,0,0:0:0:0:
256,192,89225,1,8,0:0:0:0:
256,192,89359,1,0,0:0:0:0:
256,192,89625,1,0,0:0:0:0:
256,192,89892,1,8,0:0:0:0:
256,192,90159,1,8,0:0:0:0:
256,192,90292,1,8,0:0:0:0:
256,192,90425,1,0,0:0:0:0:
256,192,90692,1,0,0:0:0:0:
256,192,90959,1,8,0:0:0:0:
256,192,91225,1,0,0:0:0:0:
256,192,91359,1,0,0:0:0:0:
256,192,91492,1,0,0:0:0:0:
256,192,91759,1,0,0:0:0:0:
256,192,92292,1,0,0:0:0:0:
256,192,92559,1,0,0:0:0:0:
256,192,92825,1,8,0:0:0:0:
256,192,93492,1,0,0:0:0:0:
256,192,93625,1,0,0:0:0:0:
256,192,93892,1,0,0:0:0:0:
256,192,94159,1,8,0:0:0:0:
256,192,94425,1,8,0:0:0:0:
256,192,94559,1,8,0:0:0:0:
256,192,94692,1,0,0:0:0:0:
256,192,94959,1,0,0:0:0:0:
256,192,95225,1,8,0:0:0:0:
256,192,95492,1,0,0:0:0:0:
256,192,95625,1,8,0:0:0:0:
256,192,95759,1,0,0:0:0:0:
256,192,96025,1,0,0:0:0:0:
256,192,96559,1,8,0:0:0:0:
256,192,97092,1,0,0:0:0:0:
256,192,97625,1,8,0:0:0:0:
256,192,97892,1,0,0:0:0:0:
256,192,98159,1,0,0:0:0:0:
256,192,98425,1,8,0:0:0:0:
256,192,98692,1,8,0:0:0:0:
256,192,98825,1,8,0:0:0:0:
256,192,98958,1,0,0:0:0:0:
256,192,99225,1,0,0:0:0:0:
256,192,99581,1,0,0:0:0:0:
256,192,99759,1,8,0:0:0:0:
256,192,100292,1,8,0:0:0:0:
256,192,100825,1,8,0:0:0:0:
256,192,101092,1,0,0:0:0:0:
256,192,101359,1,0,0:0:0:0:
256,192,101625,1,8,0:0:0:0:
256,192,101892,1,4,0:0:0:0:
256,192,102159,1,8,0:0:0:0:
256,192,102425,1,8,0:0:0:0:
256,192,102692,1,8,0:0:0:0:
256,192,102825,1,0,0:0:0:0:
256,192,102959,1,0,0:0:0:0:
256,192,103225,1,8,0:0:0:0:
256,192,103492,1,8,0:0:0:0:
256,192,103625,1,0,0:0:0:0:
256,192,103759,1,8,0:0:0:0:
256,192,104025,1,12,0:0:0:0:
256,192,104559,1,8,0:0:0:0:
256,192,104825,1,8,0:0:0:0:
256,192,105092,1,0,0:0:0:0:
256,192,105359,1,8,0:0:0:0:
256,192,105625,1,8,0:0:0:0:
256,192,105759,1,8,0:0:0:0:
256,192,105892,1,8,0:0:0:0:
256,192,106025,1,8,0:0:0:0:
256,192,106159,1,4,0:0:0:0:
256,192,106692,1,8,0:0:0:0:
256,192,106959,1,8,0:0:0:0:
256,192,107225,1,8,0:0:0:0:
256,192,107359,1,0,0:0:0:0:
256,192,107492,1,8,0:0:0:0:
256,192,107759,1,0,0:0:0:0:
256,192,107892,1,0,0:0:0:0:
256,192,108025,1,8,0:0:0:0:
256,192,108292,1,12,0:0:0:0:
256,192,108825,1,8,0:0:0:0:
256,192,109092,1,8,0:0:0:0:
256,192,109359,1,0,0:0:0:0:
256,192,109536,1,0,0:0:0:0:
256,192,109714,1,0,0:0:0:0:
256,192,109892,1,0,0:0:0:0:
256,192,110425,1,8,0:0:0:0:
256,192,110959,1,8,0:0:0:0:
256,192,111225,1,0,0:0:0:0:
256,192,111492,1,8,0:0:0:0:
256,192,112025,1,8,0:0:0:0:
256,192,112292,1,8,0:0:0:0:
256,192,112559,1,4,0:0:0:0:
