osu file format v14

[General]
AudioFilename: audio.mp3
AudioLeadIn: 0
PreviewTime: 163798
Countdown: 1
SampleSet: Normal
StackLeniency: 0.7
Mode: 1
LetterboxInBreaks: 0
WidescreenStoryboard: 1

[Editor]
Bookmarks: 19871,27871,30478,37014,46157,48085,48300,69014,73586,75871,82728,85014,87300,101014,107871,121586,125014,147871,170846,179300,187170,194846,202728,206157,224443,242728,258728,263300
DistanceSpacing: 0.8
BeatDivisor: 4
GridSize: 4
TimelineZoom: 1.600001

[Metadata]
Title:Extreme Music School
TitleUnicode:えくすとりーむ↑↑おんがくスクール
Artist:RoughSketch & Massive New Krew ft. Nanahira
ArtistUnicode:RoughSketch & Massive New Krew ft. ななひら
Creator:katacheh
Version:Taiko^School+Extreme
Source:
Tags:SPLASH!!! えくすとりーむSV KATAスクール
BeatmapID:1285965
BeatmapSetID:608906

[Difficulty]
HPDrainRate:7
CircleSize:5
OverallDifficulty:5
ApproachRate:5
SliderMultiplier:1.4
SliderTickRate:1

[Events]
//Background and Video events
0,0,"bg.jpg",0,0
//Break Periods
2,168675,169650
//Storyboard Layer 0 (Background)
//Storyboard Layer 1 (Fail)
//Storyboard Layer 2 (Pass)
//Storyboard Layer 3 (Foreground)
//Storyboard Sound Samples

[TimingPoints]
425,1621.62162162162,4,1,0,5,1,8
425,-99999999999,4,1,0,5,0,0
442,0.00771428648571436,4,1,0,70,1,0
443,285.714285714286,4,1,0,100,1,8
443,-181.818181818181,4,1,0,100,0,0
1014,285.714285714286,4,1,0,100,1,8
1014,-181.818181818181,4,1,0,100,0,0
1586,285.714285714286,4,1,0,100,1,0
1586,-76.9230769230769,4,1,0,100,0,0
8443,-76.9230769230769,4,1,0,100,0,0
8728,-100,4,1,0,100,0,0
9014,-76.9230769230769,4,1,0,100,0,0
9299,-100,4,1,0,100,0,0
9586,-76.9230769230769,4,1,0,100,0,0
9871,-71.4285714285714,4,1,0,100,0,0
10157,-66.6666666666667,4,1,0,100,0,0
10443,-62.5,4,1,0,100,0,0
10728,-62.111801242236,4,1,0,100,0,0
10800,-64.5161290322581,4,1,0,100,0,0
10871,-66.6666666666667,4,1,0,100,0,0
10943,-68.9655172413793,4,1,0,100,0,0
11014,-71.4285714285714,4,1,0,100,0,0
11086,-100,4,1,0,100,0,0
11728,-72.992700729927,4,1,0,100,0,0
11800,-76.3358778625954,4,1,0,100,0,0
11871,-80,4,1,0,100,0,0
11943,-83.3333333333333,4,1,0,100,0,0
12014,-86.9565217391304,4,1,0,100,0,0
12157,-80,4,1,0,100,0,0
12228,-83.3333333333333,4,1,0,100,0,0
12300,-86.9565217391304,4,1,0,100,0,0
12443,-72.992700729927,4,1,0,100,0,0
12514,-76.3358778625954,4,1,0,100,0,0
12586,-80,4,1,0,100,0,0
12657,-83.3333333333333,4,1,0,100,0,0
12728,-86.9565217391304,4,1,0,100,0,0
12800,-90.9090909090909,4,1,0,100,0,0
12871,-95.2380952380952,4,1,0,100,0,0
13013,-62.111801242236,4,1,0,100,0,0
13085,-64.5161290322581,4,1,0,100,0,0
13156,-66.6666666666667,4,1,0,100,0,0
13228,-68.9655172413793,4,1,0,100,0,0
13299,-71.4285714285714,4,1,0,100,0,0
13371,-100,4,1,0,100,0,0
14014,-63.2911392405063,4,1,0,100,0,0
14086,-66.2251655629139,4,1,0,100,0,0
14157,-69.4444444444444,4,1,0,100,0,0
14228,-72.463768115942,4,1,0,100,0,0
14300,-75.7575757575758,4,1,0,100,0,0
14371,-79.3650793650794,4,1,0,100,0,0
14443,-83.3333333333333,4,1,0,100,0,0
14514,-86.9565217391304,4,1,0,100,0,0
14586,-90.9090909090909,4,1,0,100,0,0
14657,-95.2380952380952,4,1,0,100,0,0
14728,-100,4,1,0,100,0,0
14776,-95.2380952380952,4,1,0,100,0,0
14824,-90.9090909090909,4,1,0,100,0,0
14871,-86.9565217391304,4,1,0,100,0,0
14919,-83.3333333333333,4,1,0,100,0,0
14966,-80,4,1,0,100,0,0
15014,-76.9230769230769,4,1,0,100,0,0
15086,-72.463768115942,4,1,0,100,0,0
15157,-68.4931506849315,4,1,0,100,0,0
15299,-62.111801242236,4,1,0,100,0,0
15371,-64.5161290322581,4,1,0,100,0,0
15442,-66.6666666666667,4,1,0,100,0,0
15514,-68.9655172413793,4,1,0,100,0,0
15585,-71.4285714285714,4,1,0,100,0,0
15657,-100,4,1,0,100,0,0
16299,-72.992700729927,4,1,0,100,0,0
16371,-76.3358778625954,4,1,0,100,0,0
16442,-80,4,1,0,100,0,0
16514,-83.3333333333333,4,1,0,100,0,0
16585,-86.9565217391304,4,1,0,100,0,0
16728,-80,4,1,0,100,0,0
16799,-83.3333333333333,4,1,0,100,0,0
16871,-86.9565217391304,4,1,0,100,0,0
17014,-72.992700729927,4,1,0,100,0,0
17085,-76.3358778625954,4,1,0,100,0,0
17157,-80,4,1,0,100,0,0
17228,-83.3333333333333,4,1,0,100,0,0
17299,-86.9565217391304,4,1,0,100,0,0
17371,-90.9090909090909,4,1,0,100,0,0
17442,-95.2380952380952,4,1,0,100,0,0
17585,-62.111801242236,4,1,0,100,0,0
17657,-64.5161290322581,4,1,0,100,0,0
17728,-66.6666666666667,4,1,0,100,0,0
17800,-68.9655172413793,4,1,0,100,0,0
17871,-71.4285714285714,4,1,0,100,0,0
17943,-100,4,1,0,100,0,0
18585,-58.8235294117647,4,1,0,100,0,0
18657,-61.7283950617284,4,1,0,100,0,0
18728,-64.9350649350649,4,1,0,100,0,0
18800,-68.4931506849315,4,1,0,100,0,0
18871,-72.463768115942,4,1,0,100,0,0
18942,-76.9230769230769,4,1,0,100,0,0
19014,-81.9672131147541,4,1,0,100,0,0
19086,-86.9565217391304,4,1,0,100,0,0
19157,-92.5925925925926,4,1,0,100,0,0
19228,-99.009900990099,4,1,0,100,0,0
19300,-105.263157894737,4,1,0,100,0,0
19347,-100,4,1,0,100,0,0
19395,-95.2380952380952,4,1,0,100,0,0
19443,-90.9090909090909,4,1,0,100,0,0
19490,-86.9565217391304,4,1,0,100,0,0
19538,-83.3333333333333,4,1,0,100,0,0
19586,-71.4285714285714,4,1,0,100,0,0
19657,-100,4,1,0,100,0,0
19871,-71.4285714285714,4,1,0,100,0,0
20014,-98.0392156862745,4,1,0,100,0,0
20086,-96.1538461538461,4,1,0,100,0,0
20157,-94.3396226415094,4,1,0,100,0,0
20300,-58.8235294117647,4,1,0,100,0,0
20443,-89.2857142857143,4,1,0,100,0,0
20514,-87.719298245614,4,1,0,100,0,0
20586,-86.2068965517241,4,1,0,100,0,0
20728,-50,4,1,0,100,0,0
20871,-81.9672131147541,4,1,0,100,0,0
20943,-80.6451612903226,4,1,0,100,0,0
21014,-79.3650793650794,4,1,0,100,0,0
21157,-43.4782608695652,4,1,0,100,0,0
21300,-75.7575757575758,4,1,0,100,0,0
21371,-74.6268656716418,4,1,0,100,0,0
21443,-73.5294117647059,4,1,0,100,0,0
21586,-38.4615384615385,4,1,0,100,0,0
21728,-70.4225352112676,4,1,0,100,0,0
21800,-69.4444444444444,4,1,0,100,0,0
21871,-68.4931506849315,4,1,0,100,0,0
22014,-34.4827586206897,4,1,0,100,0,0
22086,-100,4,1,0,100,0,0
22157,285.714285714286,4,1,0,100,1,8
22438,285.714285714286,4,1,0,100,1,0
22438,-100,4,1,0,100,0,0
22439,-66.6666666666667,4,1,0,100,0,0
22448,285.714285714286,4,1,0,100,1,0
22448,-100,4,1,0,100,0,0
22581,285.714285714286,4,1,0,100,1,0
22581,-100,4,1,0,100,0,0
22582,-50,4,1,0,100,0,0
22591,285.714285714286,4,1,0,100,1,0
22591,-100,4,1,0,100,0,0
22866,285.714285714286,4,1,0,100,1,0
22866,-100,4,1,0,100,0,0
22867,-33.3333333333333,4,1,0,100,0,0
22876,285.714285714286,4,1,0,100,1,0
22876,-100,4,1,0,100,0,0
23152,285.714285714286,4,1,0,100,1,0
23152,-100,4,1,0,100,0,0
23153,-25,4,1,0,100,0,0
23162,285.714285714286,4,1,0,100,1,0
23162,-100,4,1,0,100,0,0
23438,285.714285714286,4,1,0,100,1,0
23438,-100,4,1,0,100,0,0
23439,-25,4,1,0,100,0,0
23448,285.714285714286,4,1,0,100,1,0
23448,-100,4,1,0,100,0,0
23723,285.714285714286,4,1,0,100,1,0
23723,-100,4,1,0,100,0,0
23724,-1E-20,4,1,0,100,0,0
23733,285.714285714286,4,1,0,100,1,0
23733,-100,4,1,0,100,0,0
23866,285.714285714286,4,1,0,100,1,0
23866,-100,4,1,0,100,0,0
23867,-1E-20,4,1,0,100,0,0
23876,285.714285714286,4,1,0,100,1,0
23876,-100,4,1,0,100,0,0
24443,285.714285714286,4,1,0,100,1,8
24443,-333.333333333334,4,1,0,100,0,0
25586,-333.333333333333,4,1,0,100,0,0
25657,-100,4,1,0,100,0,0
26728,-52.6315789473684,4,1,0,100,0,0
26871,-55.5555555555556,4,1,0,100,0,0
27157,-62.5,4,1,0,100,0,0
27443,-71.4285714285714,4,1,0,100,0,0
27728,-83.3333333333333,4,1,0,100,0,0
27870,960,4,1,0,100,1,9
27870,-16.6666666666667,4,1,0,100,0,1
27906,960,4,1,0,100,1,9
27906,-16.6666666666667,4,1,0,100,0,1
27941,960,4,1,0,100,1,9
27941,-16.6666666666667,4,1,0,100,0,1
27977,960,4,1,0,100,1,9
27977,-16.6666666666667,4,1,0,100,0,1
28013,960,4,1,0,100,1,9
28013,-16.6666666666667,4,1,0,100,0,1
28048,960,4,1,0,100,1,9
28048,-16.6666666666667,4,1,0,100,0,1
28084,960,4,1,0,100,1,9
28084,-16.6666666666667,4,1,0,100,0,1
28120,960,4,1,0,100,1,9
28120,-16.6666666666667,4,1,0,100,0,1
28156,960,4,1,0,100,1,9
28156,-16.6666666666667,4,1,0,100,0,1
28192,960,4,1,0,100,1,9
28192,-16.6666666666667,4,1,0,100,0,1
28227,960,4,1,0,100,1,9
28227,-16.6666666666667,4,1,0,100,0,1
28263,960,4,1,0,100,1,9
28263,-16.6666666666667,4,1,0,100,0,1
28299,960,4,1,0,100,1,9
28299,-16.6666666666667,4,1,0,100,0,1
28317,-50,4,1,0,100,0,1
28334,960,4,1,0,100,1,9
28334,-16.6666666666667,4,1,0,100,0,1
28370,960,4,1,0,100,1,9
28370,-16.6666666666667,4,1,0,100,0,1
28406,960,4,1,0,100,1,9
28406,-16.6666666666667,4,1,0,100,0,1
28442,960,4,1,0,100,1,9
28442,-16.6666666666667,4,1,0,100,0,1
28478,960,4,1,0,100,1,9
28478,-16.6666666666667,4,1,0,100,0,1
28513,960,4,1,0,100,1,9
28513,-16.6666666666667,4,1,0,100,0,1
28549,960,4,1,0,100,1,9
28549,-16.6666666666667,4,1,0,100,0,1
28585,960,4,1,0,100,1,9
28585,-16.6666666666667,4,1,0,100,0,1
28602,-50,4,1,0,100,0,1
28620,960,4,1,0,100,1,9
28620,-16.6666666666667,4,1,0,100,0,1
28656,960,4,1,0,100,1,9
28656,-16.6666666666667,4,1,0,100,0,1
28692,960,4,1,0,100,1,9
28692,-16.6666666666667,4,1,0,100,0,1
28727,960,4,1,0,100,1,9
28727,-16.6666666666667,4,1,0,100,0,1
28763,960,4,1,0,100,1,9
28763,-16.6666666666667,4,1,0,100,0,1
28798,960,4,1,0,100,1,9
28798,-16.6666666666667,4,1,0,100,0,1
28834,960,4,1,0,100,1,9
28834,-16.6666666666667,4,1,0,100,0,1
28870,960,4,1,0,100,1,9
28870,-16.6666666666667,4,1,0,100,0,1
28888,-50,4,1,0,100,0,1
28905,960,4,1,0,100,1,9
28905,-16.6666666666667,4,1,0,100,0,1
28941,960,4,1,0,100,1,9
28941,-16.6666666666667,4,1,0,100,0,1
28977,960,4,1,0,100,1,9
28977,-16.6666666666667,4,1,0,100,0,1
29013,960,4,1,0,100,1,9
29013,-16.6666666666667,4,1,0,100,0,1
29049,960,4,1,0,100,1,9
29049,-16.6666666666667,4,1,0,100,0,1
29084,960,4,1,0,100,1,9
29084,-16.6666666666667,4,1,0,100,0,1
29120,960,4,1,0,100,1,9
29120,-16.6666666666667,4,1,0,100,0,1
29156,960,4,1,0,100,1,9
29156,-16.6666666666667,4,1,0,100,0,1
29174,-50,4,1,0,100,0,1
29191,960,4,1,0,100,1,9
29191,-16.6666666666667,4,1,0,100,0,1
29227,960,4,1,0,100,1,9
29227,-16.6666666666667,4,1,0,100,0,1
29263,960,4,1,0,100,1,9
29263,-16.6666666666667,4,1,0,100,0,1
29299,960,4,1,0,100,1,9
29299,-16.6666666666667,4,1,0,100,0,1
29335,960,4,1,0,100,1,9
29335,-16.6666666666667,4,1,0,100,0,1
29370,960,4,1,0,100,1,9
29370,-16.6666666666667,4,1,0,100,0,1
29406,960,4,1,0,100,1,9
29406,-16.6666666666667,4,1,0,100,0,1
29442,960,4,1,0,100,1,9
29442,-16.6666666666667,4,1,0,100,0,1
29459,-50,4,1,0,100,0,1
29477,960,4,1,0,100,1,9
29477,-16.6666666666667,4,1,0,100,0,1
29513,960,4,1,0,100,1,9
29513,-16.6666666666667,4,1,0,100,0,1
29549,960,4,1,0,100,1,9
29549,-16.6666666666667,4,1,0,100,0,1
29584,960,4,1,0,100,1,9
29584,-16.6666666666667,4,1,0,100,0,1
29620,960,4,1,0,100,1,9
29620,-16.6666666666667,4,1,0,100,0,1
29655,960,4,1,0,100,1,9
29655,-16.6666666666667,4,1,0,100,0,1
29691,960,4,1,0,100,1,9
29691,-16.6666666666667,4,1,0,100,0,1
29727,960,4,1,0,100,1,9
29727,-16.6666666666667,4,1,0,100,0,1
29745,-50,4,1,0,100,0,1
29762,960,4,1,0,100,1,9
29762,-16.6666666666667,4,1,0,100,0,1
29798,960,4,1,0,100,1,9
29798,-16.6666666666667,4,1,0,100,0,1
29834,960,4,1,0,100,1,9
29834,-16.6666666666667,4,1,0,100,0,1
29870,960,4,1,0,100,1,9
29870,-16.6666666666667,4,1,0,100,0,1
29906,960,4,1,0,100,1,9
29906,-16.6666666666667,4,1,0,100,0,1
29941,960,4,1,0,100,1,9
29941,-16.6666666666667,4,1,0,100,0,1
29977,960,4,1,0,100,1,9
29977,-16.6666666666667,4,1,0,100,0,1
30013,960,4,1,0,100,1,9
30013,-16.6666666666667,4,1,0,100,0,1
30031,-50,4,1,0,100,0,1
30048,960,4,1,0,100,1,9
30048,-16.6666666666667,4,1,0,100,0,1
30084,960,4,1,0,100,1,9
30084,-16.6666666666667,4,1,0,100,0,1
30120,960,4,1,0,100,1,9
30120,-16.6666666666667,4,1,0,100,0,1
30156,960,4,1,0,100,1,9
30156,-16.6666666666667,4,1,0,100,0,1
30192,960,4,1,0,100,1,9
30192,-16.6666666666667,4,1,0,100,0,1
30227,960,4,1,0,100,1,9
30227,-16.6666666666667,4,1,0,100,0,1
30263,960,4,1,0,100,1,9
30263,-16.6666666666667,4,1,0,100,0,1
30299,960,4,1,0,100,1,9
30299,-16.6666666666667,4,1,0,100,0,1
30317,-50,4,1,0,100,0,1
30334,960,4,1,0,100,1,9
30334,-16.6666666666667,4,1,0,100,0,1
30370,960,4,1,0,100,1,9
30370,-16.6666666666667,4,1,0,100,0,1
30406,960,4,1,0,100,1,9
30406,-16.6666666666667,4,1,0,100,0,1
30442,960,4,1,0,100,1,9
30442,-16.6666666666667,4,1,0,100,0,1
30478,960,4,1,0,100,1,9
30478,-16.6666666666667,4,1,0,100,0,1
30513,960,4,1,0,100,1,9
30513,-16.6666666666667,4,1,0,100,0,1
30549,960,4,1,0,100,1,9
30549,-16.6666666666667,4,1,0,100,0,1
30585,960,4,1,0,100,1,9
30585,-16.6666666666667,4,1,0,100,0,1
30602,-50,4,1,0,100,0,1
30620,960,4,1,0,100,1,9
30620,-16.6666666666667,4,1,0,100,0,1
30656,960,4,1,0,100,1,9
30656,-16.6666666666667,4,1,0,100,0,1
30692,960,4,1,0,100,1,9
30692,-16.6666666666667,4,1,0,100,0,1
30727,960,4,1,0,100,1,9
30727,-16.6666666666667,4,1,0,100,0,1
30763,960,4,1,0,100,1,9
30763,-16.6666666666667,4,1,0,100,0,1
30798,960,4,1,0,100,1,9
30798,-16.6666666666667,4,1,0,100,0,1
30834,960,4,1,0,100,1,9
30834,-16.6666666666667,4,1,0,100,0,1
30870,960,4,1,0,100,1,9
30870,-16.6666666666667,4,1,0,100,0,1
30888,-50,4,1,0,100,0,1
30905,960,4,1,0,100,1,9
30905,-16.6666666666667,4,1,0,100,0,1
30941,960,4,1,0,100,1,9
30941,-16.6666666666667,4,1,0,100,0,1
30977,960,4,1,0,100,1,9
30977,-16.6666666666667,4,1,0,100,0,1
31013,960,4,1,0,100,1,9
31013,-16.6666666666667,4,1,0,100,0,1
31049,960,4,1,0,100,1,9
31049,-16.6666666666667,4,1,0,100,0,1
31084,960,4,1,0,100,1,9
31084,-16.6666666666667,4,1,0,100,0,1
31120,960,4,1,0,100,1,9
31120,-16.6666666666667,4,1,0,100,0,1
31156,960,4,1,0,100,1,9
31156,-16.6666666666667,4,1,0,100,0,1
31174,-50,4,1,0,100,0,1
31191,960,4,1,0,100,1,9
31191,-16.6666666666667,4,1,0,100,0,1
31227,960,4,1,0,100,1,9
31227,-16.6666666666667,4,1,0,100,0,1
31263,960,4,1,0,100,1,9
31263,-16.6666666666667,4,1,0,100,0,1
31299,960,4,1,0,100,1,9
31299,-16.6666666666667,4,1,0,100,0,1
31335,960,4,1,0,100,1,9
31335,-16.6666666666667,4,1,0,100,0,1
31370,960,4,1,0,100,1,9
31370,-16.6666666666667,4,1,0,100,0,1
31406,960,4,1,0,100,1,9
31406,-16.6666666666667,4,1,0,100,0,1
31442,960,4,1,0,100,1,9
31442,-16.6666666666667,4,1,0,100,0,1
31459,-50,4,1,0,100,0,1
31477,960,4,1,0,100,1,9
31477,-16.6666666666667,4,1,0,100,0,1
31513,960,4,1,0,100,1,9
31513,-16.6666666666667,4,1,0,100,0,1
31549,960,4,1,0,100,1,9
31549,-16.6666666666667,4,1,0,100,0,1
31584,960,4,1,0,100,1,9
31584,-16.6666666666667,4,1,0,100,0,1
31620,960,4,1,0,100,1,9
31620,-16.6666666666667,4,1,0,100,0,1
31655,960,4,1,0,100,1,9
31655,-16.6666666666667,4,1,0,100,0,1
31691,960,4,1,0,100,1,9
31691,-16.6666666666667,4,1,0,100,0,1
31727,960,4,1,0,100,1,9
31727,-16.6666666666667,4,1,0,100,0,1
31745,-50,4,1,0,100,0,1
31762,960,4,1,0,100,1,9
31762,-16.6666666666667,4,1,0,100,0,1
31798,960,4,1,0,100,1,9
31798,-16.6666666666667,4,1,0,100,0,1
31834,960,4,1,0,100,1,9
31834,-16.6666666666667,4,1,0,100,0,1
31870,960,4,1,0,100,1,9
31870,-16.6666666666667,4,1,0,100,0,1
31906,960,4,1,0,100,1,9
31906,-16.6666666666667,4,1,0,100,0,1
31941,960,4,1,0,100,1,9
31941,-16.6666666666667,4,1,0,100,0,1
31977,960,4,1,0,100,1,9
31977,-16.6666666666667,4,1,0,100,0,1
32013,960,4,1,0,100,1,9
32013,-16.6666666666667,4,1,0,100,0,1
32031,-50,4,1,0,100,0,1
32048,960,4,1,0,100,1,9
32048,-16.6666666666667,4,1,0,100,0,1
32084,960,4,1,0,100,1,9
32084,-16.6666666666667,4,1,0,100,0,1
32120,960,4,1,0,100,1,9
32120,-16.6666666666667,4,1,0,100,0,1
32156,960,4,1,0,100,1,9
32156,-16.6666666666667,4,1,0,100,0,1
32192,960,4,1,0,100,1,9
32192,-16.6666666666667,4,1,0,100,0,1
32227,960,4,1,0,100,1,9
32227,-16.6666666666667,4,1,0,100,0,1
32263,960,4,1,0,100,1,9
32263,-16.6666666666667,4,1,0,100,0,1
32299,960,4,1,0,100,1,9
32299,-16.6666666666667,4,1,0,100,0,1
32317,-50,4,1,0,100,0,1
32334,960,4,1,0,100,1,9
32334,-16.6666666666667,4,1,0,100,0,1
32370,960,4,1,0,100,1,9
32370,-16.6666666666667,4,1,0,100,0,1
32406,960,4,1,0,100,1,9
32406,-16.6666666666667,4,1,0,100,0,1
32442,960,4,1,0,100,1,9
32442,-16.6666666666667,4,1,0,100,0,1
32478,960,4,1,0,100,1,9
32478,-16.6666666666667,4,1,0,100,0,1
32513,960,4,1,0,100,1,9
32513,-16.6666666666667,4,1,0,100,0,1
32549,960,4,1,0,100,1,9
32549,-16.6666666666667,4,1,0,100,0,1
32585,960,4,1,0,100,1,9
32585,-16.6666666666667,4,1,0,100,0,1
32602,-50,4,1,0,100,0,1
32620,960,4,1,0,100,1,9
32620,-16.6666666666667,4,1,0,100,0,1
32656,960,4,1,0,100,1,9
32656,-16.6666666666667,4,1,0,100,0,1
32692,960,4,1,0,100,1,9
32692,-16.6666666666667,4,1,0,100,0,1
32727,960,4,1,0,100,1,9
32727,-16.6666666666667,4,1,0,100,0,1
32763,960,4,1,0,100,1,9
32763,-16.6666666666667,4,1,0,100,0,1
32798,960,4,1,0,100,1,9
32798,-16.6666666666667,4,1,0,100,0,1
32834,960,4,1,0,100,1,9
32834,-16.6666666666667,4,1,0,100,0,1
32870,960,4,1,0,100,1,9
32870,-16.6666666666667,4,1,0,100,0,1
32888,-50,4,1,0,100,0,1
32905,960,4,1,0,100,1,9
32905,-16.6666666666667,4,1,0,100,0,1
32941,960,4,1,0,100,1,9
32941,-16.6666666666667,4,1,0,100,0,1
32977,960,4,1,0,100,1,9
32977,-16.6666666666667,4,1,0,100,0,1
33013,960,4,1,0,100,1,9
33013,-16.6666666666667,4,1,0,100,0,1
33049,960,4,1,0,100,1,9
33049,-16.6666666666667,4,1,0,100,0,1
33084,960,4,1,0,100,1,9
33084,-16.6666666666667,4,1,0,100,0,1
33120,960,4,1,0,100,1,9
33120,-16.6666666666667,4,1,0,100,0,1
33156,960,4,1,0,100,1,9
33156,-16.6666666666667,4,1,0,100,0,1
33174,-50,4,1,0,100,0,1
33191,960,4,1,0,100,1,9
33191,-16.6666666666667,4,1,0,100,0,1
33227,960,4,1,0,100,1,9
33227,-16.6666666666667,4,1,0,100,0,1
33263,960,4,1,0,100,1,9
33263,-16.6666666666667,4,1,0,100,0,1
33299,960,4,1,0,100,1,9
33299,-16.6666666666667,4,1,0,100,0,1
33335,960,4,1,0,100,1,9
33335,-16.6666666666667,4,1,0,100,0,1
33370,960,4,1,0,100,1,9
33370,-16.6666666666667,4,1,0,100,0,1
33406,960,4,1,0,100,1,9
33406,-16.6666666666667,4,1,0,100,0,1
33442,960,4,1,0,100,1,9
33442,-16.6666666666667,4,1,0,100,0,1
33459,-50,4,1,0,100,0,1
33477,960,4,1,0,100,1,9
33477,-16.6666666666667,4,1,0,100,0,1
33513,960,4,1,0,100,1,9
33513,-16.6666666666667,4,1,0,100,0,1
33549,960,4,1,0,100,1,9
33549,-16.6666666666667,4,1,0,100,0,1
33584,960,4,1,0,100,1,9
33584,-16.6666666666667,4,1,0,100,0,1
33620,960,4,1,0,100,1,9
33620,-16.6666666666667,4,1,0,100,0,1
33655,960,4,1,0,100,1,9
33655,-16.6666666666667,4,1,0,100,0,1
33691,960,4,1,0,100,1,9
33691,-16.6666666666667,4,1,0,100,0,1
33727,960,4,1,0,100,1,9
33727,-16.6666666666667,4,1,0,100,0,1
33745,-50,4,1,0,100,0,1
33762,960,4,1,0,100,1,9
33762,-16.6666666666667,4,1,0,100,0,1
33798,960,4,1,0,100,1,9
33798,-16.6666666666667,4,1,0,100,0,1
33834,960,4,1,0,100,1,9
33834,-16.6666666666667,4,1,0,100,0,1
33870,960,4,1,0,100,1,9
33870,-16.6666666666667,4,1,0,100,0,1
33906,960,4,1,0,100,1,9
33906,-16.6666666666667,4,1,0,100,0,1
33941,960,4,1,0,100,1,9
33941,-16.6666666666667,4,1,0,100,0,1
33977,960,4,1,0,100,1,9
33977,-16.6666666666667,4,1,0,100,0,1
34013,960,4,1,0,100,1,9
34013,-16.6666666666667,4,1,0,100,0,1
34031,-50,4,1,0,100,0,1
34048,960,4,1,0,100,1,9
34048,-16.6666666666667,4,1,0,100,0,1
34084,960,4,1,0,100,1,9
34084,-16.6666666666667,4,1,0,100,0,1
34120,960,4,1,0,100,1,9
34120,-16.6666666666667,4,1,0,100,0,1
34156,960,4,1,0,100,1,9
34156,-16.6666666666667,4,1,0,100,0,1
34192,960,4,1,0,100,1,9
34192,-16.6666666666667,4,1,0,100,0,1
34227,960,4,1,0,100,1,9
34227,-16.6666666666667,4,1,0,100,0,1
34263,960,4,1,0,100,1,9
34263,-16.6666666666667,4,1,0,100,0,1
34299,960,4,1,0,100,1,9
34299,-16.6666666666667,4,1,0,100,0,1
34317,-50,4,1,0,100,0,1
34334,960,4,1,0,100,1,9
34334,-16.6666666666667,4,1,0,100,0,1
34370,960,4,1,0,100,1,9
34370,-16.6666666666667,4,1,0,100,0,1
34406,960,4,1,0,100,1,9
34406,-16.6666666666667,4,1,0,100,0,1
34442,960,4,1,0,100,1,9
34442,-16.6666666666667,4,1,0,100,0,1
34478,960,4,1,0,100,1,9
34478,-16.6666666666667,4,1,0,100,0,1
34513,960,4,1,0,100,1,9
34513,-16.6666666666667,4,1,0,100,0,1
34549,960,4,1,0,100,1,9
34549,-16.6666666666667,4,1,0,100,0,1
34585,960,4,1,0,100,1,9
34585,-16.6666666666667,4,1,0,100,0,1
34602,-50,4,1,0,100,0,1
34620,960,4,1,0,100,1,9
34620,-16.6666666666667,4,1,0,100,0,1
34656,960,4,1,0,100,1,9
34656,-16.6666666666667,4,1,0,100,0,1
34692,960,4,1,0,100,1,9
34692,-16.6666666666667,4,1,0,100,0,1
34727,960,4,1,0,100,1,9
34727,-16.6666666666667,4,1,0,100,0,1
34763,960,4,1,0,100,1,9
34763,-16.6666666666667,4,1,0,100,0,1
34798,960,4,1,0,100,1,9
34798,-16.6666666666667,4,1,0,100,0,1
34834,960,4,1,0,100,1,9
34834,-16.6666666666667,4,1,0,100,0,1
34870,960,4,1,0,100,1,9
34870,-16.6666666666667,4,1,0,100,0,1
34888,-50,4,1,0,100,0,1
34905,960,4,1,0,100,1,9
34905,-16.6666666666667,4,1,0,100,0,1
34941,960,4,1,0,100,1,9
34941,-16.6666666666667,4,1,0,100,0,1
34977,960,4,1,0,100,1,9
34977,-16.6666666666667,4,1,0,100,0,1
35013,960,4,1,0,100,1,9
35013,-16.6666666666667,4,1,0,100,0,1
35049,960,4,1,0,100,1,9
35049,-16.6666666666667,4,1,0,100,0,1
35084,960,4,1,0,100,1,9
35084,-16.6666666666667,4,1,0,100,0,1
35120,960,4,1,0,100,1,9
35120,-16.6666666666667,4,1,0,100,0,1
35156,960,4,1,0,100,1,9
35156,-16.6666666666667,4,1,0,100,0,1
35174,-50,4,1,0,100,0,1
35191,960,4,1,0,100,1,9
35191,-16.6666666666667,4,1,0,100,0,1
35227,960,4,1,0,100,1,9
35227,-16.6666666666667,4,1,0,100,0,1
35263,960,4,1,0,100,1,9
35263,-16.6666666666667,4,1,0,100,0,1
35299,960,4,1,0,100,1,9
35299,-16.6666666666667,4,1,0,100,0,1
35335,960,4,1,0,100,1,9
35335,-16.6666666666667,4,1,0,100,0,1
35370,960,4,1,0,100,1,9
35370,-16.6666666666667,4,1,0,100,0,1
35406,960,4,1,0,100,1,9
35406,-16.6666666666667,4,1,0,100,0,1
35442,960,4,1,0,100,1,9
35442,-16.6666666666667,4,1,0,100,0,1
35459,-50,4,1,0,100,0,1
35477,960,4,1,0,100,1,9
35477,-16.6666666666667,4,1,0,100,0,1
35513,960,4,1,0,100,1,9
35513,-16.6666666666667,4,1,0,100,0,1
35549,960,4,1,0,100,1,9
35549,-16.6666666666667,4,1,0,100,0,1
35584,960,4,1,0,100,1,9
35584,-16.6666666666667,4,1,0,100,0,1
35620,960,4,1,0,100,1,9
35620,-16.6666666666667,4,1,0,100,0,1
35655,960,4,1,0,100,1,9
35655,-16.6666666666667,4,1,0,100,0,1
35691,960,4,1,0,100,1,9
35691,-16.6666666666667,4,1,0,100,0,1
35727,960,4,1,0,100,1,9
35727,-16.6666666666667,4,1,0,100,0,1
35745,-50,4,1,0,100,0,1
35762,960,4,1,0,100,1,9
35762,-16.6666666666667,4,1,0,100,0,1
35798,960,4,1,0,100,1,9
35798,-16.6666666666667,4,1,0,100,0,1
35834,960,4,1,0,100,1,9
35834,-16.6666666666667,4,1,0,100,0,1
35870,960,4,1,0,100,1,9
35870,-16.6666666666667,4,1,0,100,0,1
35906,960,4,1,0,100,1,9
35906,-16.6666666666667,4,1,0,100,0,1
35941,960,4,1,0,100,1,9
35941,-16.6666666666667,4,1,0,100,0,1
35977,960,4,1,0,100,1,9
35977,-16.6666666666667,4,1,0,100,0,1
36013,960,4,1,0,100,1,9
36013,-16.6666666666667,4,1,0,100,0,1
36031,-50,4,1,0,100,0,1
36048,960,4,1,0,100,1,9
36048,-16.6666666666667,4,1,0,100,0,1
36084,960,4,1,0,100,1,9
36084,-16.6666666666667,4,1,0,100,0,1
36120,960,4,1,0,100,1,9
36120,-16.6666666666667,4,1,0,100,0,1
36156,960,4,1,0,100,1,9
36156,-16.6666666666667,4,1,0,100,0,1
36192,960,4,1,0,100,1,9
36192,-16.6666666666667,4,1,0,100,0,1
36227,960,4,1,0,100,1,9
36227,-16.6666666666667,4,1,0,100,0,1
36263,960,4,1,0,100,1,9
36263,-16.6666666666667,4,1,0,100,0,1
36299,960,4,1,0,100,1,9
36299,-16.6666666666667,4,1,0,100,0,1
36317,-50,4,1,0,100,0,1
36334,960,4,1,0,100,1,9
36334,-16.6666666666667,4,1,0,100,0,1
36370,960,4,1,0,100,1,9
36370,-16.6666666666667,4,1,0,100,0,1
36406,960,4,1,0,100,1,9
36406,-16.6666666666667,4,1,0,100,0,1
36442,285.714285714286,4,1,0,100,1,8
36442,-58.8235294117647,4,1,0,100,0,0
36562,-55.5555555555556,4,1,0,100,0,0
36682,-52.6315789473684,4,1,0,100,0,0
36802,-50,4,1,0,100,0,0
37014,285.714285714286,4,1,0,100,1,0
37014,-100,4,1,0,100,0,0
37015,-102.040816326531,4,1,0,100,0,0
37085,-100,4,1,0,100,0,0
37086,-102.040816326531,4,1,0,100,0,0
37156,-100,4,1,0,100,0,0
37157,-102.040816326531,4,1,0,100,0,0
37228,-100,4,1,0,100,0,0
37229,-102.040816326531,4,1,0,100,0,0
37299,-100,4,1,0,100,0,0
37300,-102.040816326531,4,1,0,100,0,0
37371,-100,4,1,0,100,0,0
37372,-102.040816326531,4,1,0,100,0,0
37442,-100,4,1,0,100,0,0
37443,-102.040816326531,4,1,0,100,0,0
37514,-100,4,1,0,100,0,0
37515,-102.040816326531,4,1,0,100,0,0
37585,-100,4,1,0,100,0,0
37586,-102.040816326531,4,1,0,100,0,0
37656,-100,4,1,0,100,0,0
37657,-102.040816326531,4,1,0,100,0,0
37728,-100,4,1,0,100,0,0
37729,-102.040816326531,4,1,0,100,0,0
37799,-100,4,1,0,100,0,0
37800,-102.040816326531,4,1,0,100,0,0
37871,-100,4,1,0,100,0,0
37872,-102.040816326531,4,1,0,100,0,0
37942,-100,4,1,0,100,0,0
37943,-102.040816326531,4,1,0,100,0,0
38014,-100,4,1,0,100,0,0
38015,-102.040816326531,4,1,0,100,0,0
38085,-100,4,1,0,100,0,0
38086,-102.040816326531,4,1,0,100,0,0
38156,-100,4,1,0,100,0,0
38157,-102.040816326531,4,1,0,100,0,0
38228,-100,4,1,0,100,0,0
38229,-102.040816326531,4,1,0,100,0,0
38299,-100,4,1,0,100,0,0
38300,-102.040816326531,4,1,0,100,0,0
38371,-100,4,1,0,100,0,0
38372,-102.040816326531,4,1,0,100,0,0
38442,-100,4,1,0,100,0,0
38443,-102.040816326531,4,1,0,100,0,0
38514,-100,4,1,0,100,0,0
38515,-102.040816326531,4,1,0,100,0,0
38585,-100,4,1,0,100,0,0
38586,-102.040816326531,4,1,0,100,0,0
38656,-100,4,1,0,100,0,0
38657,-102.040816326531,4,1,0,100,0,0
38728,-100,4,1,0,100,0,0
38729,-102.040816326531,4,1,0,100,0,0
38799,-100,4,1,0,100,0,0
38800,-102.040816326531,4,1,0,100,0,0
38871,-100,4,1,0,100,0,0
38872,-102.040816326531,4,1,0,100,0,0
38942,-100,4,1,0,100,0,0
38943,-102.040816326531,4,1,0,100,0,0
39014,-100,4,1,0,100,0,0
39015,-102.040816326531,4,1,0,100,0,0
39085,-100,4,1,0,100,0,0
39086,-102.040816326531,4,1,0,100,0,0
39156,-100,4,1,0,100,0,0
39157,-102.040816326531,4,1,0,100,0,0
39228,-100,4,1,0,100,0,0
39229,-102.040816326531,4,1,0,100,0,0
39299,-100,4,1,0,100,0,0
39300,-102.040816326531,4,1,0,100,0,0
39371,-100,4,1,0,100,0,0
39372,-102.040816326531,4,1,0,100,0,0
39442,-100,4,1,0,100,0,0
39443,-102.040816326531,4,1,0,100,0,0
39514,-100,4,1,0,100,0,0
39515,-102.040816326531,4,1,0,100,0,0
39585,-100,4,1,0,100,0,0
39586,-102.040816326531,4,1,0,100,0,0
39656,-100,4,1,0,100,0,0
39657,-102.040816326531,4,1,0,100,0,0
39728,-100,4,1,0,100,0,0
39729,-102.040816326531,4,1,0,100,0,0
39799,-100,4,1,0,100,0,0
39800,-102.040816326531,4,1,0,100,0,0
39871,-100,4,1,0,100,0,0
39872,-102.040816326531,4,1,0,100,0,0
39942,-100,4,1,0,100,0,0
39943,-102.040816326531,4,1,0,100,0,0
40014,-100,4,1,0,100,0,0
40015,-102.040816326531,4,1,0,100,0,0
40085,-100,4,1,0,100,0,0
40086,-102.040816326531,4,1,0,100,0,0
40156,-100,4,1,0,100,0,0
40157,-102.040816326531,4,1,0,100,0,0
40228,-100,4,1,0,100,0,0
40229,-102.040816326531,4,1,0,100,0,0
40299,-100,4,1,0,100,0,0
40300,-102.040816326531,4,1,0,100,0,0
40371,-100,4,1,0,100,0,0
40372,-102.040816326531,4,1,0,100,0,0
40442,-100,4,1,0,100,0,0
40443,-102.040816326531,4,1,0,100,0,0
40514,-100,4,1,0,100,0,0
40515,-102.040816326531,4,1,0,100,0,0
40585,-100,4,1,0,100,0,0
40586,-102.040816326531,4,1,0,100,0,0
40656,-100,4,1,0,100,0,0
40657,-102.040816326531,4,1,0,100,0,0
40728,-100,4,1,0,100,0,0
40729,-102.040816326531,4,1,0,100,0,0
40799,-100,4,1,0,100,0,0
40800,-102.040816326531,4,1,0,100,0,0
40871,-100,4,1,0,100,0,0
40872,-102.040816326531,4,1,0,100,0,0
40942,-100,4,1,0,100,0,0
40943,-102.040816326531,4,1,0,100,0,0
41014,-100,4,1,0,100,0,0
41015,-102.040816326531,4,1,0,100,0,0
41085,-100,4,1,0,100,0,0
41086,-102.040816326531,4,1,0,100,0,0
41156,-100,4,1,0,100,0,0
41157,-102.040816326531,4,1,0,100,0,0
41228,-100,4,1,0,100,0,0
41229,-102.040816326531,4,1,0,100,0,0
41299,-100,4,1,0,100,0,0
41300,-102.040816326531,4,1,0,100,0,0
41371,-100,4,1,0,100,0,0
41372,-102.040816326531,4,1,0,100,0,0
41442,-100,4,1,0,100,0,0
41443,-102.040816326531,4,1,0,100,0,0
41514,-100,4,1,0,100,0,0
41515,-102.040816326531,4,1,0,100,0,0
41585,-100,4,1,0,100,0,0
41586,-102.040816326531,4,1,0,100,0,0
41656,-100,4,1,0,100,0,0
41657,-102.040816326531,4,1,0,100,0,0
41728,-100,4,1,0,100,0,0
41729,-102.040816326531,4,1,0,100,0,0
41799,-100,4,1,0,100,0,0
41800,-102.040816326531,4,1,0,100,0,0
41871,-100,4,1,0,100,0,0
41872,-102.040816326531,4,1,0,100,0,0
41942,-100,4,1,0,100,0,0
41943,-102.040816326531,4,1,0,100,0,0
42014,-100,4,1,0,100,0,0
42015,-102.040816326531,4,1,0,100,0,0
42085,-100,4,1,0,100,0,0
42086,-102.040816326531,4,1,0,100,0,0
42156,-100,4,1,0,100,0,0
42157,-102.040816326531,4,1,0,100,0,0
42228,-100,4,1,0,100,0,0
42229,-102.040816326531,4,1,0,100,0,0
42299,-100,4,1,0,100,0,0
42300,-102.040816326531,4,1,0,100,0,0
42371,-100,4,1,0,100,0,0
42372,-102.040816326531,4,1,0,100,0,0
42442,-100,4,1,0,100,0,0
42443,-102.040816326531,4,1,0,100,0,0
42514,-100,4,1,0,100,0,0
42515,-102.040816326531,4,1,0,100,0,0
42585,-100,4,1,0,100,0,0
42586,-102.040816326531,4,1,0,100,0,0
42656,-100,4,1,0,100,0,0
42657,-102.040816326531,4,1,0,100,0,0
42728,-100,4,1,0,100,0,0
42729,-102.040816326531,4,1,0,100,0,0
42799,-100,4,1,0,100,0,0
42800,-102.040816326531,4,1,0,100,0,0
42871,-100,4,1,0,100,0,0
42872,-102.040816326531,4,1,0,100,0,0
42942,-100,4,1,0,100,0,0
42943,-102.040816326531,4,1,0,100,0,0
43014,-100,4,1,0,100,0,0
43015,-102.040816326531,4,1,0,100,0,0
43085,-100,4,1,0,100,0,0
43086,-102.040816326531,4,1,0,100,0,0
43156,-100,4,1,0,100,0,0
43157,-102.040816326531,4,1,0,100,0,0
43228,-100,4,1,0,100,0,0
43229,-102.040816326531,4,1,0,100,0,0
43299,-100,4,1,0,100,0,0
43300,-102.040816326531,4,1,0,100,0,0
43371,-100,4,1,0,100,0,0
43372,-102.040816326531,4,1,0,100,0,0
43442,-100,4,1,0,100,0,0
43443,-102.040816326531,4,1,0,100,0,0
43514,-100,4,1,0,100,0,0
43515,-102.040816326531,4,1,0,100,0,0
43585,-100,4,1,0,100,0,0
43586,-102.040816326531,4,1,0,100,0,0
43656,-100,4,1,0,100,0,0
43657,-102.040816326531,4,1,0,100,0,0
43728,-100,4,1,0,100,0,0
43729,-102.040816326531,4,1,0,100,0,0
43799,-100,4,1,0,100,0,0
43800,-102.040816326531,4,1,0,100,0,0
43871,-100,4,1,0,100,0,0
43872,-102.040816326531,4,1,0,100,0,0
43942,-100,4,1,0,100,0,0
43943,-102.040816326531,4,1,0,100,0,0
44014,-100,4,1,0,100,0,0
44015,-102.040816326531,4,1,0,100,0,0
44085,-100,4,1,0,100,0,0
44086,-102.040816326531,4,1,0,100,0,0
44156,-100,4,1,0,100,0,0
44157,-102.040816326531,4,1,0,100,0,0
44228,-100,4,1,0,100,0,0
44229,-102.040816326531,4,1,0,100,0,0
44299,-100,4,1,0,100,0,0
44300,-102.040816326531,4,1,0,100,0,0
44371,-100,4,1,0,100,0,0
44372,-102.040816326531,4,1,0,100,0,0
44442,-100,4,1,0,100,0,0
44443,-102.040816326531,4,1,0,100,0,0
44514,-100,4,1,0,100,0,0
44515,-102.040816326531,4,1,0,100,0,0
44585,-100,4,1,0,100,0,0
44586,-102.040816326531,4,1,0,100,0,0
44656,-100,4,1,0,100,0,0
44728,-100,4,1,0,100,0,0
44729,-102.040816326531,4,1,0,100,0,0
44871,-100,4,1,0,100,0,0
44872,-102.040816326531,4,1,0,100,0,0
47871,-250,4,1,0,100,0,0
48300,-58.8235294117647,4,1,0,100,0,0
48443,-125,4,1,0,100,0,0
48728,-66.6666666666667,4,1,0,100,0,0
48871,-125,4,1,0,100,0,0
49014,-76.9230769230769,4,1,0,100,0,0
49157,-125,4,1,0,100,0,0
49443,-90.9090909090909,4,1,0,100,0,0
49514,-125,4,1,0,100,0,0
49800,-66.6666666666667,4,1,0,100,0,0
50014,-125,4,1,0,100,0,0
50085,-76.9230769230769,4,1,0,100,0,0
50300,-125,4,1,0,100,0,0
50514,-90.9090909090909,4,1,0,100,0,0
50657,-125,4,1,0,100,0,0
51728,-66.6666666666667,4,1,0,100,0,0
52800,-52.6315789473684,4,1,0,100,0,0
52943,-100,4,1,0,100,0,0
53228,-58.8235294117647,4,1,0,100,0,0
53371,-100,4,1,0,100,0,0
53514,-66.6666666666667,4,1,0,100,0,0
53657,-100,4,1,0,100,0,0
53943,-76.9230769230769,4,1,0,100,0,0
54085,-100,4,1,0,100,0,0
54371,-58.8235294117647,4,1,0,100,0,0
54514,-100,4,1,0,100,0,0
54657,-66.6666666666667,4,1,0,100,0,0
54800,-100,4,1,0,100,0,0
55085,-76.9230769230769,4,1,0,100,0,0
55228,-100,4,1,0,100,0,0
56228,-58.8235294117647,4,1,0,100,0,0
56371,-100,4,1,0,100,0,0
56514,-66.6666666666667,4,1,0,100,0,0
56657,-100,4,1,0,100,0,0
56800,-76.9230769230769,4,1,0,100,0,0
56943,-100,4,1,0,100,0,0
57443,-83.3333333333333,4,1,0,100,0,0
57728,-166.666666666667,4,1,0,100,0,0
57799,-147.058823529412,4,1,0,100,0,0
57870,-131.578947368421,4,1,0,100,0,0
57942,-119.047619047619,4,1,0,100,0,0
58013,-108.695652173913,4,1,0,100,0,0
58084,-99.9999999999999,4,1,0,100,0,0
58156,-91.743119266055,4,1,0,100,0,0
58227,-84.7457627118644,4,1,0,100,0,0
58299,-78.7401574803149,4,1,0,100,0,0
58370,-73.5294117647059,4,1,0,100,0,0
58442,-68.4931506849315,4,1,0,100,0,0
58513,-64.1025641025641,4,1,0,100,0,0
58584,-59.8802395209581,4,1,0,100,0,0
58871,-58.8235294117647,4,1,0,100,0,0
58943,-61.3496932515337,4,1,0,100,0,0
59014,-64.1025641025641,4,1,0,100,0,0
59085,-67.1140939597315,4,1,0,100,0,0
59157,-69.9300699300699,4,1,0,100,0,0
59228,-72.992700729927,4,1,0,100,0,0
59300,-76.3358778625954,4,1,0,100,0,0
59371,-80,4,1,0,100,0,0
59443,-84.0336134453781,4,1,0,100,0,0
59514,-87.719298245614,4,1,0,100,0,0
59585,-91.743119266055,4,1,0,100,0,0
59657,-96.1538461538461,4,1,0,100,0,0
59728,-101.010101010101,4,1,0,100,0,0
60014,-166.666666666667,4,1,0,100,0,0
60085,-147.058823529412,4,1,0,100,0,0
60156,-131.578947368421,4,1,0,100,0,0
60228,-119.047619047619,4,1,0,100,0,0
60299,-108.695652173913,4,1,0,100,0,0
60370,-99.9999999999999,4,1,0,100,0,0
60442,-91.743119266055,4,1,0,100,0,0
60513,-84.7457627118644,4,1,0,100,0,0
60585,-78.7401574803149,4,1,0,100,0,0
60656,-73.5294117647059,4,1,0,100,0,0
60728,-68.4931506849315,4,1,0,100,0,0
60799,-64.1025641025641,4,1,0,100,0,0
60870,-59.8802395209581,4,1,0,100,0,0
61156,-58.8235294117647,4,1,0,100,0,0
61228,-61.3496932515337,4,1,0,100,0,0
61299,-64.1025641025641,4,1,0,100,0,0
61370,-67.1140939597315,4,1,0,100,0,0
61442,-69.9300699300699,4,1,0,100,0,0
61513,-72.992700729927,4,1,0,100,0,0
61585,-76.3358778625954,4,1,0,100,0,0
61656,-80,4,1,0,100,0,0
61728,-84.0336134453781,4,1,0,100,0,0
61799,-87.719298245614,4,1,0,100,0,0
61870,-91.743119266055,4,1,0,100,0,0
61942,-96.1538461538461,4,1,0,100,0,0
62013,-101.010101010101,4,1,0,100,0,0
62300,-166.666666666667,4,1,0,100,0,0
62370,-147.058823529412,4,1,0,100,0,0
62441,-131.578947368421,4,1,0,100,0,0
62513,-119.047619047619,4,1,0,100,0,0
62584,-108.695652173913,4,1,0,100,0,0
62655,-99.9999999999999,4,1,0,100,0,0
62727,-91.743119266055,4,1,0,100,0,0
62798,-84.7457627118644,4,1,0,100,0,0
62870,-78.7401574803149,4,1,0,100,0,0
62941,-73.5294117647059,4,1,0,100,0,0
63013,-68.4931506849315,4,1,0,100,0,0
63084,-64.1025641025641,4,1,0,100,0,0
63155,-59.8802395209581,4,1,0,100,0,0
63442,-58.8235294117647,4,1,0,100,0,0
63514,-61.3496932515337,4,1,0,100,0,0
63585,-64.1025641025641,4,1,0,100,0,0
63656,-67.1140939597315,4,1,0,100,0,0
63728,-69.9300699300699,4,1,0,100,0,0
63799,-72.992700729927,4,1,0,100,0,0
63871,-76.3358778625954,4,1,0,100,0,0
63942,-80,4,1,0,100,0,0
64014,-84.0336134453781,4,1,0,100,0,0
64085,-87.719298245614,4,1,0,100,0,0
64156,-91.743119266055,4,1,0,100,0,0
64228,-96.1538461538461,4,1,0,100,0,0
64299,-101.010101010101,4,1,0,100,0,0
64442,-71.4285714285714,4,1,0,100,0,0
64585,-98.0392156862745,4,1,0,100,0,0
64657,-96.1538461538461,4,1,0,100,0,0
64728,-94.3396226415094,4,1,0,100,0,0
64871,-58.8235294117647,4,1,0,100,0,0
65014,-89.2857142857143,4,1,0,100,0,0
65085,-87.719298245614,4,1,0,100,0,0
65157,-86.2068965517241,4,1,0,100,0,0
65299,-50,4,1,0,100,0,0
65442,-81.9672131147541,4,1,0,100,0,0
65514,-80.6451612903226,4,1,0,100,0,0
65585,-79.3650793650794,4,1,0,100,0,0
65728,-43.4782608695652,4,1,0,100,0,0
65871,-75.7575757575758,4,1,0,100,0,0
65942,-74.6268656716418,4,1,0,100,0,0
66014,-73.5294117647059,4,1,0,100,0,0
66157,-38.4615384615385,4,1,0,100,0,0
66299,-70.4225352112676,4,1,0,100,0,0
66371,-69.4444444444444,4,1,0,100,0,0
66442,-68.4931506849315,4,1,0,100,0,0
66585,-34.4827586206897,4,1,0,100,0,0
67871,-40,4,1,0,100,0,0
68442,-100,4,1,0,100,0,0
69014,285.714285714286,4,1,0,100,1,1
69014,-83.3333333333333,4,1,0,100,0,1
69019,1.54,1,1,0,100,1,1
69019,-1E+50,1,1,0,100,0,1
69442,285.714285714286,4,1,0,100,1,9
69442,-83.3333333333333,4,1,0,100,0,1
69447,0.601436285791429,1,1,0,100,1,1
69447,-99999999999,4,1,0,100,0,1
69728,285.714285714286,4,1,0,100,1,9
69728,-83.3333333333333,4,1,0,100,0,1
69733,0.771436285791429,1,1,0,100,1,1
69733,-99999999999,4,1,0,100,0,1
70014,285.714285714286,4,1,0,100,1,9
70014,-83.3333333333333,4,1,0,100,0,1
70019,1.54,1,1,0,100,1,1
70019,-1E+50,1,1,0,100,0,1
70442,285.714285714286,4,1,0,100,1,9
70442,-83.3333333333333,4,1,0,100,0,1
70447,0.491436285791429,1,1,0,100,1,1
70447,-99999999999,4,1,0,100,0,1
70728,285.714285714286,4,1,0,100,1,9
70728,-83.3333333333333,4,1,0,100,0,1
70733,0.151436285791429,1,1,0,100,1,1
70733,-99999999999,4,1,0,100,0,1
71014,285.714285714286,4,1,0,100,1,9
71014,-83.3333333333333,4,1,0,100,0,1
71019,0.0914362857914289,1,1,0,100,1,1
71019,-99999999999,4,1,0,100,0,1
71299,285.714285714286,4,1,0,100,1,1
71299,-90.9090909090909,4,1,0,100,0,1
71371,-81.9672131147541,4,1,0,100,0,1
71442,-76.3358778625954,4,1,0,100,0,1
71514,-72.992700729927,4,1,0,100,0,1
71585,-71.4285714285714,4,1,0,100,0,1
71656,-72.992700729927,4,1,0,100,0,1
71728,-76.3358778625954,4,1,0,100,0,1
71799,-81.9672131147541,4,1,0,100,0,1
71871,-90.9090909090909,4,1,0,100,0,1
71942,-102.040816326531,4,1,0,100,0,1
72014,-112.359550561798,4,1,0,100,0,1
72085,-120.481927710843,4,1,0,100,0,1
72156,-125,4,1,0,100,0,1
72228,-120.481927710843,4,1,0,100,0,1
72299,-112.359550561798,4,1,0,100,0,1
72371,-102.040816326531,4,1,0,100,0,1
72439,-90.9090909090909,4,1,0,100,0,1
73728,-95.2380952380952,4,1,0,100,0,1
73871,-100,4,1,0,100,0,1
74155,-83.3333333333333,4,1,0,100,0,1
74440,-71.4285714285714,4,1,0,100,0,1
74726,-83.3333333333333,4,1,0,100,0,1
75012,-100,4,1,0,100,0,1
75298,-125,4,1,0,100,0,1
75583,-100,4,1,0,100,0,1
75869,-55.5555555555556,4,1,0,100,0,1
76155,-58.8235294117647,4,1,0,100,0,1
77083,-66.6666666666667,4,1,0,100,0,1
77583,-62.5,4,1,0,100,0,1
78156,285.714285714286,4,1,0,100,1,1
78156,-83.3333333333333,4,1,0,100,0,1
78161,1.54,1,1,0,100,1,1
78161,-1E+50,1,1,0,100,0,1
78585,285.714285714286,4,1,0,100,1,9
78585,-83.3333333333333,4,1,0,100,0,1
78602,0.601436285791429,1,1,0,100,1,1
78602,-99999999999,4,1,0,100,0,1
78871,285.714285714286,4,1,0,100,1,9
78871,-83.3333333333333,4,1,0,100,0,1
78888,0.771436285791429,1,1,0,100,1,1
78888,-99999999999,4,1,0,100,0,1
79156,285.714285714286,4,1,0,100,1,9
79156,-83.3333333333333,4,1,0,100,0,1
79161,1.54,1,1,0,100,1,1
79161,-1E+50,1,1,0,100,0,1
79585,285.714285714286,4,1,0,100,1,9
79585,-83.3333333333333,4,1,0,100,0,1
79602,0.491436285791429,1,1,0,100,1,1
79602,-99999999999,4,1,0,100,0,1
79871,285.714285714286,4,1,0,100,1,9
79871,-83.3333333333333,4,1,0,100,0,1
79888,0.151436285791429,1,1,0,100,1,1
79888,-99999999999,4,1,0,100,0,1
80156,285.714285714286,4,1,0,100,1,9
80156,-83.3333333333333,4,1,0,100,0,1
80174,0.0914362857914289,1,1,0,100,1,1
80174,-99999999999,4,1,0,100,0,1
80441,-90.9090909090909,4,1,0,100,0,1
80442,285.714285714286,4,1,0,100,1,1
80513,-79.3650793650794,4,1,0,100,0,1
80584,-72.463768115942,4,1,0,100,0,1
80656,-68.4931506849315,4,1,0,100,0,1
80727,-66.6666666666667,4,1,0,100,0,1
80798,-68.4931506849315,4,1,0,100,0,1
80870,-72.463768115942,4,1,0,100,0,1
80941,-79.3650793650794,4,1,0,100,0,1
81013,-90.9090909090909,4,1,0,100,0,1
81084,-106.382978723404,4,1,0,100,0,1
81156,-121.951219512195,4,1,0,100,0,1
81227,-135.135135135135,4,1,0,100,0,1
81298,-142.857142857143,4,1,0,100,0,1
81370,-135.135135135135,4,1,0,100,0,1
81441,-121.951219512195,4,1,0,100,0,1
81513,-106.382978723404,4,1,0,100,0,1
81584,-90.9090909090909,4,1,0,100,0,1
82871,-90.9090909090909,4,1,0,100,0,1
83013,-93.4579439252336,4,1,0,100,0,1
83299,-76.9230769230769,4,1,0,100,0,1
83584,-62.5,4,1,0,100,0,1
83870,-76.9230769230769,4,1,0,100,0,1
84156,-100,4,1,0,100,0,1
84442,-133.333333333333,4,1,0,100,0,1
84727,-100,4,1,0,100,0,1
85013,-55.5555555555556,4,1,0,100,0,1
85299,-58.8235294117647,4,1,0,100,0,1
85584,-62.5,4,1,0,100,0,1
85870,-66.6666666666667,4,1,0,100,0,1
87299,1142.85714285714,4,1,0,100,1,1
87299,-33.3333333333333,4,1,0,100,0,1
94156,-33.3333333333333,4,1,0,100,0,1
94162,-99999999999,4,1,0,100,0,1
94227,-33.3333333333333,4,1,0,100,0,1
94727,-33.3333333333333,4,1,0,100,0,1
94733,-99999999999,4,1,0,100,0,1
94798,-33.3333333333333,4,1,0,100,0,1
95299,-33.3333333333333,4,1,0,100,0,1
95305,-99999999999,4,1,0,100,0,1
95370,-33.3333333333333,4,1,0,100,0,1
95870,-33.3333333333333,4,1,0,100,0,1
95876,-99999999999,4,1,0,100,0,1
95941,-33.3333333333333,4,1,0,100,0,1
96441,-33.3333333333333,4,1,0,100,0,1
96447,-99999999999,4,1,0,100,0,1
96512,-33.3333333333333,4,1,0,100,0,1
97013,-33.3333333333333,4,1,0,100,0,1
97019,-99999999999,4,1,0,100,0,1
97084,-33.3333333333333,4,1,0,100,0,1
97584,-33.3333333333333,4,1,0,100,0,1
97590,-99999999999,4,1,0,100,0,1
97655,-33.3333333333333,4,1,0,100,0,1
98156,-33.3333333333333,4,1,0,100,0,1
98162,-99999999999,4,1,0,100,0,1
98227,-33.3333333333333,4,1,0,100,0,1
98727,-33.3333333333333,4,1,0,100,0,1
98733,-99999999999,4,1,0,100,0,1
98798,-33.3333333333333,4,1,0,100,0,1
99299,-33.3333333333333,4,1,0,100,0,1
99305,-99999999999,4,1,0,100,0,1
99370,-33.3333333333333,4,1,0,100,0,1
99870,-33.3333333333333,4,1,0,100,0,1
99876,-99999999999,4,1,0,100,0,1
99941,-33.3333333333333,4,1,0,100,0,1
100441,-33.3333333333333,4,1,0,100,0,1
100447,-99999999999,4,1,0,100,0,1
100512,-33.3333333333333,4,1,0,100,0,1
101013,-33.3333333333333,4,1,0,100,0,1
101019,-99999999999,4,1,0,100,0,1
101084,-33.3333333333333,4,1,0,100,0,1
101584,-33.3333333333333,4,1,0,100,0,1
101590,-99999999999,4,1,0,100,0,1
101655,-33.3333333333333,4,1,0,100,0,1
102156,-33.3333333333333,4,1,0,100,0,1
102162,-99999999999,4,1,0,100,0,1
102227,-33.3333333333333,4,1,0,100,0,0
103299,285.714285714286,4,1,0,100,1,8
105888,1.54,1,1,0,100,1,0
105888,-1E+50,1,1,0,100,0,0
106727,285.714285714286,4,1,0,100,1,8
106727,-100,4,1,0,100,0,0
106800,-90.0900900900901,4,1,0,100,0,0
106871,-111.111111111111,4,1,0,100,0,0
106943,-81.9672131147541,4,1,0,100,0,0
107014,-125,4,1,0,100,0,0
107085,-75.187969924812,4,1,0,100,0,0
107157,-142.857142857143,4,1,0,100,0,0
107228,-81.3008130081301,4,1,0,100,0,0
107300,-125,4,1,0,100,0,0
107371,-88.4955752212389,4,1,0,100,0,0
107443,-111.111111111111,4,1,0,100,0,0
107514,-97.0873786407767,4,1,0,100,0,0
107585,-33.3333333333333,4,1,0,100,0,0
107799,-100,4,1,0,100,0,0
107869,285.714285714286,4,1,0,100,1,8
107869,-100,4,1,0,100,0,0
108152,285.714285714286,4,1,0,100,1,0
108153,-1E-20,4,1,0,100,0,0
108162,285.714285714286,4,1,0,100,1,0
108295,285.714285714286,4,1,0,100,1,0
108296,-1E-20,4,1,0,100,0,0
108305,285.714285714286,4,1,0,100,1,0
108723,285.714285714286,4,1,0,100,1,0
108724,-1E-20,4,1,0,100,0,0
108733,285.714285714286,4,1,0,100,1,0
108866,285.714285714286,4,1,0,100,1,0
108867,-1E-20,4,1,0,100,0,0
108876,285.714285714286,4,1,0,100,1,0
109295,285.714285714286,4,1,0,100,1,0
109296,-1E-20,4,1,0,100,0,0
109305,285.714285714286,4,1,0,100,1,0
109438,285.714285714286,4,1,0,100,1,0
109439,-1E-20,4,1,0,100,0,0
109448,285.714285714286,4,1,0,100,1,0
109866,285.714285714286,4,1,0,100,1,0
109867,-1E-20,4,1,0,100,0,0
109876,285.714285714286,4,1,0,100,1,0
110009,285.714285714286,4,1,0,100,1,0
110010,-1E-20,4,1,0,100,0,0
110019,285.714285714286,4,1,0,100,1,0
110438,285.714285714286,4,1,0,100,1,0
110439,-1E-20,4,1,0,100,0,0
110448,285.714285714286,4,1,0,100,1,0
110580,285.714285714286,4,1,0,100,1,0
110581,-1E-20,4,1,0,100,0,0
110590,285.714285714286,4,1,0,100,1,0
111009,285.714285714286,4,1,0,100,1,0
111010,-1E-20,4,1,0,100,0,0
111019,285.714285714286,4,1,0,100,1,0
111152,285.714285714286,4,1,0,100,1,0
111153,-1E-20,4,1,0,100,0,0
111162,285.714285714286,4,1,0,100,1,0
111580,285.714285714286,4,1,0,100,1,0
111581,-1E-20,4,1,0,100,0,0
111590,285.714285714286,4,1,0,100,1,0
111723,285.714285714286,4,1,0,100,1,0
111724,-1E-20,4,1,0,100,0,0
111733,285.714285714286,4,1,0,100,1,0
111866,285.714285714286,4,1,0,100,1,0
111867,-1E-20,4,1,0,100,0,0
111876,285.714285714286,4,1,0,100,1,0
111938,285.714285714286,4,1,0,100,1,0
111939,-1E-20,4,1,0,100,0,0
111948,285.714285714286,4,1,0,100,1,0
112009,285.714285714286,4,1,0,100,1,0
112010,-1E-20,4,1,0,100,0,0
112019,285.714285714286,4,1,0,100,1,0
112080,285.714285714286,4,1,0,100,1,0
112081,-1E-20,4,1,0,100,0,0
112090,285.714285714286,4,1,0,100,1,0
112152,285.714285714286,4,1,0,100,1,0
112153,-1E-20,4,1,0,100,0,0
112162,285.714285714286,4,1,0,100,1,0
112295,285.714285714286,4,1,0,100,1,0
112296,-1E-20,4,1,0,100,0,0
112305,285.714285714286,4,1,0,100,1,0
112723,285.714285714286,4,1,0,100,1,0
112724,-1E-20,4,1,0,100,0,0
112733,285.714285714286,4,1,0,100,1,0
112866,285.714285714286,4,1,0,100,1,0
112867,-1E-20,4,1,0,100,0,0
112876,285.714285714286,4,1,0,100,1,0
113295,285.714285714286,4,1,0,100,1,0
113296,-1E-20,4,1,0,100,0,0
113305,285.714285714286,4,1,0,100,1,0
113438,285.714285714286,4,1,0,100,1,0
113439,-1E-20,4,1,0,100,0,0
113448,285.714285714286,4,1,0,100,1,0
113866,285.714285714286,4,1,0,100,1,0
113867,-1E-20,4,1,0,100,0,0
113876,285.714285714286,4,1,0,100,1,0
114009,285.714285714286,4,1,0,100,1,0
114010,-1E-20,4,1,0,100,0,0
114019,285.714285714286,4,1,0,100,1,0
114438,285.714285714286,4,1,0,100,1,0
114439,-1E-20,4,1,0,100,0,0
114448,285.714285714286,4,1,0,100,1,0
114580,285.714285714286,4,1,0,100,1,0
114581,-1E-20,4,1,0,100,0,0
114590,285.714285714286,4,1,0,100,1,0
115009,285.714285714286,4,1,0,100,1,0
115010,-1E-20,4,1,0,100,0,0
115019,285.714285714286,4,1,0,100,1,0
115152,285.714285714286,4,1,0,100,1,0
115153,-1E-20,4,1,0,100,0,0
115162,285.714285714286,4,1,0,100,1,0
115580,285.714285714286,4,1,0,100,1,0
115581,-1E-20,4,1,0,100,0,0
115590,285.714285714286,4,1,0,100,1,0
115723,285.714285714286,4,1,0,100,1,0
115724,-1E-20,4,1,0,100,0,0
115733,285.714285714286,4,1,0,100,1,0
116438,285.714285714286,4,1,0,100,1,0
116439,-1E-20,4,1,0,100,0,0
116448,285.714285714286,4,1,0,100,1,0
116509,285.714285714286,4,1,0,100,1,0
116510,-1E-20,4,1,0,100,0,0
116519,285.714285714286,4,1,0,100,1,0
116580,285.714285714286,4,1,0,100,1,0
116581,-1E-20,4,1,0,100,0,0
116590,285.714285714286,4,1,0,100,1,0
116652,285.714285714286,4,1,0,100,1,0
116653,-1E-20,4,1,0,100,0,0
116662,285.714285714286,4,1,0,100,1,0
116723,285.714285714286,4,1,0,100,1,0
116724,-1E-20,4,1,0,100,0,0
116733,285.714285714286,4,1,0,100,1,0
117014,285.714285714286,4,1,0,100,1,0
117014,-71.4285714285714,4,1,0,100,0,0
117156,-98.0392156862745,4,1,0,100,0,0
117228,-96.1538461538461,4,1,0,100,0,0
117299,-94.3396226415094,4,1,0,100,0,0
117442,-58.8235294117647,4,1,0,100,0,0
117585,-89.2857142857143,4,1,0,100,0,0
117656,-87.719298245614,4,1,0,100,0,0
117728,-86.2068965517241,4,1,0,100,0,0
117870,-50,4,1,0,100,0,0
118013,-81.9672131147541,4,1,0,100,0,0
118085,-80.6451612903226,4,1,0,100,0,0
118156,-79.3650793650794,4,1,0,100,0,0
118299,-43.4782608695652,4,1,0,100,0,0
118442,-75.7575757575758,4,1,0,100,0,0
118513,-74.6268656716418,4,1,0,100,0,0
118585,-73.5294117647059,4,1,0,100,0,0
118728,-38.4615384615385,4,1,0,100,0,0
118870,-70.4225352112676,4,1,0,100,0,0
118942,-69.4444444444444,4,1,0,100,0,0
119013,-68.4931506849315,4,1,0,100,0,0
119156,-34.4827586206897,4,1,0,100,0,0
119723,285.714285714286,4,1,0,100,1,0
119723,-90.9090909090909,4,1,0,100,0,0
119724,-1E-20,4,1,0,100,0,0
119733,285.714285714286,4,1,0,100,1,0
119733,-90.9090909090909,4,1,0,100,0,0
120009,285.714285714286,4,1,0,100,1,0
120009,-83.3333333333333,4,1,0,100,0,0
120010,-1E-20,4,1,0,100,0,0
120019,285.714285714286,4,1,0,100,1,0
120019,-83.3333333333333,4,1,0,100,0,0
120294,285.714285714286,4,1,0,100,1,0
120294,-76.9230769230769,4,1,0,100,0,0
120295,-1E-20,4,1,0,100,0,0
120304,285.714285714286,4,1,0,100,1,0
120304,-76.9230769230769,4,1,0,100,0,0
120723,285.714285714286,4,1,0,100,1,0
120723,-66.6666666666667,4,1,0,100,0,0
120724,-1E-20,4,1,0,100,0,0
120733,285.714285714286,4,1,0,100,1,0
120733,-66.6666666666667,4,1,0,100,0,0
121009,285.714285714286,4,1,0,100,1,0
121009,-66.6666666666667,4,1,0,100,0,0
121010,-1E-20,4,1,0,100,0,0
121019,285.714285714286,4,1,0,100,1,0
121019,-66.6666666666667,4,1,0,100,0,0
121585,285.714285714286,4,1,0,100,1,8
122727,285.714285714286,4,1,0,100,1,8
122727,-25,4,1,0,100,0,8
123298,-1E-20,4,1,0,100,0,0
123870,-100,4,1,0,100,0,0
125013,571.428571428571,4,1,0,100,1,1
125013,-50,4,1,0,100,0,9
125049,571.428571428571,4,1,0,100,1,9
125049,-50,4,1,0,100,0,9
125085,571.428571428571,4,1,0,100,1,9
125085,-50,4,1,0,100,0,9
125120,571.428571428571,4,1,0,100,1,9
125120,-50,4,1,0,100,0,9
125156,571.428571428571,4,1,0,100,1,9
125156,-50,4,1,0,100,0,9
125192,571.428571428571,4,1,0,100,1,9
125192,-50,4,1,0,100,0,9
125227,571.428571428571,4,1,0,100,1,9
125227,-50,4,1,0,100,0,9
125263,571.428571428571,4,1,0,100,1,9
125263,-50,4,1,0,100,0,9
125299,571.428571428571,4,1,0,100,1,9
125299,-50,4,1,0,100,0,9
125335,571.428571428571,4,1,0,100,1,9
125335,-50,4,1,0,100,0,9
125370,571.428571428571,4,1,0,100,1,9
125370,-50,4,1,0,100,0,9
125406,571.428571428571,4,1,0,100,1,9
125406,-50,4,1,0,100,0,9
125442,571.428571428571,4,1,0,100,1,9
125442,-50,4,1,0,100,0,9
125460,-100,4,1,0,100,0,1
125477,571.428571428571,4,1,0,100,1,9
125477,-50,4,1,0,100,0,9
125513,571.428571428571,4,1,0,100,1,9
125513,-50,4,1,0,100,0,9
125549,571.428571428571,4,1,0,100,1,9
125549,-50,4,1,0,100,0,9
125585,571.428571428571,4,1,0,100,1,9
125585,-50,4,1,0,100,0,9
125620,571.428571428571,4,1,0,100,1,9
125620,-50,4,1,0,100,0,9
125656,571.428571428571,4,1,0,100,1,9
125656,-50,4,1,0,100,0,9
125692,571.428571428571,4,1,0,100,1,9
125692,-50,4,1,0,100,0,9
125727,571.428571428571,4,1,0,100,1,9
125727,-50,4,1,0,100,0,9
125763,571.428571428571,4,1,0,100,1,9
125763,-50,4,1,0,100,0,9
125799,571.428571428571,4,1,0,100,1,9
125799,-50,4,1,0,100,0,9
125835,571.428571428571,4,1,0,100,1,9
125835,-50,4,1,0,100,0,9
125870,571.428571428571,4,1,0,100,1,9
125870,-50,4,1,0,100,0,9
125906,571.428571428571,4,1,0,100,1,9
125906,-50,4,1,0,100,0,9
125942,571.428571428571,4,1,0,100,1,9
125942,-50,4,1,0,100,0,9
125977,571.428571428571,4,1,0,100,1,9
125977,-50,4,1,0,100,0,9
126013,571.428571428571,4,1,0,100,1,9
126013,-50,4,1,0,100,0,9
126031,-100,4,1,0,100,0,1
126049,571.428571428571,4,1,0,100,1,9
126049,-50,4,1,0,100,0,9
126085,571.428571428571,4,1,0,100,1,9
126085,-50,4,1,0,100,0,9
126120,571.428571428571,4,1,0,100,1,9
126120,-50,4,1,0,100,0,9
126156,571.428571428571,4,1,0,100,1,1
126156,-50,4,1,0,100,0,9
126192,571.428571428571,4,1,0,100,1,9
126192,-50,4,1,0,100,0,9
126228,571.428571428571,4,1,0,100,1,9
126228,-50,4,1,0,100,0,9
126263,571.428571428571,4,1,0,100,1,9
126263,-50,4,1,0,100,0,9
126299,571.428571428571,4,1,0,100,1,9
126299,-50,4,1,0,100,0,9
126335,571.428571428571,4,1,0,100,1,9
126335,-50,4,1,0,100,0,9
126370,571.428571428571,4,1,0,100,1,9
126370,-50,4,1,0,100,0,9
126406,571.428571428571,4,1,0,100,1,9
126406,-50,4,1,0,100,0,9
126442,571.428571428571,4,1,0,100,1,9
126442,-50,4,1,0,100,0,9
126478,571.428571428571,4,1,0,100,1,9
126478,-50,4,1,0,100,0,9
126513,571.428571428571,4,1,0,100,1,9
126513,-50,4,1,0,100,0,9
126549,571.428571428571,4,1,0,100,1,9
126549,-50,4,1,0,100,0,9
126585,571.428571428571,4,1,0,100,1,9
126585,-50,4,1,0,100,0,9
126602,-100,4,1,0,100,0,1
126620,571.428571428571,4,1,0,100,1,9
126620,-50,4,1,0,100,0,9
126656,571.428571428571,4,1,0,100,1,9
126656,-50,4,1,0,100,0,9
126692,571.428571428571,4,1,0,100,1,9
126692,-50,4,1,0,100,0,9
126728,571.428571428571,4,1,0,100,1,9
126728,-50,4,1,0,100,0,9
126763,571.428571428571,4,1,0,100,1,9
126763,-50,4,1,0,100,0,9
126799,571.428571428571,4,1,0,100,1,9
126799,-50,4,1,0,100,0,9
126835,571.428571428571,4,1,0,100,1,9
126835,-50,4,1,0,100,0,9
126870,571.428571428571,4,1,0,100,1,9
126870,-50,4,1,0,100,0,9
126906,571.428571428571,4,1,0,100,1,9
126906,-50,4,1,0,100,0,9
126942,571.428571428571,4,1,0,100,1,9
126942,-50,4,1,0,100,0,9
126978,571.428571428571,4,1,0,100,1,9
126978,-50,4,1,0,100,0,9
127013,571.428571428571,4,1,0,100,1,9
127013,-50,4,1,0,100,0,9
127049,571.428571428571,4,1,0,100,1,9
127049,-50,4,1,0,100,0,9
127085,571.428571428571,4,1,0,100,1,9
127085,-50,4,1,0,100,0,9
127120,571.428571428571,4,1,0,100,1,9
127120,-50,4,1,0,100,0,9
127156,571.428571428571,4,1,0,100,1,9
127156,-50,4,1,0,100,0,9
127174,-100,4,1,0,100,0,1
127192,571.428571428571,4,1,0,100,1,9
127192,-50,4,1,0,100,0,9
127228,571.428571428571,4,1,0,100,1,9
127228,-50,4,1,0,100,0,9
127263,571.428571428571,4,1,0,100,1,9
127263,-50,4,1,0,100,0,9
127299,571.428571428571,4,1,0,100,1,1
127299,-50,4,1,0,100,0,9
127335,571.428571428571,4,1,0,100,1,9
127335,-50,4,1,0,100,0,9
127371,571.428571428571,4,1,0,100,1,9
127371,-50,4,1,0,100,0,9
127406,571.428571428571,4,1,0,100,1,9
127406,-50,4,1,0,100,0,9
127442,571.428571428571,4,1,0,100,1,9
127442,-50,4,1,0,100,0,9
127478,571.428571428571,4,1,0,100,1,9
127478,-50,4,1,0,100,0,9
127513,571.428571428571,4,1,0,100,1,9
127513,-50,4,1,0,100,0,9
127549,571.428571428571,4,1,0,100,1,9
127549,-50,4,1,0,100,0,9
127585,571.428571428571,4,1,0,100,1,9
127585,-50,4,1,0,100,0,9
127621,571.428571428571,4,1,0,100,1,9
127621,-50,4,1,0,100,0,9
127656,571.428571428571,4,1,0,100,1,9
127656,-50,4,1,0,100,0,9
127692,571.428571428571,4,1,0,100,1,9
127692,-50,4,1,0,100,0,9
127728,571.428571428571,4,1,0,100,1,9
127728,-50,4,1,0,100,0,9
127745,-100,4,1,0,100,0,1
127763,571.428571428571,4,1,0,100,1,9
127763,-50,4,1,0,100,0,9
127799,571.428571428571,4,1,0,100,1,9
127799,-50,4,1,0,100,0,9
127835,571.428571428571,4,1,0,100,1,9
127835,-50,4,1,0,100,0,9
127871,571.428571428571,4,1,0,100,1,9
127871,-50,4,1,0,100,0,9
127906,571.428571428571,4,1,0,100,1,9
127906,-50,4,1,0,100,0,9
127942,571.428571428571,4,1,0,100,1,9
127942,-50,4,1,0,100,0,9
127978,571.428571428571,4,1,0,100,1,9
127978,-50,4,1,0,100,0,9
128013,571.428571428571,4,1,0,100,1,9
128013,-50,4,1,0,100,0,9
128049,571.428571428571,4,1,0,100,1,9
128049,-50,4,1,0,100,0,9
128085,571.428571428571,4,1,0,100,1,9
128085,-50,4,1,0,100,0,9
128121,571.428571428571,4,1,0,100,1,9
128121,-50,4,1,0,100,0,9
128156,571.428571428571,4,1,0,100,1,9
128156,-50,4,1,0,100,0,9
128192,571.428571428571,4,1,0,100,1,9
128192,-50,4,1,0,100,0,9
128228,571.428571428571,4,1,0,100,1,9
128228,-50,4,1,0,100,0,9
128263,571.428571428571,4,1,0,100,1,9
128263,-50,4,1,0,100,0,9
128299,571.428571428571,4,1,0,100,1,9
128299,-50,4,1,0,100,0,9
128316,-100,4,1,0,100,0,1
128335,571.428571428571,4,1,0,100,1,9
128335,-50,4,1,0,100,0,9
128371,571.428571428571,4,1,0,100,1,9
128371,-50,4,1,0,100,0,9
128406,571.428571428571,4,1,0,100,1,9
128406,-50,4,1,0,100,0,9
128442,571.428571428571,4,1,0,100,1,1
128442,-50,4,1,0,100,0,9
128478,571.428571428571,4,1,0,100,1,9
128478,-50,4,1,0,100,0,9
128514,571.428571428571,4,1,0,100,1,9
128514,-50,4,1,0,100,0,9
128549,571.428571428571,4,1,0,100,1,9
128549,-50,4,1,0,100,0,9
128585,571.428571428571,4,1,0,100,1,9
128585,-50,4,1,0,100,0,9
128621,571.428571428571,4,1,0,100,1,9
128621,-50,4,1,0,100,0,9
128656,571.428571428571,4,1,0,100,1,9
128656,-50,4,1,0,100,0,9
128692,571.428571428571,4,1,0,100,1,9
128692,-50,4,1,0,100,0,9
128728,571.428571428571,4,1,0,100,1,9
128728,-50,4,1,0,100,0,9
128764,571.428571428571,4,1,0,100,1,9
128764,-50,4,1,0,100,0,9
128799,571.428571428571,4,1,0,100,1,9
128799,-50,4,1,0,100,0,9
128835,571.428571428571,4,1,0,100,1,9
128835,-50,4,1,0,100,0,9
128871,571.428571428571,4,1,0,100,1,9
128871,-50,4,1,0,100,0,9
128887,-100,4,1,0,100,0,1
128906,571.428571428571,4,1,0,100,1,9
128906,-50,4,1,0,100,0,9
128942,571.428571428571,4,1,0,100,1,9
128942,-50,4,1,0,100,0,9
128978,571.428571428571,4,1,0,100,1,9
128978,-50,4,1,0,100,0,9
129014,571.428571428571,4,1,0,100,1,9
129014,-50,4,1,0,100,0,9
129049,571.428571428571,4,1,0,100,1,9
129049,-50,4,1,0,100,0,9
129085,571.428571428571,4,1,0,100,1,9
129085,-50,4,1,0,100,0,9
129121,571.428571428571,4,1,0,100,1,9
129121,-50,4,1,0,100,0,9
129156,571.428571428571,4,1,0,100,1,9
129156,-50,4,1,0,100,0,9
129192,571.428571428571,4,1,0,100,1,9
129192,-50,4,1,0,100,0,9
129228,571.428571428571,4,1,0,100,1,9
129228,-50,4,1,0,100,0,9
129264,571.428571428571,4,1,0,100,1,9
129264,-50,4,1,0,100,0,9
129299,571.428571428571,4,1,0,100,1,9
129299,-50,4,1,0,100,0,9
129335,571.428571428571,4,1,0,100,1,9
129335,-50,4,1,0,100,0,9
129371,571.428571428571,4,1,0,100,1,9
129371,-50,4,1,0,100,0,9
129406,571.428571428571,4,1,0,100,1,9
129406,-50,4,1,0,100,0,9
129442,571.428571428571,4,1,0,100,1,9
129442,-50,4,1,0,100,0,9
129459,-100,4,1,0,100,0,1
129478,571.428571428571,4,1,0,100,1,9
129478,-50,4,1,0,100,0,9
129514,571.428571428571,4,1,0,100,1,9
129514,-50,4,1,0,100,0,9
129549,571.428571428571,4,1,0,100,1,9
129549,-50,4,1,0,100,0,9
129585,571.428571428571,4,1,0,100,1,1
129585,-50,4,1,0,100,0,9
129621,571.428571428571,4,1,0,100,1,9
129621,-50,4,1,0,100,0,9
129657,571.428571428571,4,1,0,100,1,9
129657,-50,4,1,0,100,0,9
129692,571.428571428571,4,1,0,100,1,9
129692,-50,4,1,0,100,0,9
129728,571.428571428571,4,1,0,100,1,9
129728,-50,4,1,0,100,0,9
129764,571.428571428571,4,1,0,100,1,9
129764,-50,4,1,0,100,0,9
129799,571.428571428571,4,1,0,100,1,9
129799,-50,4,1,0,100,0,9
129835,571.428571428571,4,1,0,100,1,9
129835,-50,4,1,0,100,0,9
129871,571.428571428571,4,1,0,100,1,9
129871,-50,4,1,0,100,0,9
129907,571.428571428571,4,1,0,100,1,9
129907,-50,4,1,0,100,0,9
129942,571.428571428571,4,1,0,100,1,9
129942,-50,4,1,0,100,0,9
129978,571.428571428571,4,1,0,100,1,9
129978,-50,4,1,0,100,0,9
130014,571.428571428571,4,1,0,100,1,9
130014,-50,4,1,0,100,0,9
130031,-100,4,1,0,100,0,1
130049,571.428571428571,4,1,0,100,1,9
130049,-50,4,1,0,100,0,9
130085,571.428571428571,4,1,0,100,1,9
130085,-50,4,1,0,100,0,9
130121,571.428571428571,4,1,0,100,1,9
130121,-50,4,1,0,100,0,9
130157,571.428571428571,4,1,0,100,1,9
130157,-50,4,1,0,100,0,9
130192,571.428571428571,4,1,0,100,1,9
130192,-50,4,1,0,100,0,9
130228,571.428571428571,4,1,0,100,1,9
130228,-50,4,1,0,100,0,9
130264,571.428571428571,4,1,0,100,1,9
130264,-50,4,1,0,100,0,9
130299,571.428571428571,4,1,0,100,1,9
130299,-50,4,1,0,100,0,9
130335,571.428571428571,4,1,0,100,1,9
130335,-50,4,1,0,100,0,9
130371,571.428571428571,4,1,0,100,1,9
130371,-50,4,1,0,100,0,9
130407,571.428571428571,4,1,0,100,1,9
130407,-50,4,1,0,100,0,9
130442,571.428571428571,4,1,0,100,1,9
130442,-50,4,1,0,100,0,9
130478,571.428571428571,4,1,0,100,1,9
130478,-50,4,1,0,100,0,9
130514,571.428571428571,4,1,0,100,1,9
130514,-50,4,1,0,100,0,9
130549,571.428571428571,4,1,0,100,1,9
130549,-50,4,1,0,100,0,9
130585,571.428571428571,4,1,0,100,1,9
130585,-50,4,1,0,100,0,9
130602,-100,4,1,0,100,0,1
130621,571.428571428571,4,1,0,100,1,9
130621,-50,4,1,0,100,0,9
130657,571.428571428571,4,1,0,100,1,9
130657,-50,4,1,0,100,0,9
130692,571.428571428571,4,1,0,100,1,9
130692,-50,4,1,0,100,0,9
130727,571.428571428571,4,1,0,100,1,1
130727,-50,4,1,0,100,0,9
130763,571.428571428571,4,1,0,100,1,9
130763,-50,4,1,0,100,0,9
130799,571.428571428571,4,1,0,100,1,9
130799,-50,4,1,0,100,0,9
130834,571.428571428571,4,1,0,100,1,9
130834,-50,4,1,0,100,0,9
130870,571.428571428571,4,1,0,100,1,9
130870,-50,4,1,0,100,0,9
130906,571.428571428571,4,1,0,100,1,9
130906,-50,4,1,0,100,0,9
130941,571.428571428571,4,1,0,100,1,9
130941,-50,4,1,0,100,0,9
130977,571.428571428571,4,1,0,100,1,9
130977,-50,4,1,0,100,0,9
131013,571.428571428571,4,1,0,100,1,9
131013,-50,4,1,0,100,0,9
131049,571.428571428571,4,1,0,100,1,9
131049,-50,4,1,0,100,0,9
131084,571.428571428571,4,1,0,100,1,9
131084,-50,4,1,0,100,0,9
131120,571.428571428571,4,1,0,100,1,9
131120,-50,4,1,0,100,0,9
131156,571.428571428571,4,1,0,100,1,9
131156,-50,4,1,0,100,0,9
131173,-100,4,1,0,100,0,1
131191,571.428571428571,4,1,0,100,1,9
131191,-50,4,1,0,100,0,9
131227,571.428571428571,4,1,0,100,1,9
131227,-50,4,1,0,100,0,9
131263,571.428571428571,4,1,0,100,1,9
131263,-50,4,1,0,100,0,9
131299,571.428571428571,4,1,0,100,1,9
131299,-50,4,1,0,100,0,9
131334,571.428571428571,4,1,0,100,1,9
131334,-50,4,1,0,100,0,9
131370,571.428571428571,4,1,0,100,1,9
131370,-50,4,1,0,100,0,9
131406,571.428571428571,4,1,0,100,1,9
131406,-50,4,1,0,100,0,9
131441,571.428571428571,4,1,0,100,1,9
131441,-50,4,1,0,100,0,9
131477,571.428571428571,4,1,0,100,1,9
131477,-50,4,1,0,100,0,9
131513,571.428571428571,4,1,0,100,1,9
131513,-50,4,1,0,100,0,9
131549,571.428571428571,4,1,0,100,1,9
131549,-50,4,1,0,100,0,9
131584,571.428571428571,4,1,0,100,1,9
131584,-50,4,1,0,100,0,9
131620,571.428571428571,4,1,0,100,1,9
131620,-50,4,1,0,100,0,9
131656,571.428571428571,4,1,0,100,1,9
131656,-50,4,1,0,100,0,9
131691,571.428571428571,4,1,0,100,1,9
131691,-50,4,1,0,100,0,9
131727,571.428571428571,4,1,0,100,1,9
131727,-50,4,1,0,100,0,9
131745,-100,4,1,0,100,0,1
131763,571.428571428571,4,1,0,100,1,9
131763,-50,4,1,0,100,0,9
131799,571.428571428571,4,1,0,100,1,9
131799,-50,4,1,0,100,0,9
131834,571.428571428571,4,1,0,100,1,9
131834,-50,4,1,0,100,0,9
131870,571.428571428571,4,1,0,100,1,1
131870,-50,4,1,0,100,0,9
131906,571.428571428571,4,1,0,100,1,9
131906,-50,4,1,0,100,0,9
131942,571.428571428571,4,1,0,100,1,9
131942,-50,4,1,0,100,0,9
131977,571.428571428571,4,1,0,100,1,9
131977,-50,4,1,0,100,0,9
132013,571.428571428571,4,1,0,100,1,9
132013,-50,4,1,0,100,0,9
132049,571.428571428571,4,1,0,100,1,9
132049,-50,4,1,0,100,0,9
132084,571.428571428571,4,1,0,100,1,9
132084,-50,4,1,0,100,0,9
132120,571.428571428571,4,1,0,100,1,9
132120,-50,4,1,0,100,0,9
132156,571.428571428571,4,1,0,100,1,9
132156,-50,4,1,0,100,0,9
132192,571.428571428571,4,1,0,100,1,9
132192,-50,4,1,0,100,0,9
132227,571.428571428571,4,1,0,100,1,9
132227,-50,4,1,0,100,0,9
132263,571.428571428571,4,1,0,100,1,9
132263,-50,4,1,0,100,0,9
132299,571.428571428571,4,1,0,100,1,9
132299,-50,4,1,0,100,0,9
132317,-100,4,1,0,100,0,1
132334,571.428571428571,4,1,0,100,1,9
132334,-50,4,1,0,100,0,9
132370,571.428571428571,4,1,0,100,1,9
132370,-50,4,1,0,100,0,9
132406,571.428571428571,4,1,0,100,1,9
132406,-50,4,1,0,100,0,9
132442,571.428571428571,4,1,0,100,1,9
132442,-50,4,1,0,100,0,9
132477,571.428571428571,4,1,0,100,1,9
132477,-50,4,1,0,100,0,9
132513,571.428571428571,4,1,0,100,1,9
132513,-50,4,1,0,100,0,9
132549,571.428571428571,4,1,0,100,1,9
132549,-50,4,1,0,100,0,9
132584,571.428571428571,4,1,0,100,1,9
132584,-50,4,1,0,100,0,9
132620,571.428571428571,4,1,0,100,1,9
132620,-50,4,1,0,100,0,9
132656,571.428571428571,4,1,0,100,1,9
132656,-50,4,1,0,100,0,9
132692,571.428571428571,4,1,0,100,1,9
132692,-50,4,1,0,100,0,9
132727,571.428571428571,4,1,0,100,1,9
132727,-50,4,1,0,100,0,9
132763,571.428571428571,4,1,0,100,1,9
132763,-50,4,1,0,100,0,9
132799,571.428571428571,4,1,0,100,1,9
132799,-50,4,1,0,100,0,9
132834,571.428571428571,4,1,0,100,1,9
132834,-50,4,1,0,100,0,9
132870,571.428571428571,4,1,0,100,1,9
132870,-50,4,1,0,100,0,9
132888,-100,4,1,0,100,0,1
132906,571.428571428571,4,1,0,100,1,9
132906,-50,4,1,0,100,0,9
132942,571.428571428571,4,1,0,100,1,9
132942,-50,4,1,0,100,0,9
132977,571.428571428571,4,1,0,100,1,9
132977,-50,4,1,0,100,0,9
133013,571.428571428571,4,1,0,100,1,1
133013,-50,4,1,0,100,0,9
133049,571.428571428571,4,1,0,100,1,9
133049,-50,4,1,0,100,0,9
133085,571.428571428571,4,1,0,100,1,9
133085,-50,4,1,0,100,0,9
133120,571.428571428571,4,1,0,100,1,9
133120,-50,4,1,0,100,0,9
133156,571.428571428571,4,1,0,100,1,9
133156,-50,4,1,0,100,0,9
133192,571.428571428571,4,1,0,100,1,9
133192,-50,4,1,0,100,0,9
133227,571.428571428571,4,1,0,100,1,9
133227,-50,4,1,0,100,0,9
133263,571.428571428571,4,1,0,100,1,9
133263,-50,4,1,0,100,0,9
133299,571.428571428571,4,1,0,100,1,9
133299,-50,4,1,0,100,0,9
133335,571.428571428571,4,1,0,100,1,9
133335,-50,4,1,0,100,0,9
133370,571.428571428571,4,1,0,100,1,9
133370,-50,4,1,0,100,0,9
133406,571.428571428571,4,1,0,100,1,9
133406,-50,4,1,0,100,0,9
133442,571.428571428571,4,1,0,100,1,9
133442,-50,4,1,0,100,0,9
133459,-100,4,1,0,100,0,1
133477,571.428571428571,4,1,0,100,1,9
133477,-50,4,1,0,100,0,9
133513,571.428571428571,4,1,0,100,1,9
133513,-50,4,1,0,100,0,9
133549,571.428571428571,4,1,0,100,1,9
133549,-50,4,1,0,100,0,9
133585,571.428571428571,4,1,0,100,1,9
133585,-50,4,1,0,100,0,9
133620,571.428571428571,4,1,0,100,1,9
133620,-50,4,1,0,100,0,9
133656,571.428571428571,4,1,0,100,1,9
133656,-50,4,1,0,100,0,9
133692,571.428571428571,4,1,0,100,1,9
133692,-50,4,1,0,100,0,9
133727,571.428571428571,4,1,0,100,1,9
133727,-50,4,1,0,100,0,9
133763,571.428571428571,4,1,0,100,1,9
133763,-50,4,1,0,100,0,9
133799,571.428571428571,4,1,0,100,1,9
133799,-50,4,1,0,100,0,9
133835,571.428571428571,4,1,0,100,1,9
133835,-50,4,1,0,100,0,9
133870,571.428571428571,4,1,0,100,1,9
133870,-50,4,1,0,100,0,9
133906,571.428571428571,4,1,0,100,1,9
133906,-50,4,1,0,100,0,9
133942,571.428571428571,4,1,0,100,1,9
133942,-50,4,1,0,100,0,9
133977,571.428571428571,4,1,0,100,1,9
133977,-50,4,1,0,100,0,9
134013,571.428571428571,4,1,0,100,1,9
134013,-50,4,1,0,100,0,9
134049,571.428571428571,4,1,0,100,1,9
134049,-50,4,1,0,100,0,9
134085,571.428571428571,4,1,0,100,1,9
134085,-50,4,1,0,100,0,9
134120,571.428571428571,4,1,0,100,1,9
134120,-50,4,1,0,100,0,9
134156,285.714285714286,4,1,0,100,1,0
134441,-100,4,1,0,100,0,0
134485,-33.3333333333333,4,1,0,100,0,0
134536,-100,4,1,0,100,0,0
134727,-100,4,1,0,100,0,0
134771,-33.3333333333333,4,1,0,100,0,0
134820,-100,4,1,0,100,0,0
135013,-100,4,1,0,100,0,0
135057,-33.3333333333333,4,1,0,100,0,0
135108,-100,4,1,0,100,0,0
135298,-100,4,1,0,100,0,0
135342,-33.3333333333333,4,1,0,100,0,0
135391,-100,4,1,0,100,0,0
135584,-100,4,1,0,100,0,0
135628,-33.3333333333333,4,1,0,100,0,0
135679,-100,4,1,0,100,0,0
135870,-100,4,1,0,100,0,0
135914,-33.3333333333333,4,1,0,100,0,0
135963,-100,4,1,0,100,0,0
136084,7.71505722000772,1,1,0,100,1,0
136346,285.714285714286,4,1,0,100,1,8
136441,285.714285714286,4,1,0,100,1,0
136441,-100,4,1,0,100,0,0
136485,-33.3333333333333,4,1,0,100,0,0
136534,-100,4,1,0,100,0,0
136726,-100,4,1,0,100,0,0
136770,-33.3333333333333,4,1,0,100,0,0
136821,-100,4,1,0,100,0,0
137012,-100,4,1,0,100,0,0
137056,-33.3333333333333,4,1,0,100,0,0
137105,-100,4,1,0,100,0,0
137298,-100,4,1,0,100,0,0
137342,-33.3333333333333,4,1,0,100,0,0
137393,-100,4,1,0,100,0,0
137583,-100,4,1,0,100,0,0
137627,-33.3333333333333,4,1,0,100,0,0
137676,-100,4,1,0,100,0,0
137869,-100,4,1,0,100,0,0
137913,-33.3333333333333,4,1,0,100,0,0
137964,-100,4,1,0,100,0,0
138155,-100,4,1,0,100,0,0
138199,-33.3333333333333,4,1,0,100,0,0
138248,-100,4,1,0,100,0,0
138370,7.71505722000772,1,1,0,100,1,0
138632,285.714285714286,4,1,0,100,1,8
138727,285.714285714286,4,1,0,100,1,0
138727,-100,4,1,0,100,0,0
138771,-33.3333333333333,4,1,0,100,0,0
138820,-100,4,1,0,100,0,0
139012,-100,4,1,0,100,0,0
139056,-33.3333333333333,4,1,0,100,0,0
139107,-100,4,1,0,100,0,0
139298,-100,4,1,0,100,0,0
139342,-33.3333333333333,4,1,0,100,0,0
139391,-100,4,1,0,100,0,0
139584,-100,4,1,0,100,0,0
139628,-33.3333333333333,4,1,0,100,0,0
139679,-100,4,1,0,100,0,0
139869,-100,4,1,0,100,0,0
139913,-33.3333333333333,4,1,0,100,0,0
139962,-100,4,1,0,100,0,0
140155,-100,4,1,0,100,0,0
140199,-33.3333333333333,4,1,0,100,0,0
140248,-100,4,1,0,100,0,0
140459,7.71505722000772,1,1,0,100,1,0
140632,285.714285714286,4,1,0,100,1,8
140649,7.71505722000772,1,1,0,100,1,0
140822,285.714285714286,4,1,0,100,1,8
140839,7.71505722000772,1,1,0,100,1,0
141013,285.714285714286,4,1,0,100,1,0
141013,-100,4,1,0,100,0,0
141057,-33.3333333333333,4,1,0,100,0,0
141106,-100,4,1,0,100,0,0
141298,-100,4,1,0,100,0,0
141342,-33.3333333333333,4,1,0,100,0,0
141393,-100,4,1,0,100,0,0
141584,-100,4,1,0,100,0,0
141628,-33.3333333333333,4,1,0,100,0,0
141677,-100,4,1,0,100,0,0
141888,7.71505722000772,1,1,0,100,1,0
142156,285.714285714286,4,1,0,100,1,0
142156,-100,4,1,0,100,0,0
142200,-33.3333333333333,4,1,0,100,0,0
142249,-100,4,1,0,100,0,0
142441,-100,4,1,0,100,0,0
142485,-33.3333333333333,4,1,0,100,0,0
142534,-100,4,1,0,100,0,0
142727,-100,4,1,0,100,0,0
142771,-33.3333333333333,4,1,0,100,0,0
142820,-100,4,1,0,100,0,0
143013,285.714285714286,4,1,0,100,1,8
143031,7.71505722000772,1,1,0,100,1,0
143084,285.714285714286,4,1,0,100,1,8
143102,7.71505722000772,1,1,0,100,1,0
143156,285.714285714286,4,1,0,100,1,8
143174,7.71505722000772,1,1,0,100,1,0
143227,285.714285714286,4,1,0,100,1,8
143245,7.71505722000772,1,1,0,100,1,0
143298,285.714285714286,4,1,0,100,1,0
143298,-66.6666666666667,4,1,0,100,0,0
143315,-1E-20,4,1,0,100,0,0
143583,-66.6666666666667,4,1,0,100,0,0
143600,-1E-20,4,1,0,100,0,0
143869,-66.6666666666667,4,1,0,100,0,0
143886,-1E-20,4,1,0,100,0,0
144155,-66.6666666666667,4,1,0,100,0,0
144172,-1E-20,4,1,0,100,0,0
144440,-66.6666666666667,4,1,0,100,0,0
144457,-1E-20,4,1,0,100,0,0
144726,-66.6666666666667,4,1,0,100,0,0
144743,-1E-20,4,1,0,100,0,0
144869,-66.6666666666667,4,1,0,100,0,0
144886,-1E-20,4,1,0,100,0,0
145012,-66.6666666666667,4,1,0,100,0,0
145029,-1E-20,4,1,0,100,0,0
145298,-66.6666666666667,4,1,0,100,0,0
145315,-1E-20,4,1,0,100,0,0
145440,-66.6666666666667,4,1,0,100,0,0
145457,-1E-20,4,1,0,100,0,0
145583,-66.6666666666667,4,1,0,100,0,0
145600,-1E-20,4,1,0,100,0,0
145869,-66.6666666666667,4,1,0,100,0,0
145886,-1E-20,4,1,0,100,0,0
146012,-66.6666666666667,4,1,0,100,0,0
146029,-1E-20,4,1,0,100,0,0
146155,-66.6666666666667,4,1,0,100,0,0
146172,-1E-20,4,1,0,100,0,0
146440,-66.6666666666667,4,1,0,100,0,0
146457,-1E-20,4,1,0,100,0,0
146583,-66.6666666666667,4,1,0,100,0,0
146600,-1E-20,4,1,0,100,0,0
146726,-66.6666666666667,4,1,0,100,0,0
146743,-1E-20,4,1,0,100,0,0
146869,-66.6666666666667,4,1,0,100,0,0
146886,-1E-20,4,1,0,100,0,0
147012,-66.6666666666667,4,1,0,100,0,0
147029,-1E-20,4,1,0,100,0,0
147298,-222.222222222221,4,1,0,100,0,0
147655,-100,4,1,0,100,0,0
151155,-66.6666666666667,4,1,0,100,0,0
152155,-100,4,1,0,100,0,0
157155,-125,4,1,0,100,0,0
157226,-120.481927710843,4,1,0,100,0,0
157298,-116.279069767442,4,1,0,100,0,0
157369,-112.359550561798,4,1,0,100,0,0
157440,-108.695652173913,4,1,0,100,0,0
157512,-105.263157894737,4,1,0,100,0,0
157583,-102.040816326531,4,1,0,100,0,0
157655,-98.0392156862745,4,1,0,100,0,0
157726,-94.3396226415094,4,1,0,100,0,0
157798,-90.9090909090909,4,1,0,100,0,0
157869,-86.9565217391304,4,1,0,100,0,0
157940,-83.3333333333333,4,1,0,100,0,0
158012,-80,4,1,0,100,0,0
158297,-125,4,1,0,100,0,0
158368,-120.481927710843,4,1,0,100,0,0
158440,-116.279069767442,4,1,0,100,0,0
158511,-112.359550561798,4,1,0,100,0,0
158582,-108.695652173913,4,1,0,100,0,0
158654,-105.263157894737,4,1,0,100,0,0
158725,-102.040816326531,4,1,0,100,0,0
158797,-98.0392156862745,4,1,0,100,0,0
158868,-94.3396226415094,4,1,0,100,0,0
158940,-90.9090909090909,4,1,0,100,0,0
159011,-86.9565217391304,4,1,0,100,0,0
159082,-83.3333333333333,4,1,0,100,0,0
159154,-80,4,1,0,100,0,0
159439,-125,4,1,0,100,0,0
159510,-119.047619047619,4,1,0,100,0,0
159582,-113.636363636364,4,1,0,100,0,0
159653,-108.695652173913,4,1,0,100,0,0
159724,-104.166666666667,4,1,0,100,0,0
159796,-99.009900990099,4,1,0,100,0,0
159867,-94.3396226415094,4,1,0,100,0,0
159939,-90.0900900900901,4,1,0,100,0,0
160010,-85.4700854700855,4,1,0,100,0,0
160082,-81.3008130081301,4,1,0,100,0,0
160153,-77.5193798449612,4,1,0,100,0,0
160224,-73.5294117647059,4,1,0,100,0,0
160296,-69.9300699300699,4,1,0,100,0,0
160582,-125,4,1,0,100,0,0
160653,-119.047619047619,4,1,0,100,0,0
160725,-113.636363636364,4,1,0,100,0,0
160796,-108.695652173913,4,1,0,100,0,0
160867,-104.166666666667,4,1,0,100,0,0
160939,-99.009900990099,4,1,0,100,0,0
161010,-94.3396226415094,4,1,0,100,0,0
161082,-90.0900900900901,4,1,0,100,0,0
161153,-85.4700854700855,4,1,0,100,0,0
161225,-81.3008130081301,4,1,0,100,0,0
161296,-77.5193798449612,4,1,0,100,0,0
161367,-73.5294117647059,4,1,0,100,0,0
161439,-69.9300699300699,4,1,0,100,0,0
161725,-125,4,1,0,100,0,0
161796,-117.647058823529,4,1,0,100,0,0
161868,-111.111111111111,4,1,0,100,0,0
161939,-105.263157894737,4,1,0,100,0,0
162010,-100,4,1,0,100,0,0
162082,-94.3396226415094,4,1,0,100,0,0
162153,-89.2857142857143,4,1,0,100,0,0
162225,-84.7457627118644,4,1,0,100,0,0
162296,-80,4,1,0,100,0,0
162368,-75.7575757575758,4,1,0,100,0,0
162439,-71.4285714285714,4,1,0,100,0,0
162510,-67.5675675675676,4,1,0,100,0,0
162582,-64.1025641025641,4,1,0,100,0,0
162868,-60.6060606060606,4,1,0,100,0,0
162939,-63.2911392405063,4,1,0,100,0,0
163011,-66.2251655629139,4,1,0,100,0,0
163082,-69.4444444444444,4,1,0,100,0,0
163153,-72.463768115942,4,1,0,100,0,0
163225,-75.7575757575758,4,1,0,100,0,0
163296,-79.3650793650794,4,1,0,100,0,0
163368,-82.6446280991736,4,1,0,100,0,0
163439,-86.2068965517241,4,1,0,100,0,0
163511,-90.0900900900901,4,1,0,100,0,0
163582,-94.3396226415094,4,1,0,100,0,0
163653,-99.009900990099,4,1,0,100,0,0
163725,-103.092783505155,4,1,0,100,0,0
163869,550.45871559633,4,1,0,100,1,1
163869,-100,4,1,0,100,0,1
166070,-100,4,1,0,100,0,0
167015,485.82995951417,4,1,0,100,1,1
167015,-113.636363636364,4,1,0,100,0,1
168958,-113.636363636364,4,1,0,100,0,0
170850,240,4,1,0,100,1,0
171300,0.771436285791429,8,1,0,100,1,0
171780,1920,4,1,0,100,1,9
171780,-12.5,4,1,0,100,0,1
171810,1920,4,1,0,100,1,9
171810,-12.5,4,1,0,100,0,1
171840,1920,4,1,0,100,1,9
171840,-12.5,4,1,0,100,0,1
171870,1920,4,1,0,100,1,9
171870,-12.5,4,1,0,100,0,1
171900,1920,4,1,0,100,1,9
171900,-12.5,4,1,0,100,0,1
171930,1920,4,1,0,100,1,9
171930,-12.5,4,1,0,100,0,1
171960,1920,4,1,0,100,1,9
171960,-12.5,4,1,0,100,0,1
171990,1920,4,1,0,100,1,9
171990,-12.5,4,1,0,100,0,1
172020,1920,4,1,0,100,1,9
172020,-12.5,4,1,0,100,0,1
172050,1920,4,1,0,100,1,9
172050,-12.5,4,1,0,100,0,1
172080,1920,4,1,0,100,1,9
172080,-12.5,4,1,0,100,0,1
172110,1920,4,1,0,100,1,9
172110,-12.5,4,1,0,100,0,1
172140,1920,4,1,0,100,1,9
172140,-12.5,4,1,0,100,0,1
172170,1920,4,1,0,100,1,9
172170,-12.5,4,1,0,100,0,1
172200,1920,4,1,0,100,1,9
172200,-12.5,4,1,0,100,0,1
172230,1920,4,1,0,100,1,9
172230,-12.5,4,1,0,100,0,1
172260,1920,4,1,0,100,1,9
172260,-12.5,4,1,0,100,0,1
172290,1920,4,1,0,100,1,9
172290,-12.5,4,1,0,100,0,1
172320,1920,4,1,0,100,1,9
172320,-12.5,4,1,0,100,0,1
172350,1920,4,1,0,100,1,9
172350,-12.5,4,1,0,100,0,1
172380,1920,4,1,0,100,1,9
172380,-12.5,4,1,0,100,0,1
172410,1920,4,1,0,100,1,9
172410,-12.5,4,1,0,100,0,1
172440,1920,4,1,0,100,1,9
172440,-12.5,4,1,0,100,0,1
172470,1920,4,1,0,100,1,9
172470,-12.5,4,1,0,100,0,1
172500,1920,4,1,0,100,1,9
172500,-12.5,4,1,0,100,0,1
172530,1920,4,1,0,100,1,9
172530,-12.5,4,1,0,100,0,1
172560,1920,4,1,0,100,1,9
172560,-12.5,4,1,0,100,0,1
172590,1920,4,1,0,100,1,9
172590,-12.5,4,1,0,100,0,1
172620,1920,4,1,0,100,1,9
172620,-12.5,4,1,0,100,0,1
172650,1920,4,1,0,100,1,9
172650,-12.5,4,1,0,100,0,1
172680,1920,4,1,0,100,1,9
172680,-12.5,4,1,0,100,0,1
172710,1920,4,1,0,100,1,9
172710,-12.5,4,1,0,100,0,1
172740,1920,4,1,0,100,1,9
172740,-12.5,4,1,0,100,0,1
172770,1920,4,1,0,100,1,9
172770,-12.5,4,1,0,100,0,1
172800,1920,4,1,0,100,1,9
172800,-12.5,4,1,0,100,0,1
172830,1920,4,1,0,100,1,9
172830,-12.5,4,1,0,100,0,1
172860,1920,4,1,0,100,1,9
172860,-12.5,4,1,0,100,0,1
172890,1920,4,1,0,100,1,9
172890,-12.5,4,1,0,100,0,1
172920,1920,4,1,0,100,1,9
172920,-12.5,4,1,0,100,0,1
172950,1920,4,1,0,100,1,9
172950,-12.5,4,1,0,100,0,1
172980,1920,4,1,0,100,1,9
172980,-12.5,4,1,0,100,0,1
173010,1920,4,1,0,100,1,9
173010,-12.5,4,1,0,100,0,1
173040,1920,4,1,0,100,1,9
173040,-12.5,4,1,0,100,0,1
173070,1920,4,1,0,100,1,9
173070,-12.5,4,1,0,100,0,1
173100,1920,4,1,0,100,1,9
173100,-12.5,4,1,0,100,0,1
173130,1920,4,1,0,100,1,9
173130,-12.5,4,1,0,100,0,1
173160,1920,4,1,0,100,1,9
173160,-12.5,4,1,0,100,0,1
173190,1920,4,1,0,100,1,9
173190,-12.5,4,1,0,100,0,1
173220,1920,4,1,0,100,1,9
173220,-12.5,4,1,0,100,0,1
173250,1920,4,1,0,100,1,9
173250,-12.5,4,1,0,100,0,1
173280,1920,4,1,0,100,1,9
173280,-12.5,4,1,0,100,0,1
173310,1920,4,1,0,100,1,9
173310,-12.5,4,1,0,100,0,1
173340,1920,4,1,0,100,1,9
173340,-12.5,4,1,0,100,0,1
173370,1920,4,1,0,100,1,9
173370,-12.5,4,1,0,100,0,1
173400,1920,4,1,0,100,1,9
173400,-12.5,4,1,0,100,0,1
173430,1920,4,1,0,100,1,9
173430,-12.5,4,1,0,100,0,1
173460,1920,4,1,0,100,1,9
173460,-12.5,4,1,0,100,0,1
173490,1920,4,1,0,100,1,9
173490,-12.5,4,1,0,100,0,1
173520,1920,4,1,0,100,1,9
173520,-12.5,4,1,0,100,0,1
173550,1920,4,1,0,100,1,9
173550,-12.5,4,1,0,100,0,1
173580,1920,4,1,0,100,1,9
173580,-12.5,4,1,0,100,0,1
173610,1920,4,1,0,100,1,9
173610,-12.5,4,1,0,100,0,1
173640,1920,4,1,0,100,1,9
173640,-12.5,4,1,0,100,0,1
173670,1920,4,1,0,100,1,9
173670,-12.5,4,1,0,100,0,1
173700,1920,4,1,0,100,1,9
173700,-12.5,4,1,0,100,0,1
173730,1920,4,1,0,100,1,9
173730,-12.5,4,1,0,100,0,1
173760,1920,4,1,0,100,1,9
173760,-12.5,4,1,0,100,0,1
173790,1920,4,1,0,100,1,9
173790,-12.5,4,1,0,100,0,1
173820,1920,4,1,0,100,1,9
173820,-12.5,4,1,0,100,0,1
173850,1920,4,1,0,100,1,9
173850,-12.5,4,1,0,100,0,1
173880,1920,4,1,0,100,1,9
173880,-12.5,4,1,0,100,0,1
173910,1920,4,1,0,100,1,9
173910,-12.5,4,1,0,100,0,1
173940,1920,4,1,0,100,1,9
173940,-12.5,4,1,0,100,0,1
173970,1920,4,1,0,100,1,9
173970,-12.5,4,1,0,100,0,1
174000,1920,4,1,0,100,1,9
174000,-12.5,4,1,0,100,0,1
174030,1920,4,1,0,100,1,9
174030,-12.5,4,1,0,100,0,1
174060,1920,4,1,0,100,1,9
174060,-12.5,4,1,0,100,0,1
174090,1920,4,1,0,100,1,9
174090,-12.5,4,1,0,100,0,1
174120,1920,4,1,0,100,1,9
174120,-12.5,4,1,0,100,0,1
174150,1920,4,1,0,100,1,9
174150,-12.5,4,1,0,100,0,1
174180,1920,4,1,0,100,1,9
174180,-12.5,4,1,0,100,0,1
174210,1920,4,1,0,100,1,9
174210,-12.5,4,1,0,100,0,1
174240,1920,4,1,0,100,1,9
174240,-12.5,4,1,0,100,0,1
174270,1920,4,1,0,100,1,9
174270,-12.5,4,1,0,100,0,1
174300,1920,4,1,0,100,1,9
174300,-12.5,4,1,0,100,0,1
174330,1920,4,1,0,100,1,9
174330,-12.5,4,1,0,100,0,1
174360,1920,4,1,0,100,1,9
174360,-12.5,4,1,0,100,0,1
174390,1920,4,1,0,100,1,9
174390,-12.5,4,1,0,100,0,1
174420,1920,4,1,0,100,1,9
174420,-12.5,4,1,0,100,0,1
174450,1920,4,1,0,100,1,9
174450,-12.5,4,1,0,100,0,1
174480,1920,4,1,0,100,1,9
174480,-12.5,4,1,0,100,0,1
174510,1920,4,1,0,100,1,9
174510,-12.5,4,1,0,100,0,1
174540,1920,4,1,0,100,1,9
174540,-12.5,4,1,0,100,0,1
174570,1920,4,1,0,100,1,9
174570,-12.5,4,1,0,100,0,1
174600,1920,4,1,0,100,1,9
174600,-12.5,4,1,0,100,0,1
174630,1920,4,1,0,100,1,9
174630,-12.5,4,1,0,100,0,1
174660,1920,4,1,0,100,1,9
174660,-12.5,4,1,0,100,0,1
174690,1920,4,1,0,100,1,9
174690,-12.5,4,1,0,100,0,1
174720,1920,4,1,0,100,1,9
174720,-12.5,4,1,0,100,0,1
174750,1920,4,1,0,100,1,9
174750,-12.5,4,1,0,100,0,1
174780,1920,4,1,0,100,1,9
174780,-12.5,4,1,0,100,0,1
174810,1920,4,1,0,100,1,9
174810,-12.5,4,1,0,100,0,1
174840,1920,4,1,0,100,1,9
174840,-12.5,4,1,0,100,0,1
174870,1920,4,1,0,100,1,9
174870,-12.5,4,1,0,100,0,1
174900,1920,4,1,0,100,1,9
174900,-12.5,4,1,0,100,0,1
174930,1920,4,1,0,100,1,9
174930,-12.5,4,1,0,100,0,1
174960,1920,4,1,0,100,1,9
174960,-12.5,4,1,0,100,0,1
174990,1920,4,1,0,100,1,9
174990,-12.5,4,1,0,100,0,1
175020,1920,4,1,0,100,1,9
175020,-12.5,4,1,0,100,0,1
175050,1920,4,1,0,100,1,9
175050,-12.5,4,1,0,100,0,1
175080,1920,4,1,0,100,1,9
175080,-12.5,4,1,0,100,0,1
175110,1920,4,1,0,100,1,9
175110,-12.5,4,1,0,100,0,1
175140,1920,4,1,0,100,1,9
175140,-12.5,4,1,0,100,0,1
175170,1920,4,1,0,100,1,9
175170,-12.5,4,1,0,100,0,1
175200,1920,4,1,0,100,1,9
175200,-12.5,4,1,0,100,0,1
175230,1920,4,1,0,100,1,9
175230,-12.5,4,1,0,100,0,1
175260,1920,4,1,0,100,1,9
175260,-12.5,4,1,0,100,0,1
175290,1920,4,1,0,100,1,9
175290,-12.5,4,1,0,100,0,1
175320,1920,4,1,0,100,1,9
175320,-12.5,4,1,0,100,0,1
175350,1920,4,1,0,100,1,9
175350,-12.5,4,1,0,100,0,1
175380,1920,4,1,0,100,1,9
175380,-12.5,4,1,0,100,0,1
175410,1920,4,1,0,100,1,9
175410,-12.5,4,1,0,100,0,1
175440,1920,4,1,0,100,1,9
175440,-12.5,4,1,0,100,0,1
175470,1920,4,1,0,100,1,9
175470,-12.5,4,1,0,100,0,1
175500,1920,4,1,0,100,1,9
175500,-12.5,4,1,0,100,0,1
175530,1920,4,1,0,100,1,9
175530,-12.5,4,1,0,100,0,1
175560,1920,4,1,0,100,1,9
175560,-12.5,4,1,0,100,0,1
175590,1920,4,1,0,100,1,9
175590,-12.5,4,1,0,100,0,1
175620,1920,4,1,0,100,1,9
175620,-12.5,4,1,0,100,0,1
175650,1920,4,1,0,100,1,9
175650,-12.5,4,1,0,100,0,1
175680,1920,4,1,0,100,1,9
175680,-12.5,4,1,0,100,0,1
175710,1920,4,1,0,100,1,9
175710,-12.5,4,1,0,100,0,1
175740,1920,4,1,0,100,1,9
175740,-12.5,4,1,0,100,0,1
175770,1920,4,1,0,100,1,9
175770,-12.5,4,1,0,100,0,1
175800,1920,4,1,0,100,1,9
175800,-12.5,4,1,0,100,0,1
175830,1920,4,1,0,100,1,9
175830,-12.5,4,1,0,100,0,1
175860,1920,4,1,0,100,1,9
175860,-12.5,4,1,0,100,0,1
175890,1920,4,1,0,100,1,9
175890,-12.5,4,1,0,100,0,1
175920,1920,4,1,0,100,1,9
175920,-12.5,4,1,0,100,0,1
175950,1920,4,1,0,100,1,9
175950,-12.5,4,1,0,100,0,1
175980,1920,4,1,0,100,1,9
175980,-12.5,4,1,0,100,0,1
176010,1920,4,1,0,100,1,9
176010,-12.5,4,1,0,100,0,1
176040,1920,4,1,0,100,1,9
176040,-12.5,4,1,0,100,0,1
176070,1920,4,1,0,100,1,9
176070,-12.5,4,1,0,100,0,1
176100,1920,4,1,0,100,1,9
176100,-12.5,4,1,0,100,0,1
176130,1920,4,1,0,100,1,9
176130,-12.5,4,1,0,100,0,1
176160,1920,4,1,0,100,1,9
176160,-12.5,4,1,0,100,0,1
176190,1920,4,1,0,100,1,9
176190,-12.5,4,1,0,100,0,1
176220,1920,4,1,0,100,1,9
176220,-12.5,4,1,0,100,0,1
176250,1920,4,1,0,100,1,9
176250,-12.5,4,1,0,100,0,1
176280,1920,4,1,0,100,1,9
176280,-12.5,4,1,0,100,0,1
176310,1920,4,1,0,100,1,9
176310,-12.5,4,1,0,100,0,1
176340,1920,4,1,0,100,1,9
176340,-12.5,4,1,0,100,0,1
176370,1920,4,1,0,100,1,9
176370,-12.5,4,1,0,100,0,1
176400,1920,4,1,0,100,1,9
176400,-12.5,4,1,0,100,0,1
176430,1920,4,1,0,100,1,9
176430,-12.5,4,1,0,100,0,1
176460,1920,4,1,0,100,1,9
176460,-12.5,4,1,0,100,0,1
176490,1920,4,1,0,100,1,9
176490,-12.5,4,1,0,100,0,1
176520,1920,4,1,0,100,1,9
176520,-12.5,4,1,0,100,0,1
176550,1920,4,1,0,100,1,9
176550,-12.5,4,1,0,100,0,1
176580,1920,4,1,0,100,1,9
176580,-12.5,4,1,0,100,0,1
176610,1920,4,1,0,100,1,9
176610,-12.5,4,1,0,100,0,1
176640,1920,4,1,0,100,1,9
176640,-12.5,4,1,0,100,0,1
176670,1920,4,1,0,100,1,9
176670,-12.5,4,1,0,100,0,1
176700,1920,4,1,0,100,1,9
176700,-12.5,4,1,0,100,0,1
176730,1920,4,1,0,100,1,9
176730,-12.5,4,1,0,100,0,1
176760,1920,4,1,0,100,1,9
176760,-12.5,4,1,0,100,0,1
176790,1920,4,1,0,100,1,9
176790,-12.5,4,1,0,100,0,1
176820,1920,4,1,0,100,1,9
176820,-12.5,4,1,0,100,0,1
176850,1920,4,1,0,100,1,9
176850,-12.5,4,1,0,100,0,1
176880,1920,4,1,0,100,1,9
176880,-12.5,4,1,0,100,0,1
176910,1920,4,1,0,100,1,9
176910,-12.5,4,1,0,100,0,1
176940,1920,4,1,0,100,1,9
176940,-12.5,4,1,0,100,0,1
176970,1920,4,1,0,100,1,9
176970,-12.5,4,1,0,100,0,1
177000,1920,4,1,0,100,1,9
177000,-12.5,4,1,0,100,0,1
177030,1920,4,1,0,100,1,9
177030,-12.5,4,1,0,100,0,1
177060,1920,4,1,0,100,1,9
177060,-12.5,4,1,0,100,0,1
177090,1920,4,1,0,100,1,9
177090,-12.5,4,1,0,100,0,1
177120,1920,4,1,0,100,1,9
177120,-12.5,4,1,0,100,0,1
177150,1920,4,1,0,100,1,9
177150,-12.5,4,1,0,100,0,1
177180,1920,4,1,0,100,1,9
177180,-12.5,4,1,0,100,0,1
177210,1920,4,1,0,100,1,9
177210,-12.5,4,1,0,100,0,1
177240,1920,4,1,0,100,1,9
177240,-12.5,4,1,0,100,0,1
177270,1920,4,1,0,100,1,9
177270,-12.5,4,1,0,100,0,1
177300,1920,4,1,0,100,1,9
177300,-12.5,4,1,0,100,0,1
177330,1920,4,1,0,100,1,9
177330,-12.5,4,1,0,100,0,1
177360,1920,4,1,0,100,1,9
177360,-12.5,4,1,0,100,0,1
177390,1920,4,1,0,100,1,9
177390,-12.5,4,1,0,100,0,1
177420,1920,4,1,0,100,1,9
177420,-12.5,4,1,0,100,0,1
177450,1920,4,1,0,100,1,9
177450,-12.5,4,1,0,100,0,1
177480,1920,4,1,0,100,1,9
177480,-12.5,4,1,0,100,0,1
177510,1920,4,1,0,100,1,9
177510,-12.5,4,1,0,100,0,1
177540,1920,4,1,0,100,1,9
177540,-12.5,4,1,0,100,0,1
177570,1920,4,1,0,100,1,9
177570,-12.5,4,1,0,100,0,1
177600,1920,4,1,0,100,1,9
177600,-12.5,4,1,0,100,0,1
177630,1920,4,1,0,100,1,9
177630,-12.5,4,1,0,100,0,1
177660,1920,4,1,0,100,1,9
177660,-12.5,4,1,0,100,0,1
177690,1920,4,1,0,100,1,9
177690,-12.5,4,1,0,100,0,1
177720,1920,4,1,0,100,1,9
177720,-12.5,4,1,0,100,0,1
177750,1920,4,1,0,100,1,9
177750,-12.5,4,1,0,100,0,1
177780,1920,4,1,0,100,1,9
177780,-12.5,4,1,0,100,0,1
177810,1920,4,1,0,100,1,9
177810,-12.5,4,1,0,100,0,1
177840,1920,4,1,0,100,1,9
177840,-12.5,4,1,0,100,0,1
177870,1920,4,1,0,100,1,9
177870,-12.5,4,1,0,100,0,1
177900,1920,4,1,0,100,1,9
177900,-12.5,4,1,0,100,0,1
177930,1920,4,1,0,100,1,9
177930,-12.5,4,1,0,100,0,1
177960,1920,4,1,0,100,1,9
177960,-12.5,4,1,0,100,0,1
177990,1920,4,1,0,100,1,9
177990,-12.5,4,1,0,100,0,1
178020,1920,4,1,0,100,1,9
178020,-12.5,4,1,0,100,0,1
178050,1920,4,1,0,100,1,9
178050,-12.5,4,1,0,100,0,1
178080,1920,4,1,0,100,1,9
178080,-12.5,4,1,0,100,0,1
178110,1920,4,1,0,100,1,9
178110,-12.5,4,1,0,100,0,1
178140,1920,4,1,0,100,1,9
178140,-12.5,4,1,0,100,0,1
178170,1920,4,1,0,100,1,9
178170,-12.5,4,1,0,100,0,1
178200,1920,4,1,0,100,1,9
178200,-12.5,4,1,0,100,0,1
178230,1920,4,1,0,100,1,9
178230,-12.5,4,1,0,100,0,1
178260,1920,4,1,0,100,1,9
178260,-12.5,4,1,0,100,0,1
178290,1920,4,1,0,100,1,9
178290,-12.5,4,1,0,100,0,1
178320,1920,4,1,0,100,1,9
178320,-12.5,4,1,0,100,0,1
178350,1920,4,1,0,100,1,9
178350,-12.5,4,1,0,100,0,1
178380,1920,4,1,0,100,1,9
178380,-12.5,4,1,0,100,0,1
178410,1920,4,1,0,100,1,9
178410,-12.5,4,1,0,100,0,1
178440,1920,4,1,0,100,1,9
178440,-12.5,4,1,0,100,0,1
178470,1920,4,1,0,100,1,9
178470,-12.5,4,1,0,100,0,1
178500,1920,4,1,0,100,1,9
178500,-12.5,4,1,0,100,0,1
178530,1920,4,1,0,100,1,8
178530,-12.5,4,1,0,100,0,0
178560,1920,4,1,0,100,1,8
178560,-12.5,4,1,0,100,0,0
178590,1920,4,1,0,100,1,8
178590,-12.5,4,1,0,100,0,0
178620,1920,4,1,0,100,1,8
178620,-12.5,4,1,0,100,0,0
178650,1920,4,1,0,100,1,8
178650,-12.5,4,1,0,100,0,0
178680,1920,4,1,0,100,1,8
178680,-12.5,4,1,0,100,0,0
178710,1920,4,1,0,100,1,8
178710,-12.5,4,1,0,100,0,0
178740,1920,4,1,0,100,1,8
178740,-12.5,4,1,0,100,0,0
178770,1920,4,1,0,100,1,8
178770,-12.5,4,1,0,100,0,0
178800,1920,4,1,0,100,1,8
178800,-12.5,4,1,0,100,0,0
178830,1920,4,1,0,100,1,8
178830,-12.5,4,1,0,100,0,0
178860,1920,4,1,0,100,1,8
178860,-12.5,4,1,0,100,0,0
178890,1920,4,1,0,100,1,8
178890,-12.5,4,1,0,100,0,0
178920,1920,4,1,0,100,1,8
178920,-12.5,4,1,0,100,0,0
178950,1920,4,1,0,100,1,8
178950,-12.5,4,1,0,100,0,0
178980,1920,4,1,0,100,1,8
178980,-12.5,4,1,0,100,0,0
179010,1920,4,1,0,100,1,8
179010,-12.5,4,1,0,100,0,0
179040,1920,4,1,0,100,1,8
179040,-12.5,4,1,0,100,0,0
179070,1920,4,1,0,100,1,8
179070,-12.5,4,1,0,100,0,0
179100,1920,4,1,0,100,1,8
179100,-12.5,4,1,0,100,0,0
179130,1920,4,1,0,100,1,8
179130,-12.5,4,1,0,100,0,0
179160,1920,4,1,0,100,1,8
179160,-12.5,4,1,0,100,0,0
179190,1920,4,1,0,100,1,8
179190,-12.5,4,1,0,100,0,0
179220,1920,4,1,0,100,1,8
179220,-12.5,4,1,0,100,0,0
179250,1920,4,1,0,100,1,8
179250,-12.5,4,1,0,100,0,0
179280,1920,4,1,0,100,1,8
179280,-12.5,4,1,0,100,0,0
179310,1920,4,1,0,100,1,8
179310,-12.5,4,1,0,100,0,0
179340,1920,4,1,0,100,1,8
179340,-12.5,4,1,0,100,0,0
179370,1920,4,1,0,100,1,8
179370,-12.5,4,1,0,100,0,0
179400,1920,4,1,0,100,1,8
179400,-12.5,4,1,0,100,0,0
179430,1920,4,1,0,100,1,8
179430,-12.5,4,1,0,100,0,0
179460,1920,4,1,0,100,1,8
179460,-12.5,4,1,0,100,0,0
179490,1920,4,1,0,100,1,9
179490,-12.5,4,1,0,100,0,1
179520,1920,4,1,0,100,1,9
179520,-12.5,4,1,0,100,0,1
179550,1920,4,1,0,100,1,9
179550,-12.5,4,1,0,100,0,1
179580,1920,4,1,0,100,1,9
179580,-12.5,4,1,0,100,0,1
179610,1920,4,1,0,100,1,9
179610,-12.5,4,1,0,100,0,1
179640,1920,4,1,0,100,1,9
179640,-12.5,4,1,0,100,0,1
179670,1920,4,1,0,100,1,9
179670,-12.5,4,1,0,100,0,1
179700,1920,4,1,0,100,1,9
179700,-12.5,4,1,0,100,0,1
179730,1920,4,1,0,100,1,9
179730,-12.5,4,1,0,100,0,1
179760,1920,4,1,0,100,1,9
179760,-12.5,4,1,0,100,0,1
179790,1920,4,1,0,100,1,9
179790,-12.5,4,1,0,100,0,1
179820,1920,4,1,0,100,1,9
179820,-12.5,4,1,0,100,0,1
179850,1920,4,1,0,100,1,9
179850,-12.5,4,1,0,100,0,1
179880,1920,4,1,0,100,1,9
179880,-12.5,4,1,0,100,0,1
179910,1920,4,1,0,100,1,9
179910,-12.5,4,1,0,100,0,1
179940,1920,4,1,0,100,1,9
179940,-12.5,4,1,0,100,0,1
179970,1920,4,1,0,100,1,9
179970,-12.5,4,1,0,100,0,1
180000,1920,4,1,0,100,1,9
180000,-12.5,4,1,0,100,0,1
180030,1920,4,1,0,100,1,9
180030,-12.5,4,1,0,100,0,1
180060,1920,4,1,0,100,1,9
180060,-12.5,4,1,0,100,0,1
180090,1920,4,1,0,100,1,9
180090,-12.5,4,1,0,100,0,1
180120,1920,4,1,0,100,1,9
180120,-12.5,4,1,0,100,0,1
180150,1920,4,1,0,100,1,9
180150,-12.5,4,1,0,100,0,1
180180,1920,4,1,0,100,1,9
180180,-12.5,4,1,0,100,0,1
180210,1920,4,1,0,100,1,9
180210,-12.5,4,1,0,100,0,1
180240,1920,4,1,0,100,1,9
180240,-12.5,4,1,0,100,0,1
180270,1920,4,1,0,100,1,9
180270,-12.5,4,1,0,100,0,1
180300,1920,4,1,0,100,1,9
180300,-12.5,4,1,0,100,0,1
180330,1920,4,1,0,100,1,9
180330,-12.5,4,1,0,100,0,1
180360,1920,4,1,0,100,1,9
180360,-12.5,4,1,0,100,0,1
180390,1920,4,1,0,100,1,9
180390,-12.5,4,1,0,100,0,1
180420,1920,4,1,0,100,1,9
180420,-12.5,4,1,0,100,0,1
180450,1920,4,1,0,100,1,8
180450,-12.5,4,1,0,100,0,0
180480,1920,4,1,0,100,1,8
180480,-12.5,4,1,0,100,0,0
180510,1920,4,1,0,100,1,8
180510,-12.5,4,1,0,100,0,0
180540,1920,4,1,0,100,1,8
180540,-12.5,4,1,0,100,0,0
180570,1920,4,1,0,100,1,8
180570,-12.5,4,1,0,100,0,0
180600,1920,4,1,0,100,1,8
180600,-12.5,4,1,0,100,0,0
180630,1920,4,1,0,100,1,8
180630,-12.5,4,1,0,100,0,0
180660,1920,4,1,0,100,1,8
180660,-12.5,4,1,0,100,0,0
180690,1920,4,1,0,100,1,8
180690,-12.5,4,1,0,100,0,0
180720,1920,4,1,0,100,1,8
180720,-12.5,4,1,0,100,0,0
180750,1920,4,1,0,100,1,8
180750,-12.5,4,1,0,100,0,0
180780,1920,4,1,0,100,1,8
180780,-12.5,4,1,0,100,0,0
180810,1920,4,1,0,100,1,8
180810,-12.5,4,1,0,100,0,0
180840,1920,4,1,0,100,1,8
180840,-12.5,4,1,0,100,0,0
180870,1920,4,1,0,100,1,8
180870,-12.5,4,1,0,100,0,0
180900,1920,4,1,0,100,1,8
180900,-12.5,4,1,0,100,0,0
180930,1920,4,1,0,100,1,8
180930,-12.5,4,1,0,100,0,0
180960,1920,4,1,0,100,1,8
180960,-12.5,4,1,0,100,0,0
180990,1920,4,1,0,100,1,8
180990,-12.5,4,1,0,100,0,0
181020,1920,4,1,0,100,1,8
181020,-12.5,4,1,0,100,0,0
181050,1920,4,1,0,100,1,8
181050,-12.5,4,1,0,100,0,0
181080,1920,4,1,0,100,1,8
181080,-12.5,4,1,0,100,0,0
181110,1920,4,1,0,100,1,8
181110,-12.5,4,1,0,100,0,0
181140,1920,4,1,0,100,1,8
181140,-12.5,4,1,0,100,0,0
181170,1920,4,1,0,100,1,8
181170,-12.5,4,1,0,100,0,0
181200,1920,4,1,0,100,1,8
181200,-12.5,4,1,0,100,0,0
181230,1920,4,1,0,100,1,8
181230,-12.5,4,1,0,100,0,0
181260,1920,4,1,0,100,1,8
181260,-12.5,4,1,0,100,0,0
181290,1920,4,1,0,100,1,8
181290,-12.5,4,1,0,100,0,0
181320,1920,4,1,0,100,1,8
181320,-12.5,4,1,0,100,0,0
181350,1920,4,1,0,100,1,8
181350,-12.5,4,1,0,100,0,0
181380,1920,4,1,0,100,1,9
181380,-12.5,4,1,0,100,0,1
181410,1920,4,1,0,100,1,9
181410,-12.5,4,1,0,100,0,1
181440,1920,4,1,0,100,1,9
181440,-12.5,4,1,0,100,0,1
181470,1920,4,1,0,100,1,9
181470,-12.5,4,1,0,100,0,1
181500,1920,4,1,0,100,1,9
181500,-12.5,4,1,0,100,0,1
181530,1920,4,1,0,100,1,9
181530,-12.5,4,1,0,100,0,1
181560,1920,4,1,0,100,1,9
181560,-12.5,4,1,0,100,0,1
181590,1920,4,1,0,100,1,9
181590,-12.5,4,1,0,100,0,1
181620,1920,4,1,0,100,1,9
181620,-12.5,4,1,0,100,0,1
181650,1920,4,1,0,100,1,9
181650,-12.5,4,1,0,100,0,1
181680,1920,4,1,0,100,1,9
181680,-12.5,4,1,0,100,0,1
181710,1920,4,1,0,100,1,9
181710,-12.5,4,1,0,100,0,1
181740,1920,4,1,0,100,1,9
181740,-12.5,4,1,0,100,0,1
181770,1920,4,1,0,100,1,9
181770,-12.5,4,1,0,100,0,1
181800,1920,4,1,0,100,1,9
181800,-12.5,4,1,0,100,0,1
181830,1920,4,1,0,100,1,9
181830,-12.5,4,1,0,100,0,1
181860,1920,4,1,0,100,1,9
181860,-12.5,4,1,0,100,0,1
181890,1920,4,1,0,100,1,9
181890,-12.5,4,1,0,100,0,1
181920,1920,4,1,0,100,1,9
181920,-12.5,4,1,0,100,0,1
181950,1920,4,1,0,100,1,9
181950,-12.5,4,1,0,100,0,1
181980,1920,4,1,0,100,1,9
181980,-12.5,4,1,0,100,0,1
182010,1920,4,1,0,100,1,9
182010,-12.5,4,1,0,100,0,1
182040,1920,4,1,0,100,1,9
182040,-12.5,4,1,0,100,0,1
182070,1920,4,1,0,100,1,9
182070,-12.5,4,1,0,100,0,1
182100,1920,4,1,0,100,1,9
182100,-12.5,4,1,0,100,0,1
182130,1920,4,1,0,100,1,9
182130,-12.5,4,1,0,100,0,1
182160,1920,4,1,0,100,1,9
182160,-12.5,4,1,0,100,0,1
182190,1920,4,1,0,100,1,9
182190,-12.5,4,1,0,100,0,1
182220,1920,4,1,0,100,1,9
182220,-12.5,4,1,0,100,0,1
182250,1920,4,1,0,100,1,9
182250,-12.5,4,1,0,100,0,1
182280,1920,4,1,0,100,1,9
182280,-12.5,4,1,0,100,0,1
182310,1920,4,1,0,100,1,9
182310,-12.5,4,1,0,100,0,1
182340,1920,4,1,0,100,1,9
182340,-12.5,4,1,0,100,0,1
182370,1920,4,1,0,100,1,8
182370,-12.5,4,1,0,100,0,0
182400,1920,4,1,0,100,1,8
182400,-12.5,4,1,0,100,0,0
182430,1920,4,1,0,100,1,8
182430,-12.5,4,1,0,100,0,0
182460,1920,4,1,0,100,1,8
182460,-12.5,4,1,0,100,0,0
182490,1920,4,1,0,100,1,8
182490,-12.5,4,1,0,100,0,0
182520,1920,4,1,0,100,1,8
182520,-12.5,4,1,0,100,0,0
182550,1920,4,1,0,100,1,8
182550,-12.5,4,1,0,100,0,0
182580,1920,4,1,0,100,1,8
182580,-12.5,4,1,0,100,0,0
182610,1920,4,1,0,100,1,8
182610,-12.5,4,1,0,100,0,0
182640,1920,4,1,0,100,1,8
182640,-12.5,4,1,0,100,0,0
182670,1920,4,1,0,100,1,8
182670,-12.5,4,1,0,100,0,0
182700,1920,4,1,0,100,1,8
182700,-12.5,4,1,0,100,0,0
182730,1920,4,1,0,100,1,8
182730,-12.5,4,1,0,100,0,0
182760,1920,4,1,0,100,1,8
182760,-12.5,4,1,0,100,0,0
182790,1920,4,1,0,100,1,8
182790,-12.5,4,1,0,100,0,0
182820,1920,4,1,0,100,1,8
182820,-12.5,4,1,0,100,0,0
182850,1920,4,1,0,100,1,8
182850,-12.5,4,1,0,100,0,0
182880,1920,4,1,0,100,1,8
182880,-12.5,4,1,0,100,0,0
182910,1920,4,1,0,100,1,8
182910,-12.5,4,1,0,100,0,0
182940,1920,4,1,0,100,1,8
182940,-12.5,4,1,0,100,0,0
182970,1920,4,1,0,100,1,8
182970,-12.5,4,1,0,100,0,0
183000,1920,4,1,0,100,1,8
183000,-12.5,4,1,0,100,0,0
183030,1920,4,1,0,100,1,8
183030,-12.5,4,1,0,100,0,0
183060,1920,4,1,0,100,1,8
183060,-12.5,4,1,0,100,0,0
183090,1920,4,1,0,100,1,8
183090,-12.5,4,1,0,100,0,0
183120,1920,4,1,0,100,1,8
183120,-12.5,4,1,0,100,0,0
183150,1920,4,1,0,100,1,8
183150,-12.5,4,1,0,100,0,0
183180,1920,4,1,0,100,1,8
183180,-12.5,4,1,0,100,0,0
183210,1920,4,1,0,100,1,8
183210,-12.5,4,1,0,100,0,0
183240,1920,4,1,0,100,1,8
183240,-12.5,4,1,0,100,0,0
183270,1920,4,1,0,100,1,8
183270,-12.5,4,1,0,100,0,0
183300,1920,4,1,0,100,1,9
183300,-12.5,4,1,0,100,0,1
183330,1920,4,1,0,100,1,9
183330,-12.5,4,1,0,100,0,1
183360,1920,4,1,0,100,1,9
183360,-12.5,4,1,0,100,0,1
183390,1920,4,1,0,100,1,9
183390,-12.5,4,1,0,100,0,1
183420,1920,4,1,0,100,1,9
183420,-12.5,4,1,0,100,0,1
183450,1920,4,1,0,100,1,9
183450,-12.5,4,1,0,100,0,1
183480,1920,4,1,0,100,1,9
183480,-12.5,4,1,0,100,0,1
183510,1920,4,1,0,100,1,9
183510,-12.5,4,1,0,100,0,1
183540,1920,4,1,0,100,1,9
183540,-12.5,4,1,0,100,0,1
183570,1920,4,1,0,100,1,9
183570,-12.5,4,1,0,100,0,1
183600,1920,4,1,0,100,1,9
183600,-12.5,4,1,0,100,0,1
183630,1920,4,1,0,100,1,9
183630,-12.5,4,1,0,100,0,1
183660,1920,4,1,0,100,1,9
183660,-12.5,4,1,0,100,0,1
183690,1920,4,1,0,100,1,9
183690,-12.5,4,1,0,100,0,1
183720,1920,4,1,0,100,1,9
183720,-12.5,4,1,0,100,0,1
183750,1920,4,1,0,100,1,9
183750,-12.5,4,1,0,100,0,1
183780,1920,4,1,0,100,1,9
183780,-12.5,4,1,0,100,0,1
183810,1920,4,1,0,100,1,9
183810,-12.5,4,1,0,100,0,1
183840,1920,4,1,0,100,1,9
183840,-12.5,4,1,0,100,0,1
183870,1920,4,1,0,100,1,9
183870,-12.5,4,1,0,100,0,1
183900,1920,4,1,0,100,1,9
183900,-12.5,4,1,0,100,0,1
183930,1920,4,1,0,100,1,9
183930,-12.5,4,1,0,100,0,1
183960,1920,4,1,0,100,1,9
183960,-12.5,4,1,0,100,0,1
183990,1920,4,1,0,100,1,9
183990,-12.5,4,1,0,100,0,1
184020,1920,4,1,0,100,1,9
184020,-12.5,4,1,0,100,0,1
184050,1920,4,1,0,100,1,9
184050,-12.5,4,1,0,100,0,1
184080,1920,4,1,0,100,1,9
184080,-12.5,4,1,0,100,0,1
184110,1920,4,1,0,100,1,9
184110,-12.5,4,1,0,100,0,1
184140,1920,4,1,0,100,1,9
184140,-12.5,4,1,0,100,0,1
184170,1920,4,1,0,100,1,9
184170,-12.5,4,1,0,100,0,1
184200,1920,4,1,0,100,1,9
184200,-12.5,4,1,0,100,0,1
184230,1920,4,1,0,100,1,9
184230,-12.5,4,1,0,100,0,1
184260,1920,4,1,0,100,1,9
184260,-12.5,4,1,0,100,0,1
184290,1920,4,1,0,100,1,8
184290,-12.5,4,1,0,100,0,0
184320,1920,4,1,0,100,1,8
184320,-12.5,4,1,0,100,0,0
184350,1920,4,1,0,100,1,8
184350,-12.5,4,1,0,100,0,0
184380,1920,4,1,0,100,1,8
184380,-12.5,4,1,0,100,0,0
184410,1920,4,1,0,100,1,8
184410,-12.5,4,1,0,100,0,0
184440,1920,4,1,0,100,1,8
184440,-12.5,4,1,0,100,0,0
184470,1920,4,1,0,100,1,8
184470,-12.5,4,1,0,100,0,0
184500,1920,4,1,0,100,1,8
184500,-12.5,4,1,0,100,0,0
184530,1920,4,1,0,100,1,8
184530,-12.5,4,1,0,100,0,0
184560,1920,4,1,0,100,1,8
184560,-12.5,4,1,0,100,0,0
184590,1920,4,1,0,100,1,8
184590,-12.5,4,1,0,100,0,0
184620,1920,4,1,0,100,1,8
184620,-12.5,4,1,0,100,0,0
184650,1920,4,1,0,100,1,8
184650,-12.5,4,1,0,100,0,0
184680,1920,4,1,0,100,1,8
184680,-12.5,4,1,0,100,0,0
184710,1920,4,1,0,100,1,8
184710,-12.5,4,1,0,100,0,0
184740,1920,4,1,0,100,1,8
184740,-12.5,4,1,0,100,0,0
184770,1920,4,1,0,100,1,8
184770,-12.5,4,1,0,100,0,0
184800,1920,4,1,0,100,1,8
184800,-12.5,4,1,0,100,0,0
184830,1920,4,1,0,100,1,8
184830,-12.5,4,1,0,100,0,0
184860,1920,4,1,0,100,1,8
184860,-12.5,4,1,0,100,0,0
184890,1920,4,1,0,100,1,8
184890,-12.5,4,1,0,100,0,0
184920,1920,4,1,0,100,1,8
184920,-12.5,4,1,0,100,0,0
184950,1920,4,1,0,100,1,8
184950,-12.5,4,1,0,100,0,0
184980,1920,4,1,0,100,1,8
184980,-12.5,4,1,0,100,0,0
185010,1920,4,1,0,100,1,8
185010,-12.5,4,1,0,100,0,0
185040,1920,4,1,0,100,1,8
185040,-12.5,4,1,0,100,0,0
185070,1920,4,1,0,100,1,8
185070,-12.5,4,1,0,100,0,0
185100,1920,4,1,0,100,1,8
185100,-12.5,4,1,0,100,0,0
185130,1920,4,1,0,100,1,8
185130,-12.5,4,1,0,100,0,0
185160,1920,4,1,0,100,1,8
185160,-12.5,4,1,0,100,0,0
185190,1920,4,1,0,100,1,8
185190,-12.5,4,1,0,100,0,0
185220,1920,4,1,0,100,1,9
185220,-12.5,4,1,0,100,0,1
185250,1920,4,1,0,100,1,9
185250,-12.5,4,1,0,100,0,1
185280,1920,4,1,0,100,1,9
185280,-12.5,4,1,0,100,0,1
185310,1920,4,1,0,100,1,9
185310,-12.5,4,1,0,100,0,1
185340,1920,4,1,0,100,1,9
185340,-12.5,4,1,0,100,0,1
185370,1920,4,1,0,100,1,9
185370,-12.5,4,1,0,100,0,1
185400,1920,4,1,0,100,1,9
185400,-12.5,4,1,0,100,0,1
185430,1920,4,1,0,100,1,9
185430,-12.5,4,1,0,100,0,1
185460,1920,4,1,0,100,1,9
185460,-12.5,4,1,0,100,0,1
185490,1920,4,1,0,100,1,9
185490,-12.5,4,1,0,100,0,1
185520,1920,4,1,0,100,1,9
185520,-12.5,4,1,0,100,0,1
185550,1920,4,1,0,100,1,9
185550,-12.5,4,1,0,100,0,1
185580,1920,4,1,0,100,1,9
185580,-12.5,4,1,0,100,0,1
185610,1920,4,1,0,100,1,9
185610,-12.5,4,1,0,100,0,1
185640,1920,4,1,0,100,1,9
185640,-12.5,4,1,0,100,0,1
185670,1920,4,1,0,100,1,9
185670,-12.5,4,1,0,100,0,1
185700,1920,4,1,0,100,1,9
185700,-12.5,4,1,0,100,0,1
185730,1920,4,1,0,100,1,9
185730,-12.5,4,1,0,100,0,1
185760,1920,4,1,0,100,1,9
185760,-12.5,4,1,0,100,0,1
185790,1920,4,1,0,100,1,9
185790,-12.5,4,1,0,100,0,1
185820,1920,4,1,0,100,1,9
185820,-12.5,4,1,0,100,0,1
185850,1920,4,1,0,100,1,9
185850,-12.5,4,1,0,100,0,1
185880,1920,4,1,0,100,1,9
185880,-12.5,4,1,0,100,0,1
185910,1920,4,1,0,100,1,9
185910,-12.5,4,1,0,100,0,1
185940,1920,4,1,0,100,1,9
185940,-12.5,4,1,0,100,0,1
185970,1920,4,1,0,100,1,9
185970,-12.5,4,1,0,100,0,1
186000,1920,4,1,0,100,1,9
186000,-12.5,4,1,0,100,0,1
186030,1920,4,1,0,100,1,9
186030,-12.5,4,1,0,100,0,1
186060,1920,4,1,0,100,1,9
186060,-12.5,4,1,0,100,0,1
186090,1920,4,1,0,100,1,9
186090,-12.5,4,1,0,100,0,1
186120,1920,4,1,0,100,1,9
186120,-12.5,4,1,0,100,0,1
186150,1920,4,1,0,100,1,9
186150,-12.5,4,1,0,100,0,1
186180,1920,4,1,0,100,1,9
186180,-12.5,4,1,0,100,0,1
186210,1920,4,1,0,100,1,8
186210,-12.5,4,1,0,100,0,0
186240,1920,4,1,0,100,1,8
186240,-12.5,4,1,0,100,0,0
186270,1920,4,1,0,100,1,8
186270,-12.5,4,1,0,100,0,0
186300,1920,4,1,0,100,1,8
186300,-12.5,4,1,0,100,0,0
186330,1920,4,1,0,100,1,8
186330,-12.5,4,1,0,100,0,0
186360,1920,4,1,0,100,1,8
186360,-12.5,4,1,0,100,0,0
186390,1920,4,1,0,100,1,8
186390,-12.5,4,1,0,100,0,0
186420,1920,4,1,0,100,1,8
186420,-12.5,4,1,0,100,0,0
186450,1920,4,1,0,100,1,8
186450,-12.5,4,1,0,100,0,0
186480,1920,4,1,0,100,1,8
186480,-12.5,4,1,0,100,0,0
186510,1920,4,1,0,100,1,8
186510,-12.5,4,1,0,100,0,0
186540,1920,4,1,0,100,1,8
186540,-12.5,4,1,0,100,0,0
186570,1920,4,1,0,100,1,8
186570,-12.5,4,1,0,100,0,0
186600,1920,4,1,0,100,1,8
186600,-12.5,4,1,0,100,0,0
186630,1920,4,1,0,100,1,8
186630,-12.5,4,1,0,100,0,0
186660,1920,4,1,0,100,1,8
186660,-12.5,4,1,0,100,0,0
186690,1920,4,1,0,100,1,8
186690,-12.5,4,1,0,100,0,0
186720,1920,4,1,0,100,1,8
186720,-12.5,4,1,0,100,0,0
186750,1920,4,1,0,100,1,8
186750,-12.5,4,1,0,100,0,0
186780,1920,4,1,0,100,1,8
186780,-12.5,4,1,0,100,0,0
186810,1920,4,1,0,100,1,8
186810,-12.5,4,1,0,100,0,0
186840,1920,4,1,0,100,1,8
186840,-12.5,4,1,0,100,0,0
186870,1920,4,1,0,100,1,8
186870,-12.5,4,1,0,100,0,0
186900,1920,4,1,0,100,1,8
186900,-12.5,4,1,0,100,0,0
186930,1920,4,1,0,100,1,8
186930,-12.5,4,1,0,100,0,0
186960,1920,4,1,0,100,1,8
186960,-12.5,4,1,0,100,0,0
186990,1920,4,1,0,100,1,8
186990,-12.5,4,1,0,100,0,0
187020,1920,4,1,0,100,1,8
187020,-12.5,4,1,0,100,0,0
187050,1920,4,1,0,100,1,8
187050,-12.5,4,1,0,100,0,0
187080,1920,4,1,0,100,1,8
187080,-12.5,4,1,0,100,0,0
187110,1920,4,1,0,100,1,8
187110,-12.5,4,1,0,100,0,0
187140,1920,4,1,0,100,1,9
187140,-12.5,4,1,0,100,0,1
187170,1920,4,1,0,100,1,9
187170,-12.5,4,1,0,100,0,1
187200,1920,4,1,0,100,1,9
187200,-12.5,4,1,0,100,0,1
187230,1920,4,1,0,100,1,9
187230,-12.5,4,1,0,100,0,1
187260,1920,4,1,0,100,1,9
187260,-12.5,4,1,0,100,0,1
187290,1920,4,1,0,100,1,9
187290,-12.5,4,1,0,100,0,1
187320,1920,4,1,0,100,1,9
187320,-12.5,4,1,0,100,0,1
187350,1920,4,1,0,100,1,9
187350,-12.5,4,1,0,100,0,1
187380,1920,4,1,0,100,1,9
187380,-12.5,4,1,0,100,0,1
187410,1920,4,1,0,100,1,9
187410,-12.5,4,1,0,100,0,1
187440,1920,4,1,0,100,1,9
187440,-12.5,4,1,0,100,0,1
187470,1920,4,1,0,100,1,9
187470,-12.5,4,1,0,100,0,1
187500,1920,4,1,0,100,1,9
187500,-12.5,4,1,0,100,0,1
187530,1920,4,1,0,100,1,9
187530,-12.5,4,1,0,100,0,1
187560,1920,4,1,0,100,1,9
187560,-12.5,4,1,0,100,0,1
187590,1920,4,1,0,100,1,9
187590,-12.5,4,1,0,100,0,1
187620,1920,4,1,0,100,1,9
187620,-12.5,4,1,0,100,0,1
187650,1920,4,1,0,100,1,9
187650,-12.5,4,1,0,100,0,1
187680,1920,4,1,0,100,1,9
187680,-12.5,4,1,0,100,0,1
187710,1920,4,1,0,100,1,9
187710,-12.5,4,1,0,100,0,1
187740,1920,4,1,0,100,1,9
187740,-12.5,4,1,0,100,0,1
187770,1920,4,1,0,100,1,9
187770,-12.5,4,1,0,100,0,1
187800,1920,4,1,0,100,1,9
187800,-12.5,4,1,0,100,0,1
187830,1920,4,1,0,100,1,9
187830,-12.5,4,1,0,100,0,1
187860,1920,4,1,0,100,1,9
187860,-12.5,4,1,0,100,0,1
187890,1920,4,1,0,100,1,9
187890,-12.5,4,1,0,100,0,1
187920,1920,4,1,0,100,1,9
187920,-12.5,4,1,0,100,0,1
187950,1920,4,1,0,100,1,9
187950,-12.5,4,1,0,100,0,1
187980,1920,4,1,0,100,1,9
187980,-12.5,4,1,0,100,0,1
188010,1920,4,1,0,100,1,9
188010,-12.5,4,1,0,100,0,1
188040,1920,4,1,0,100,1,9
188040,-12.5,4,1,0,100,0,1
188070,1920,4,1,0,100,1,9
188070,-12.5,4,1,0,100,0,1
188100,1920,4,1,0,100,1,9
188100,-12.5,4,1,0,100,0,1
188130,1920,4,1,0,100,1,8
188130,-12.5,4,1,0,100,0,0
188160,1920,4,1,0,100,1,8
188160,-12.5,4,1,0,100,0,0
188190,1920,4,1,0,100,1,8
188190,-12.5,4,1,0,100,0,0
188220,1920,4,1,0,100,1,8
188220,-12.5,4,1,0,100,0,0
188250,1920,4,1,0,100,1,8
188250,-12.5,4,1,0,100,0,0
188280,1920,4,1,0,100,1,8
188280,-12.5,4,1,0,100,0,0
188310,1920,4,1,0,100,1,8
188310,-12.5,4,1,0,100,0,0
188340,1920,4,1,0,100,1,8
188340,-12.5,4,1,0,100,0,0
188370,1920,4,1,0,100,1,8
188370,-12.5,4,1,0,100,0,0
188400,1920,4,1,0,100,1,8
188400,-12.5,4,1,0,100,0,0
188430,1920,4,1,0,100,1,8
188430,-12.5,4,1,0,100,0,0
188460,1920,4,1,0,100,1,8
188460,-12.5,4,1,0,100,0,0
188490,1920,4,1,0,100,1,8
188490,-12.5,4,1,0,100,0,0
188520,1920,4,1,0,100,1,8
188520,-12.5,4,1,0,100,0,0
188550,1920,4,1,0,100,1,8
188550,-12.5,4,1,0,100,0,0
188580,1920,4,1,0,100,1,8
188580,-12.5,4,1,0,100,0,0
188610,1920,4,1,0,100,1,8
188610,-12.5,4,1,0,100,0,0
188640,1920,4,1,0,100,1,8
188640,-12.5,4,1,0,100,0,0
188670,1920,4,1,0,100,1,8
188670,-12.5,4,1,0,100,0,0
188700,1920,4,1,0,100,1,8
188700,-12.5,4,1,0,100,0,0
188730,1920,4,1,0,100,1,8
188730,-12.5,4,1,0,100,0,0
188760,1920,4,1,0,100,1,8
188760,-12.5,4,1,0,100,0,0
188790,1920,4,1,0,100,1,8
188790,-12.5,4,1,0,100,0,0
188820,1920,4,1,0,100,1,8
188820,-12.5,4,1,0,100,0,0
188850,1920,4,1,0,100,1,8
188850,-12.5,4,1,0,100,0,0
188880,1920,4,1,0,100,1,8
188880,-12.5,4,1,0,100,0,0
188910,1920,4,1,0,100,1,8
188910,-12.5,4,1,0,100,0,0
188940,1920,4,1,0,100,1,8
188940,-12.5,4,1,0,100,0,0
188970,1920,4,1,0,100,1,8
188970,-12.5,4,1,0,100,0,0
189000,1920,4,1,0,100,1,8
189000,-12.5,4,1,0,100,0,0
189030,1920,4,1,0,100,1,8
189030,-12.5,4,1,0,100,0,0
189060,1920,4,1,0,100,1,9
189060,-12.5,4,1,0,100,0,1
189090,1920,4,1,0,100,1,9
189090,-12.5,4,1,0,100,0,1
189120,1920,4,1,0,100,1,9
189120,-12.5,4,1,0,100,0,1
189150,1920,4,1,0,100,1,9
189150,-12.5,4,1,0,100,0,1
189180,1920,4,1,0,100,1,9
189180,-12.5,4,1,0,100,0,1
189210,1920,4,1,0,100,1,9
189210,-12.5,4,1,0,100,0,1
189240,1920,4,1,0,100,1,9
189240,-12.5,4,1,0,100,0,1
189270,1920,4,1,0,100,1,9
189270,-12.5,4,1,0,100,0,1
189300,1920,4,1,0,100,1,9
189300,-12.5,4,1,0,100,0,1
189330,1920,4,1,0,100,1,9
189330,-12.5,4,1,0,100,0,1
189360,1920,4,1,0,100,1,9
189360,-12.5,4,1,0,100,0,1
189390,1920,4,1,0,100,1,9
189390,-12.5,4,1,0,100,0,1
189420,1920,4,1,0,100,1,9
189420,-12.5,4,1,0,100,0,1
189450,1920,4,1,0,100,1,9
189450,-12.5,4,1,0,100,0,1
189480,1920,4,1,0,100,1,9
189480,-12.5,4,1,0,100,0,1
189510,1920,4,1,0,100,1,9
189510,-12.5,4,1,0,100,0,1
189540,1920,4,1,0,100,1,9
189540,-12.5,4,1,0,100,0,1
189570,1920,4,1,0,100,1,9
189570,-12.5,4,1,0,100,0,1
189600,1920,4,1,0,100,1,9
189600,-12.5,4,1,0,100,0,1
189630,1920,4,1,0,100,1,9
189630,-12.5,4,1,0,100,0,1
189660,1920,4,1,0,100,1,9
189660,-12.5,4,1,0,100,0,1
189690,1920,4,1,0,100,1,9
189690,-12.5,4,1,0,100,0,1
189720,1920,4,1,0,100,1,9
189720,-12.5,4,1,0,100,0,1
189750,1920,4,1,0,100,1,9
189750,-12.5,4,1,0,100,0,1
189780,1920,4,1,0,100,1,9
189780,-12.5,4,1,0,100,0,1
189810,1920,4,1,0,100,1,9
189810,-12.5,4,1,0,100,0,1
189840,1920,4,1,0,100,1,9
189840,-12.5,4,1,0,100,0,1
189870,1920,4,1,0,100,1,9
189870,-12.5,4,1,0,100,0,1
189900,1920,4,1,0,100,1,9
189900,-12.5,4,1,0,100,0,1
189930,1920,4,1,0,100,1,9
189930,-12.5,4,1,0,100,0,1
189960,1920,4,1,0,100,1,9
189960,-12.5,4,1,0,100,0,1
189990,1920,4,1,0,100,1,9
189990,-12.5,4,1,0,100,0,1
190020,1920,4,1,0,100,1,9
190020,-12.5,4,1,0,100,0,1
190050,1920,4,1,0,100,1,8
190050,-12.5,4,1,0,100,0,0
190080,1920,4,1,0,100,1,8
190080,-12.5,4,1,0,100,0,0
190110,1920,4,1,0,100,1,8
190110,-12.5,4,1,0,100,0,0
190140,1920,4,1,0,100,1,8
190140,-12.5,4,1,0,100,0,0
190170,1920,4,1,0,100,1,8
190170,-12.5,4,1,0,100,0,0
190200,1920,4,1,0,100,1,8
190200,-12.5,4,1,0,100,0,0
190230,1920,4,1,0,100,1,8
190230,-12.5,4,1,0,100,0,0
190260,1920,4,1,0,100,1,8
190260,-12.5,4,1,0,100,0,0
190290,1920,4,1,0,100,1,8
190290,-12.5,4,1,0,100,0,0
190320,1920,4,1,0,100,1,8
190320,-12.5,4,1,0,100,0,0
190350,1920,4,1,0,100,1,8
190350,-12.5,4,1,0,100,0,0
190380,1920,4,1,0,100,1,8
190380,-12.5,4,1,0,100,0,0
190410,1920,4,1,0,100,1,8
190410,-12.5,4,1,0,100,0,0
190440,1920,4,1,0,100,1,8
190440,-12.5,4,1,0,100,0,0
190470,1920,4,1,0,100,1,8
190470,-12.5,4,1,0,100,0,0
190500,1920,4,1,0,100,1,8
190500,-12.5,4,1,0,100,0,0
190530,1920,4,1,0,100,1,8
190530,-12.5,4,1,0,100,0,0
190560,1920,4,1,0,100,1,8
190560,-12.5,4,1,0,100,0,0
190590,1920,4,1,0,100,1,8
190590,-12.5,4,1,0,100,0,0
190620,1920,4,1,0,100,1,8
190620,-12.5,4,1,0,100,0,0
190650,1920,4,1,0,100,1,8
190650,-12.5,4,1,0,100,0,0
190680,1920,4,1,0,100,1,8
190680,-12.5,4,1,0,100,0,0
190710,1920,4,1,0,100,1,8
190710,-12.5,4,1,0,100,0,0
190740,1920,4,1,0,100,1,8
190740,-12.5,4,1,0,100,0,0
190770,1920,4,1,0,100,1,8
190770,-12.5,4,1,0,100,0,0
190800,1920,4,1,0,100,1,8
190800,-12.5,4,1,0,100,0,0
190830,1920,4,1,0,100,1,8
190830,-12.5,4,1,0,100,0,0
190860,1920,4,1,0,100,1,8
190860,-12.5,4,1,0,100,0,0
190890,1920,4,1,0,100,1,8
190890,-12.5,4,1,0,100,0,0
190920,1920,4,1,0,100,1,8
190920,-12.5,4,1,0,100,0,0
190950,1920,4,1,0,100,1,8
190950,-12.5,4,1,0,100,0,0
190980,1920,4,1,0,100,1,9
190980,-12.5,4,1,0,100,0,1
191010,1920,4,1,0,100,1,9
191010,-12.5,4,1,0,100,0,1
191040,1920,4,1,0,100,1,9
191040,-12.5,4,1,0,100,0,1
191070,1920,4,1,0,100,1,9
191070,-12.5,4,1,0,100,0,1
191100,1920,4,1,0,100,1,9
191100,-12.5,4,1,0,100,0,1
191130,1920,4,1,0,100,1,9
191130,-12.5,4,1,0,100,0,1
191160,1920,4,1,0,100,1,9
191160,-12.5,4,1,0,100,0,1
191190,1920,4,1,0,100,1,9
191190,-12.5,4,1,0,100,0,1
191220,1920,4,1,0,100,1,9
191220,-12.5,4,1,0,100,0,1
191250,1920,4,1,0,100,1,9
191250,-12.5,4,1,0,100,0,1
191280,1920,4,1,0,100,1,9
191280,-12.5,4,1,0,100,0,1
191310,1920,4,1,0,100,1,9
191310,-12.5,4,1,0,100,0,1
191340,1920,4,1,0,100,1,9
191340,-12.5,4,1,0,100,0,1
191370,1920,4,1,0,100,1,9
191370,-12.5,4,1,0,100,0,1
191400,1920,4,1,0,100,1,9
191400,-12.5,4,1,0,100,0,1
191430,1920,4,1,0,100,1,9
191430,-12.5,4,1,0,100,0,1
191460,1920,4,1,0,100,1,9
191460,-12.5,4,1,0,100,0,1
191490,1920,4,1,0,100,1,9
191490,-12.5,4,1,0,100,0,1
191520,1920,4,1,0,100,1,9
191520,-12.5,4,1,0,100,0,1
191550,1920,4,1,0,100,1,9
191550,-12.5,4,1,0,100,0,1
191580,1920,4,1,0,100,1,9
191580,-12.5,4,1,0,100,0,1
191610,1920,4,1,0,100,1,9
191610,-12.5,4,1,0,100,0,1
191640,1920,4,1,0,100,1,9
191640,-12.5,4,1,0,100,0,1
191670,1920,4,1,0,100,1,9
191670,-12.5,4,1,0,100,0,1
191700,1920,4,1,0,100,1,9
191700,-12.5,4,1,0,100,0,1
191730,1920,4,1,0,100,1,9
191730,-12.5,4,1,0,100,0,1
191760,1920,4,1,0,100,1,9
191760,-12.5,4,1,0,100,0,1
191790,1920,4,1,0,100,1,9
191790,-12.5,4,1,0,100,0,1
191820,1920,4,1,0,100,1,9
191820,-12.5,4,1,0,100,0,1
191850,1920,4,1,0,100,1,9
191850,-12.5,4,1,0,100,0,1
191880,1920,4,1,0,100,1,9
191880,-12.5,4,1,0,100,0,1
191910,1920,4,1,0,100,1,9
191910,-12.5,4,1,0,100,0,1
191940,1920,4,1,0,100,1,9
191940,-12.5,4,1,0,100,0,1
191970,1920,4,1,0,100,1,8
191970,-12.5,4,1,0,100,0,0
192000,1920,4,1,0,100,1,8
192000,-12.5,4,1,0,100,0,0
192030,1920,4,1,0,100,1,8
192030,-12.5,4,1,0,100,0,0
192060,1920,4,1,0,100,1,8
192060,-12.5,4,1,0,100,0,0
192090,1920,4,1,0,100,1,8
192090,-12.5,4,1,0,100,0,0
192120,1920,4,1,0,100,1,8
192120,-12.5,4,1,0,100,0,0
192150,1920,4,1,0,100,1,8
192150,-12.5,4,1,0,100,0,0
192180,1920,4,1,0,100,1,8
192180,-12.5,4,1,0,100,0,0
192210,1920,4,1,0,100,1,8
192210,-12.5,4,1,0,100,0,0
192240,1920,4,1,0,100,1,8
192240,-12.5,4,1,0,100,0,0
192270,1920,4,1,0,100,1,8
192270,-12.5,4,1,0,100,0,0
192300,1920,4,1,0,100,1,8
192300,-12.5,4,1,0,100,0,0
192330,1920,4,1,0,100,1,8
192330,-12.5,4,1,0,100,0,0
192360,1920,4,1,0,100,1,8
192360,-12.5,4,1,0,100,0,0
192390,1920,4,1,0,100,1,8
192390,-12.5,4,1,0,100,0,0
192420,1920,4,1,0,100,1,8
192420,-12.5,4,1,0,100,0,0
192450,1920,4,1,0,100,1,8
192450,-12.5,4,1,0,100,0,0
192480,1920,4,1,0,100,1,8
192480,-12.5,4,1,0,100,0,0
192510,1920,4,1,0,100,1,8
192510,-12.5,4,1,0,100,0,0
192540,1920,4,1,0,100,1,8
192540,-12.5,4,1,0,100,0,0
192570,1920,4,1,0,100,1,8
192570,-12.5,4,1,0,100,0,0
192600,1920,4,1,0,100,1,8
192600,-12.5,4,1,0,100,0,0
192630,1920,4,1,0,100,1,8
192630,-12.5,4,1,0,100,0,0
192660,1920,4,1,0,100,1,8
192660,-12.5,4,1,0,100,0,0
192690,1920,4,1,0,100,1,8
192690,-12.5,4,1,0,100,0,0
192720,1920,4,1,0,100,1,8
192720,-12.5,4,1,0,100,0,0
192750,1920,4,1,0,100,1,8
192750,-12.5,4,1,0,100,0,0
192780,1920,4,1,0,100,1,8
192780,-12.5,4,1,0,100,0,0
192810,1920,4,1,0,100,1,8
192810,-12.5,4,1,0,100,0,0
192840,1920,4,1,0,100,1,8
192840,-12.5,4,1,0,100,0,0
192870,1920,4,1,0,100,1,8
192870,-12.5,4,1,0,100,0,0
192900,1920,4,1,0,100,1,9
192900,-12.5,4,1,0,100,0,1
192930,1920,4,1,0,100,1,9
192930,-12.5,4,1,0,100,0,1
192960,1920,4,1,0,100,1,9
192960,-12.5,4,1,0,100,0,1
192990,1920,4,1,0,100,1,9
192990,-12.5,4,1,0,100,0,1
193020,1920,4,1,0,100,1,9
193020,-12.5,4,1,0,100,0,1
193050,1920,4,1,0,100,1,9
193050,-12.5,4,1,0,100,0,1
193080,1920,4,1,0,100,1,9
193080,-12.5,4,1,0,100,0,1
193110,1920,4,1,0,100,1,9
193110,-12.5,4,1,0,100,0,1
193140,1920,4,1,0,100,1,9
193140,-12.5,4,1,0,100,0,1
193170,1920,4,1,0,100,1,9
193170,-12.5,4,1,0,100,0,1
193200,1920,4,1,0,100,1,9
193200,-12.5,4,1,0,100,0,1
193230,1920,4,1,0,100,1,9
193230,-12.5,4,1,0,100,0,1
193260,1920,4,1,0,100,1,9
193260,-12.5,4,1,0,100,0,1
193290,1920,4,1,0,100,1,9
193290,-12.5,4,1,0,100,0,1
193320,1920,4,1,0,100,1,9
193320,-12.5,4,1,0,100,0,1
193350,1920,4,1,0,100,1,9
193350,-12.5,4,1,0,100,0,1
193380,1920,4,1,0,100,1,9
193380,-12.5,4,1,0,100,0,1
193410,1920,4,1,0,100,1,9
193410,-12.5,4,1,0,100,0,1
193440,1920,4,1,0,100,1,9
193440,-12.5,4,1,0,100,0,1
193470,1920,4,1,0,100,1,9
193470,-12.5,4,1,0,100,0,1
193500,1920,4,1,0,100,1,9
193500,-12.5,4,1,0,100,0,1
193530,1920,4,1,0,100,1,9
193530,-12.5,4,1,0,100,0,1
193560,1920,4,1,0,100,1,9
193560,-12.5,4,1,0,100,0,1
193590,1920,4,1,0,100,1,9
193590,-12.5,4,1,0,100,0,1
193620,1920,4,1,0,100,1,9
193620,-12.5,4,1,0,100,0,1
193650,1920,4,1,0,100,1,9
193650,-12.5,4,1,0,100,0,1
193680,1920,4,1,0,100,1,9
193680,-12.5,4,1,0,100,0,1
193710,1920,4,1,0,100,1,9
193710,-12.5,4,1,0,100,0,1
193740,1920,4,1,0,100,1,9
193740,-12.5,4,1,0,100,0,1
193770,1920,4,1,0,100,1,9
193770,-12.5,4,1,0,100,0,1
193800,1920,4,1,0,100,1,9
193800,-12.5,4,1,0,100,0,1
193830,1920,4,1,0,100,1,9
193830,-12.5,4,1,0,100,0,1
193860,1920,4,1,0,100,1,9
193860,-12.5,4,1,0,100,0,1
193890,1920,4,1,0,100,1,8
193890,-12.5,4,1,0,100,0,0
193920,1920,4,1,0,100,1,8
193920,-12.5,4,1,0,100,0,0
193950,1920,4,1,0,100,1,8
193950,-12.5,4,1,0,100,0,0
193980,1920,4,1,0,100,1,8
193980,-12.5,4,1,0,100,0,0
194010,1920,4,1,0,100,1,8
194010,-12.5,4,1,0,100,0,0
194040,1920,4,1,0,100,1,8
194040,-12.5,4,1,0,100,0,0
194070,1920,4,1,0,100,1,8
194070,-12.5,4,1,0,100,0,0
194100,1920,4,1,0,100,1,8
194100,-12.5,4,1,0,100,0,0
194130,1920,4,1,0,100,1,8
194130,-12.5,4,1,0,100,0,0
194160,1920,4,1,0,100,1,8
194160,-12.5,4,1,0,100,0,0
194190,1920,4,1,0,100,1,8
194190,-12.5,4,1,0,100,0,0
194220,1920,4,1,0,100,1,8
194220,-12.5,4,1,0,100,0,0
194250,1920,4,1,0,100,1,8
194250,-12.5,4,1,0,100,0,0
194280,1920,4,1,0,100,1,8
194280,-12.5,4,1,0,100,0,0
194310,1920,4,1,0,100,1,8
194310,-12.5,4,1,0,100,0,0
194340,1920,4,1,0,100,1,8
194340,-12.5,4,1,0,100,0,0
194370,1920,4,1,0,100,1,8
194370,-12.5,4,1,0,100,0,0
194400,1920,4,1,0,100,1,8
194400,-12.5,4,1,0,100,0,0
194430,1920,4,1,0,100,1,8
194430,-12.5,4,1,0,100,0,0
194460,1920,4,1,0,100,1,8
194460,-12.5,4,1,0,100,0,0
194490,1920,4,1,0,100,1,8
194490,-12.5,4,1,0,100,0,0
194520,1920,4,1,0,100,1,8
194520,-12.5,4,1,0,100,0,0
194550,1920,4,1,0,100,1,8
194550,-12.5,4,1,0,100,0,0
194580,1920,4,1,0,100,1,8
194580,-12.5,4,1,0,100,0,0
194610,1920,4,1,0,100,1,8
194610,-12.5,4,1,0,100,0,0
194640,1920,4,1,0,100,1,8
194640,-12.5,4,1,0,100,0,0
194670,1920,4,1,0,100,1,8
194670,-12.5,4,1,0,100,0,0
194700,1920,4,1,0,100,1,8
194700,-12.5,4,1,0,100,0,0
194730,1920,4,1,0,100,1,8
194730,-12.5,4,1,0,100,0,0
194760,1920,4,1,0,100,1,8
194760,-12.5,4,1,0,100,0,0
194790,1920,4,1,0,100,1,8
194790,-12.5,4,1,0,100,0,0
194820,1920,4,1,0,100,1,9
194820,-12.5,4,1,0,100,0,1
194850,240,4,1,0,100,1,9
194850,-66.6666666666667,4,1,0,100,0,0
196770,571.428571428571,4,1,0,100,1,9
197011,571.428571428571,4,1,0,100,1,9
197011,-25,4,1,0,100,0,1
197013,571.428571428571,4,1,0,100,1,1
197013,-25,4,1,0,100,0,1
197014,-24.2718446601942,4,1,0,100,0,1
197015,-23.5849056603774,4,1,0,100,0,1
197016,-25.3807106598985,4,1,0,100,0,1
197017,-25.7731958762887,4,1,0,100,0,1
197018,-25,4,1,0,100,0,1
197083,571.428571428571,4,1,0,100,1,9
197083,-25,4,1,0,100,0,1
197155,571.428571428571,4,1,0,100,1,9
197155,-50,4,1,0,100,0,1
197227,571.428571428571,4,1,0,100,1,9
197227,-50,4,1,0,100,0,1
197298,571.428571428571,4,1,0,100,1,9
197298,-50,4,1,0,100,0,1
197370,571.428571428571,4,1,0,100,1,9
197370,-25,4,1,0,100,0,1
197441,571.428571428571,4,1,0,100,1,9
197441,-25,4,1,0,100,0,1
197513,571.428571428571,4,1,0,100,1,9
197513,-25,4,1,0,100,0,1
197584,571.428571428571,4,1,0,100,1,9
197584,-50,4,1,0,100,0,1
197655,571.428571428571,4,1,0,100,1,9
197655,-50,4,1,0,100,0,1
197727,571.428571428571,4,1,0,100,1,9
197727,-50,4,1,0,100,0,1
197797,571.428571428571,4,1,0,100,1,9
197797,-25,4,1,0,100,0,1
197869,571.428571428571,4,1,0,100,1,9
197869,-25,4,1,0,100,0,1
197941,571.428571428571,4,1,0,100,1,9
197941,-25,4,1,0,100,0,1
198013,571.428571428571,4,1,0,100,1,9
198013,-50,4,1,0,100,0,1
198084,571.428571428571,4,1,0,100,1,9
198084,-50,4,1,0,100,0,1
198155,571.428571428571,4,1,0,100,1,9
198155,-50,4,1,0,100,0,1
198227,571.428571428571,4,1,0,100,1,9
198227,-25,4,1,0,100,0,1
198298,571.428571428571,4,1,0,100,1,9
198298,-25,4,1,0,100,0,1
198298,-25,4,1,0,100,0,1
198299,-24.2718446601942,4,1,0,100,0,1
198300,-23.5849056603774,4,1,0,100,0,1
198301,-25.3807106598985,4,1,0,100,0,1
198302,-25.7731958762887,4,1,0,100,0,1
198303,-25,4,1,0,100,0,1
198370,571.428571428571,4,1,0,100,1,9
198370,-25,4,1,0,100,0,1
198441,571.428571428571,4,1,0,100,1,9
198441,-50,4,1,0,100,0,1
198513,571.428571428571,4,1,0,100,1,9
198513,-50,4,1,0,100,0,1
198584,571.428571428571,4,1,0,100,1,9
198584,-50,4,1,0,100,0,1
198655,571.428571428571,4,1,0,100,1,9
198655,-25,4,1,0,100,0,1
198727,571.428571428571,4,1,0,100,1,9
198727,-25,4,1,0,100,0,1
198798,571.428571428571,4,1,0,100,1,9
198798,-25,4,1,0,100,0,1
198870,571.428571428571,4,1,0,100,1,9
198870,-50,4,1,0,100,0,1
198941,571.428571428571,4,1,0,100,1,9
198941,-50,4,1,0,100,0,1
199013,571.428571428571,4,1,0,100,1,9
199013,-50,4,1,0,100,0,1
199084,571.428571428571,4,1,0,100,1,9
199084,-25,4,1,0,100,0,1
199155,571.428571428571,4,1,0,100,1,9
199155,-25,4,1,0,100,0,1
199227,571.428571428571,4,1,0,100,1,9
199227,-25,4,1,0,100,0,1
199298,571.428571428571,4,1,0,100,1,9
199298,-50,4,1,0,100,0,1
199370,571.428571428571,4,1,0,100,1,9
199370,-50,4,1,0,100,0,1
199441,571.428571428571,4,1,0,100,1,9
199441,-50,4,1,0,100,0,1
199513,571.428571428571,4,1,0,100,1,9
199513,-25,4,1,0,100,0,1
199584,571.428571428571,4,1,0,100,1,9
199584,-25,4,1,0,100,0,1
199584,-25,4,1,0,100,0,1
199585,-24.2718446601942,4,1,0,100,0,1
199586,-23.5849056603774,4,1,0,100,0,1
199587,-25.3807106598985,4,1,0,100,0,1
199588,-25.7731958762887,4,1,0,100,0,1
199589,-25,4,1,0,100,0,1
199655,571.428571428571,4,1,0,100,1,9
199655,-25,4,1,0,100,0,1
199727,571.428571428571,4,1,0,100,1,9
199727,-50,4,1,0,100,0,1
199798,571.428571428571,4,1,0,100,1,9
199798,-50,4,1,0,100,0,1
199870,571.428571428571,4,1,0,100,1,9
199870,-50,4,1,0,100,0,1
199941,571.428571428571,4,1,0,100,1,9
199941,-25,4,1,0,100,0,1
200013,571.428571428571,4,1,0,100,1,9
200013,-25,4,1,0,100,0,1
200084,571.428571428571,4,1,0,100,1,9
200084,-25,4,1,0,100,0,1
200155,571.428571428571,4,1,0,100,1,9
200155,-50,4,1,0,100,0,1
200227,571.428571428571,4,1,0,100,1,9
200227,-50,4,1,0,100,0,1
200298,571.428571428571,4,1,0,100,1,9
200298,-50,4,1,0,100,0,1
200370,571.428571428571,4,1,0,100,1,9
200370,-25,4,1,0,100,0,1
200441,571.428571428571,4,1,0,100,1,9
200441,-25,4,1,0,100,0,1
200513,571.428571428571,4,1,0,100,1,9
200513,-25,4,1,0,100,0,1
200584,571.428571428571,4,1,0,100,1,9
200584,-50,4,1,0,100,0,1
200655,571.428571428571,4,1,0,100,1,9
200655,-25,4,1,0,100,0,1
200727,571.428571428571,4,1,0,100,1,9
200727,-25,4,1,0,100,0,1
200727,-25,4,1,0,100,0,1
200728,-24.2718446601942,4,1,0,100,0,1
200729,-23.5849056603774,4,1,0,100,0,1
200730,-25.3807106598985,4,1,0,100,0,1
200731,-25.7731958762887,4,1,0,100,0,1
200732,-25,4,1,0,100,0,1
200798,571.428571428571,4,1,0,100,1,9
200798,-25,4,1,0,100,0,1
200870,571.428571428571,4,1,0,100,1,9
200870,-50,4,1,0,100,0,1
200941,571.428571428571,4,1,0,100,1,9
200941,-25,4,1,0,100,0,1
201013,571.428571428571,4,1,0,100,1,9
201013,-25,4,1,0,100,0,1
201084,571.428571428571,4,1,0,100,1,9
201084,-25,4,1,0,100,0,1
201155,571.428571428571,4,1,0,100,1,9
201155,-50,4,1,0,100,0,1
201227,571.428571428571,4,1,0,100,1,9
201227,-25,4,1,0,100,0,1
201298,571.428571428571,4,1,0,100,1,9
201298,-25,4,1,0,100,0,1
201369,571.428571428571,4,1,0,100,1,9
201369,-25,4,1,0,100,0,1
201441,571.428571428571,4,1,0,100,1,9
201441,-50,4,1,0,100,0,1
201513,571.428571428571,4,1,0,100,1,9
201513,-25,4,1,0,100,0,1
201584,571.428571428571,4,1,0,100,1,9
201584,-25,4,1,0,100,0,1
201584,-25,4,1,0,100,0,1
201585,-24.2718446601942,4,1,0,100,0,1
201586,-23.5849056603774,4,1,0,100,0,1
201587,-25.3807106598985,4,1,0,100,0,1
201588,-25.7731958762887,4,1,0,100,0,1
201589,-25,4,1,0,100,0,1
201655,571.428571428571,4,1,0,100,1,9
201655,-25,4,1,0,100,0,1
201727,571.428571428571,4,1,0,100,1,9
201727,-25,4,1,0,100,0,1
201798,571.428571428571,4,1,0,100,1,9
201798,-25,4,1,0,100,0,1
201870,571.428571428571,4,1,0,100,1,9
201870,-25,4,1,0,100,0,1
201941,571.428571428571,4,1,0,100,1,9
201941,-25,4,1,0,100,0,1
202013,571.428571428571,4,1,0,100,1,9
202013,571.428571428571,4,1,0,100,1,9
202013,-25,4,1,0,100,0,1
202013,-25,4,1,0,100,0,1
202013,-25,4,1,0,100,0,1
202014,-24.2718446601942,4,1,0,100,0,1
202015,-23.5849056603774,4,1,0,100,0,1
202016,-25.3807106598985,4,1,0,100,0,1
202017,-25.7731958762887,4,1,0,100,0,1
202018,-25,4,1,0,100,0,1
202084,571.428571428571,4,1,0,100,1,9
202084,-25,4,1,0,100,0,1
202155,571.428571428571,4,1,0,100,1,9
202155,-25,4,1,0,100,0,1
202227,571.428571428571,4,1,0,100,1,9
202227,-25,4,1,0,100,0,1
202298,571.428571428571,4,1,0,100,1,9
202298,-25,4,1,0,100,0,1
202370,571.428571428571,4,1,0,100,1,9
202370,-25,4,1,0,100,0,1
202441,571.428571428571,4,1,0,100,1,9
202441,-25,4,1,0,100,0,1
202441,-25,4,1,0,100,0,1
202442,-24.2718446601942,4,1,0,100,0,1
202443,-23.5849056603774,4,1,0,100,0,1
202444,-25.3807106598985,4,1,0,100,0,1
202445,-25.7731958762887,4,1,0,100,0,1
202446,-25,4,1,0,100,0,1
202513,571.428571428571,4,1,0,100,1,9
202513,-25,4,1,0,100,0,1
202584,571.428571428571,4,1,0,100,1,9
202584,-25,4,1,0,100,0,1
202655,571.428571428571,4,1,0,100,1,9
202655,-25,4,1,0,100,0,1
202727,285.714285714286,4,1,0,100,1,8
203798,-45.4545454545455,4,1,0,100,0,0
204441,-100,4,1,0,100,0,0
204442,-97.0873786407767,4,1,0,100,0,0
204443,-94.3396226415094,4,1,0,100,0,0
204444,-103.092783505155,4,1,0,100,0,0
204445,-106.382978723404,4,1,0,100,0,0
204446,-100,4,1,0,100,0,0
204727,-100,4,1,0,100,0,0
204728,-97.0873786407767,4,1,0,100,0,0
204729,-94.3396226415094,4,1,0,100,0,0
204730,-103.092783505155,4,1,0,100,0,0
204731,-106.382978723404,4,1,0,100,0,0
204732,-100,4,1,0,100,0,0
204941,-30.3030303030303,4,1,0,100,0,0
205584,-100,4,1,0,100,0,0
205585,-97.0873786407767,4,1,0,100,0,0
205586,-94.3396226415094,4,1,0,100,0,0
205587,-103.092783505155,4,1,0,100,0,0
205588,-106.382978723404,4,1,0,100,0,0
205589,-100,4,1,0,100,0,0
205870,-100,4,1,0,100,0,0
205871,-97.0873786407767,4,1,0,100,0,0
205872,-94.3396226415094,4,1,0,100,0,0
205873,-103.092783505155,4,1,0,100,0,0
205874,-106.382978723404,4,1,0,100,0,0
205875,-100,4,1,0,100,0,0
206156,285.714285714286,4,1,0,100,1,8
206156,-100,4,1,0,100,0,0
206157,-96.1538461538461,4,1,0,100,0,0
206158,-104.166666666667,4,1,0,100,0,0
206159,-92.5925925925926,4,1,0,100,0,0
206160,-108.695652173913,4,1,0,100,0,0
206161,-89.2857142857143,4,1,0,100,0,0
206162,-113.636363636364,4,1,0,100,0,0
206163,-86.2068965517241,4,1,0,100,0,0
206164,-119.047619047619,4,1,0,100,0,0
206165,-83.3333333333333,4,1,0,100,0,0
206166,-125,4,1,0,100,0,0
206167,-80,4,1,0,100,0,0
206168,-133.333333333333,4,1,0,100,0,0
206169,-76.9230769230769,4,1,0,100,0,0
206170,-142.857142857143,4,1,0,100,0,0
206584,-100,4,1,0,100,0,0
206585,-96.1538461538461,4,1,0,100,0,0
206586,-104.166666666667,4,1,0,100,0,0
206587,-92.5925925925926,4,1,0,100,0,0
206588,-108.695652173913,4,1,0,100,0,0
206589,-89.2857142857143,4,1,0,100,0,0
206590,-113.636363636364,4,1,0,100,0,0
206591,-86.2068965517241,4,1,0,100,0,0
206592,-119.047619047619,4,1,0,100,0,0
206593,-83.3333333333333,4,1,0,100,0,0
206594,-125,4,1,0,100,0,0
206595,-80,4,1,0,100,0,0
206596,-133.333333333333,4,1,0,100,0,0
206597,-76.9230769230769,4,1,0,100,0,0
206598,-142.857142857143,4,1,0,100,0,0
206870,-100,4,1,0,100,0,0
206871,-96.1538461538461,4,1,0,100,0,0
206872,-104.166666666667,4,1,0,100,0,0
206873,-92.5925925925926,4,1,0,100,0,0
206874,-108.695652173913,4,1,0,100,0,0
206875,-89.2857142857143,4,1,0,100,0,0
206876,-113.636363636364,4,1,0,100,0,0
206877,-86.2068965517241,4,1,0,100,0,0
206878,-119.047619047619,4,1,0,100,0,0
206879,-83.3333333333333,4,1,0,100,0,0
206880,-125,4,1,0,100,0,0
206881,-80,4,1,0,100,0,0
206882,-133.333333333333,4,1,0,100,0,0
206883,-76.9230769230769,4,1,0,100,0,0
206884,-142.857142857143,4,1,0,100,0,0
207156,-100,4,1,0,100,0,0
207157,-96.1538461538461,4,1,0,100,0,0
207158,-104.166666666667,4,1,0,100,0,0
207159,-92.5925925925926,4,1,0,100,0,0
207160,-108.695652173913,4,1,0,100,0,0
207161,-89.2857142857143,4,1,0,100,0,0
207162,-113.636363636364,4,1,0,100,0,0
207163,-86.2068965517241,4,1,0,100,0,0
207164,-119.047619047619,4,1,0,100,0,0
207165,-83.3333333333333,4,1,0,100,0,0
207166,-125,4,1,0,100,0,0
207167,-80,4,1,0,100,0,0
207168,-133.333333333333,4,1,0,100,0,0
207169,-76.9230769230769,4,1,0,100,0,0
207170,-142.857142857143,4,1,0,100,0,0
207584,-100,4,1,0,100,0,0
207585,-96.1538461538461,4,1,0,100,0,0
207586,-104.166666666667,4,1,0,100,0,0
207587,-92.5925925925926,4,1,0,100,0,0
207588,-108.695652173913,4,1,0,100,0,0
207589,-89.2857142857143,4,1,0,100,0,0
207590,-113.636363636364,4,1,0,100,0,0
207591,-86.2068965517241,4,1,0,100,0,0
207592,-119.047619047619,4,1,0,100,0,0
207593,-83.3333333333333,4,1,0,100,0,0
207594,-125,4,1,0,100,0,0
207595,-80,4,1,0,100,0,0
207596,-133.333333333333,4,1,0,100,0,0
207597,-76.9230769230769,4,1,0,100,0,0
207598,-142.857142857143,4,1,0,100,0,0
207870,-100,4,1,0,100,0,0
207871,-96.1538461538461,4,1,0,100,0,0
207872,-104.166666666667,4,1,0,100,0,0
207873,-92.5925925925926,4,1,0,100,0,0
207874,-108.695652173913,4,1,0,100,0,0
207875,-89.2857142857143,4,1,0,100,0,0
207876,-113.636363636364,4,1,0,100,0,0
207877,-86.2068965517241,4,1,0,100,0,0
207878,-119.047619047619,4,1,0,100,0,0
207879,-83.3333333333333,4,1,0,100,0,0
207880,-125,4,1,0,100,0,0
207881,-80,4,1,0,100,0,0
207882,-133.333333333333,4,1,0,100,0,0
207883,-76.9230769230769,4,1,0,100,0,0
207884,-142.857142857143,4,1,0,100,0,0
208156,-100,4,1,0,100,0,0
208157,-96.1538461538461,4,1,0,100,0,0
208158,-104.166666666667,4,1,0,100,0,0
208159,-92.5925925925926,4,1,0,100,0,0
208160,-108.695652173913,4,1,0,100,0,0
208161,-89.2857142857143,4,1,0,100,0,0
208162,-113.636363636364,4,1,0,100,0,0
208163,-86.2068965517241,4,1,0,100,0,0
208164,-119.047619047619,4,1,0,100,0,0
208165,-83.3333333333333,4,1,0,100,0,0
208166,-125,4,1,0,100,0,0
208167,-80,4,1,0,100,0,0
208168,-133.333333333333,4,1,0,100,0,0
208169,-76.9230769230769,4,1,0,100,0,0
208170,-142.857142857143,4,1,0,100,0,0
208440,-90.9090909090909,4,1,0,100,0,1
208512,-81.9672131147541,4,1,0,100,0,1
208583,-76.3358778625954,4,1,0,100,0,1
208655,-72.992700729927,4,1,0,100,0,1
208726,-71.4285714285714,4,1,0,100,0,1
208797,-72.992700729927,4,1,0,100,0,1
208869,-76.3358778625954,4,1,0,100,0,1
208940,-81.9672131147541,4,1,0,100,0,1
209012,-90.9090909090909,4,1,0,100,0,1
209083,-102.040816326531,4,1,0,100,0,1
209155,-112.359550561798,4,1,0,100,0,1
209226,-120.481927710843,4,1,0,100,0,1
209297,-125,4,1,0,100,0,1
209369,-120.481927710843,4,1,0,100,0,1
209440,-112.359550561798,4,1,0,100,0,1
209512,-102.040816326531,4,1,0,100,0,1
209580,-90.9090909090909,4,1,0,100,0,1
211013,1142.85714285714,4,1,0,100,1,9
211013,-25,4,1,0,100,0,1
211014,-22.9885057471264,4,1,0,100,0,1
211084,1142.85714285714,4,1,0,100,1,9
211084,-25,4,1,0,100,0,1
211085,-22.9885057471264,4,1,0,100,0,1
211156,1142.85714285714,4,1,0,100,1,9
211156,-25,4,1,0,100,0,1
211157,-22.9885057471264,4,1,0,100,0,1
211227,1142.85714285714,4,1,0,100,1,9
211227,-25,4,1,0,100,0,1
211228,-22.9885057471264,4,1,0,100,0,1
211298,1142.85714285714,4,1,0,100,1,9
211298,-25,4,1,0,100,0,1
211299,-22.9885057471264,4,1,0,100,0,1
211370,1142.85714285714,4,1,0,100,1,9
211370,-25,4,1,0,100,0,1
211371,-22.9885057471264,4,1,0,100,0,1
211441,1142.85714285714,4,1,0,100,1,9
211441,-25,4,1,0,100,0,1
211442,-22.9885057471264,4,1,0,100,0,1
211513,1142.85714285714,4,1,0,100,1,9
211513,-25,4,1,0,100,0,1
211514,-22.9885057471264,4,1,0,100,0,1
211584,1142.85714285714,4,1,0,100,1,9
211584,-25,4,1,0,100,0,1
211585,-22.9885057471264,4,1,0,100,0,1
211656,1142.85714285714,4,1,0,100,1,9
211656,-25,4,1,0,100,0,1
211657,-22.9885057471264,4,1,0,100,0,1
211727,1142.85714285714,4,1,0,100,1,9
211727,-25,4,1,0,100,0,1
211728,-22.9885057471264,4,1,0,100,0,1
211798,1142.85714285714,4,1,0,100,1,9
211798,-25,4,1,0,100,0,1
211799,-22.9885057471264,4,1,0,100,0,1
211870,1142.85714285714,4,1,0,100,1,9
211870,-25,4,1,0,100,0,1
211871,-22.9885057471264,4,1,0,100,0,1
211941,1142.85714285714,4,1,0,100,1,9
211941,-25,4,1,0,100,0,1
211942,-22.9885057471264,4,1,0,100,0,1
212013,1142.85714285714,4,1,0,100,1,9
212013,-25,4,1,0,100,0,1
212014,-22.9885057471264,4,1,0,100,0,1
212084,1142.85714285714,4,1,0,100,1,9
212084,-25,4,1,0,100,0,1
212085,-22.9885057471264,4,1,0,100,0,1
212156,1142.85714285714,4,1,0,100,1,9
212156,-25,4,1,0,100,0,1
212157,-22.9885057471264,4,1,0,100,0,1
212227,1142.85714285714,4,1,0,100,1,9
212227,-25,4,1,0,100,0,1
212228,-22.9885057471264,4,1,0,100,0,1
212298,1142.85714285714,4,1,0,100,1,9
212298,-25,4,1,0,100,0,1
212299,-22.9885057471264,4,1,0,100,0,1
212370,1142.85714285714,4,1,0,100,1,9
212370,-25,4,1,0,100,0,1
212371,-22.9885057471264,4,1,0,100,0,1
212441,1142.85714285714,4,1,0,100,1,9
212441,-25,4,1,0,100,0,1
212442,-22.9885057471264,4,1,0,100,0,1
212513,1142.85714285714,4,1,0,100,1,9
212513,-25,4,1,0,100,0,1
212514,-22.9885057471264,4,1,0,100,0,1
212584,1142.85714285714,4,1,0,100,1,9
212584,-25,4,1,0,100,0,1
212585,-22.9885057471264,4,1,0,100,0,1
212656,1142.85714285714,4,1,0,100,1,9
212656,-25,4,1,0,100,0,1
212657,-22.9885057471264,4,1,0,100,0,1
212727,1142.85714285714,4,1,0,100,1,9
212727,-25,4,1,0,100,0,1
212728,-22.9885057471264,4,1,0,100,0,1
212798,1142.85714285714,4,1,0,100,1,9
212798,-25,4,1,0,100,0,1
212799,-22.9885057471264,4,1,0,100,0,1
212870,1142.85714285714,4,1,0,100,1,9
212870,-25,4,1,0,100,0,1
212871,-22.9885057471264,4,1,0,100,0,1
212939,1142.85714285714,4,1,0,100,1,9
212939,-25,4,1,0,100,0,1
212940,-22.9885057471264,4,1,0,100,0,1
213013,285.714285714286,4,1,0,100,1,9
213013,-71.4285714285714,4,1,0,100,0,9
214013,-71.4285714285714,4,1,0,100,0,8
214798,-66.6666666666667,4,1,0,100,0,0
215298,-100,4,1,0,100,0,0
215299,-96.1538461538461,4,1,0,100,0,0
215300,-104.166666666667,4,1,0,100,0,0
215301,-92.5925925925926,4,1,0,100,0,0
215302,-108.695652173913,4,1,0,100,0,0
215303,-89.2857142857143,4,1,0,100,0,0
215304,-113.636363636364,4,1,0,100,0,0
215305,-86.2068965517241,4,1,0,100,0,0
215306,-119.047619047619,4,1,0,100,0,0
215307,-83.3333333333333,4,1,0,100,0,0
215308,-125,4,1,0,100,0,0
215309,-80,4,1,0,100,0,0
215310,-133.333333333333,4,1,0,100,0,0
215311,-76.9230769230769,4,1,0,100,0,0
215312,-142.857142857143,4,1,0,100,0,0
215727,-100,4,1,0,100,0,0
215728,-96.1538461538461,4,1,0,100,0,0
215729,-104.166666666667,4,1,0,100,0,0
215730,-92.5925925925926,4,1,0,100,0,0
215731,-108.695652173913,4,1,0,100,0,0
215732,-89.2857142857143,4,1,0,100,0,0
215733,-113.636363636364,4,1,0,100,0,0
215734,-86.2068965517241,4,1,0,100,0,0
215735,-119.047619047619,4,1,0,100,0,0
215736,-83.3333333333333,4,1,0,100,0,0
215737,-125,4,1,0,100,0,0
215738,-80,4,1,0,100,0,0
215739,-133.333333333333,4,1,0,100,0,0
215740,-76.9230769230769,4,1,0,100,0,0
215741,-142.857142857143,4,1,0,100,0,0
216013,-100,4,1,0,100,0,0
216014,-96.1538461538461,4,1,0,100,0,0
216015,-104.166666666667,4,1,0,100,0,0
216016,-92.5925925925926,4,1,0,100,0,0
216017,-108.695652173913,4,1,0,100,0,0
216018,-89.2857142857143,4,1,0,100,0,0
216019,-113.636363636364,4,1,0,100,0,0
216020,-86.2068965517241,4,1,0,100,0,0
216021,-119.047619047619,4,1,0,100,0,0
216022,-83.3333333333333,4,1,0,100,0,0
216023,-125,4,1,0,100,0,0
216024,-80,4,1,0,100,0,0
216025,-133.333333333333,4,1,0,100,0,0
216026,-76.9230769230769,4,1,0,100,0,0
216027,-142.857142857143,4,1,0,100,0,0
216298,-100,4,1,0,100,0,0
216299,-96.1538461538461,4,1,0,100,0,0
216300,-104.166666666667,4,1,0,100,0,0
216301,-92.5925925925926,4,1,0,100,0,0
216302,-108.695652173913,4,1,0,100,0,0
216303,-89.2857142857143,4,1,0,100,0,0
216304,-113.636363636364,4,1,0,100,0,0
216305,-86.2068965517241,4,1,0,100,0,0
216306,-119.047619047619,4,1,0,100,0,0
216307,-83.3333333333333,4,1,0,100,0,0
216308,-125,4,1,0,100,0,0
216309,-80,4,1,0,100,0,0
216310,-133.333333333333,4,1,0,100,0,0
216311,-76.9230769230769,4,1,0,100,0,0
216312,-142.857142857143,4,1,0,100,0,0
216727,-100,4,1,0,100,0,0
216728,-96.1538461538461,4,1,0,100,0,0
216729,-104.166666666667,4,1,0,100,0,0
216730,-92.5925925925926,4,1,0,100,0,0
216731,-108.695652173913,4,1,0,100,0,0
216732,-89.2857142857143,4,1,0,100,0,0
216733,-113.636363636364,4,1,0,100,0,0
216734,-86.2068965517241,4,1,0,100,0,0
216735,-119.047619047619,4,1,0,100,0,0
216736,-83.3333333333333,4,1,0,100,0,0
216737,-125,4,1,0,100,0,0
216738,-80,4,1,0,100,0,0
216739,-133.333333333333,4,1,0,100,0,0
216740,-76.9230769230769,4,1,0,100,0,0
216741,-142.857142857143,4,1,0,100,0,0
217013,-100,4,1,0,100,0,0
217014,-96.1538461538461,4,1,0,100,0,0
217015,-104.166666666667,4,1,0,100,0,0
217016,-92.5925925925926,4,1,0,100,0,0
217017,-108.695652173913,4,1,0,100,0,0
217018,-89.2857142857143,4,1,0,100,0,0
217019,-113.636363636364,4,1,0,100,0,0
217020,-86.2068965517241,4,1,0,100,0,0
217021,-119.047619047619,4,1,0,100,0,0
217022,-83.3333333333333,4,1,0,100,0,0
217023,-125,4,1,0,100,0,0
217024,-80,4,1,0,100,0,0
217025,-133.333333333333,4,1,0,100,0,0
217026,-76.9230769230769,4,1,0,100,0,0
217027,-142.857142857143,4,1,0,100,0,0
217298,-100,4,1,0,100,0,0
217299,-96.1538461538461,4,1,0,100,0,0
217300,-104.166666666667,4,1,0,100,0,0
217301,-92.5925925925926,4,1,0,100,0,0
217302,-108.695652173913,4,1,0,100,0,0
217303,-89.2857142857143,4,1,0,100,0,0
217304,-113.636363636364,4,1,0,100,0,0
217305,-86.2068965517241,4,1,0,100,0,0
217306,-119.047619047619,4,1,0,100,0,0
217307,-83.3333333333333,4,1,0,100,0,0
217308,-125,4,1,0,100,0,0
217309,-80,4,1,0,100,0,0
217310,-133.333333333333,4,1,0,100,0,0
217311,-76.9230769230769,4,1,0,100,0,0
217312,-142.857142857143,4,1,0,100,0,0
217580,-90.9090909090909,4,1,0,100,0,1
217652,-81.9672131147541,4,1,0,100,0,1
217723,-76.3358778625954,4,1,0,100,0,1
217795,-72.992700729927,4,1,0,100,0,1
217866,-71.4285714285714,4,1,0,100,0,1
217937,-72.992700729927,4,1,0,100,0,1
218009,-76.3358778625954,4,1,0,100,0,1
218080,-81.9672131147541,4,1,0,100,0,1
218152,-90.9090909090909,4,1,0,100,0,1
218223,-102.040816326531,4,1,0,100,0,1
218295,-112.359550561798,4,1,0,100,0,1
218366,-120.481927710843,4,1,0,100,0,1
218437,-125,4,1,0,100,0,1
218509,-120.481927710843,4,1,0,100,0,1
218580,-112.359550561798,4,1,0,100,0,1
218652,-102.040816326531,4,1,0,100,0,1
218720,-90.9090909090909,4,1,0,100,0,1
220155,1142.85714285714,4,1,0,100,1,9
220155,-25,4,1,0,100,0,1
220156,-22.9885057471264,4,1,0,100,0,1
220226,1142.85714285714,4,1,0,100,1,9
220226,-25,4,1,0,100,0,1
220227,-22.9885057471264,4,1,0,100,0,1
220298,1142.85714285714,4,1,0,100,1,9
220298,-25,4,1,0,100,0,1
220299,-22.9885057471264,4,1,0,100,0,1
220369,1142.85714285714,4,1,0,100,1,9
220369,-25,4,1,0,100,0,1
220370,-22.9885057471264,4,1,0,100,0,1
220440,1142.85714285714,4,1,0,100,1,9
220440,-25,4,1,0,100,0,1
220441,-22.9885057471264,4,1,0,100,0,1
220512,1142.85714285714,4,1,0,100,1,9
220512,-25,4,1,0,100,0,1
220513,-22.9885057471264,4,1,0,100,0,1
220583,1142.85714285714,4,1,0,100,1,9
220583,-25,4,1,0,100,0,1
220584,-22.9885057471264,4,1,0,100,0,1
220655,1142.85714285714,4,1,0,100,1,9
220655,-25,4,1,0,100,0,1
220656,-22.9885057471264,4,1,0,100,0,1
220726,1142.85714285714,4,1,0,100,1,9
220726,-25,4,1,0,100,0,1
220727,-22.9885057471264,4,1,0,100,0,1
220798,1142.85714285714,4,1,0,100,1,9
220798,-25,4,1,0,100,0,1
220799,-22.9885057471264,4,1,0,100,0,1
220869,1142.85714285714,4,1,0,100,1,9
220869,-25,4,1,0,100,0,1
220870,-22.9885057471264,4,1,0,100,0,1
220940,1142.85714285714,4,1,0,100,1,9
220940,-25,4,1,0,100,0,1
220941,-22.9885057471264,4,1,0,100,0,1
221012,1142.85714285714,4,1,0,100,1,9
221012,-25,4,1,0,100,0,1
221013,-22.9885057471264,4,1,0,100,0,1
221083,1142.85714285714,4,1,0,100,1,9
221083,-25,4,1,0,100,0,1
221084,-22.9885057471264,4,1,0,100,0,1
221155,1142.85714285714,4,1,0,100,1,9
221155,-25,4,1,0,100,0,1
221156,-22.9885057471264,4,1,0,100,0,1
221226,1142.85714285714,4,1,0,100,1,9
221226,-25,4,1,0,100,0,1
221227,-22.9885057471264,4,1,0,100,0,1
221298,1142.85714285714,4,1,0,100,1,9
221298,-25,4,1,0,100,0,1
221299,-22.9885057471264,4,1,0,100,0,1
221369,1142.85714285714,4,1,0,100,1,9
221369,-25,4,1,0,100,0,1
221370,-22.9885057471264,4,1,0,100,0,1
221440,1142.85714285714,4,1,0,100,1,9
221440,-25,4,1,0,100,0,1
221441,-22.9885057471264,4,1,0,100,0,1
221512,1142.85714285714,4,1,0,100,1,9
221512,-25,4,1,0,100,0,1
221513,-22.9885057471264,4,1,0,100,0,1
221583,1142.85714285714,4,1,0,100,1,9
221583,-25,4,1,0,100,0,1
221584,-22.9885057471264,4,1,0,100,0,1
221655,1142.85714285714,4,1,0,100,1,9
221655,-25,4,1,0,100,0,1
221656,-22.9885057471264,4,1,0,100,0,1
221726,1142.85714285714,4,1,0,100,1,9
221726,-25,4,1,0,100,0,1
221727,-22.9885057471264,4,1,0,100,0,1
221798,1142.85714285714,4,1,0,100,1,9
221798,-25,4,1,0,100,0,1
221799,-22.9885057471264,4,1,0,100,0,1
221869,1142.85714285714,4,1,0,100,1,9
221869,-25,4,1,0,100,0,1
221870,-22.9885057471264,4,1,0,100,0,1
221940,1142.85714285714,4,1,0,100,1,9
221940,-25,4,1,0,100,0,1
221941,-22.9885057471264,4,1,0,100,0,1
222012,1142.85714285714,4,1,0,100,1,9
222012,-25,4,1,0,100,0,1
222013,-22.9885057471264,4,1,0,100,0,1
222081,1142.85714285714,4,1,0,100,1,9
222081,-25,4,1,0,100,0,1
222082,-22.9885057471264,4,1,0,100,0,1
222155,285.714285714286,4,1,0,100,1,9
222155,-71.4285714285714,4,1,0,100,0,9
223226,-71.4285714285714,4,1,0,100,0,8
224012,-50,4,1,0,100,0,0
224440,285.714285714286,4,1,0,100,1,0
224440,-100,4,1,0,100,0,0
224441,-93.4579439252336,4,1,0,100,0,0
224442,-107.52688172043,4,1,0,100,0,0
224443,-87.719298245614,4,1,0,100,0,0
224444,-116.279069767442,4,1,0,100,0,0
224445,-81.9672131147541,4,1,0,100,0,0
224446,-128.205128205129,4,1,0,100,0,0
224447,-76.9230769230769,4,1,0,100,0,0
224448,-142.857142857143,4,1,0,100,0,0
224449,-71.9424460431655,4,1,0,100,0,0
224450,-163.934426229508,4,1,0,100,0,0
224451,-67.5675675675676,4,1,0,100,0,0
224452,-192.307692307692,4,1,0,100,0,0
224453,-63.2911392405063,4,1,0,100,0,0
224454,-238.095238095238,4,1,0,100,0,0
224868,-100,4,1,0,100,0,0
224869,-93.4579439252336,4,1,0,100,0,0
224870,-107.52688172043,4,1,0,100,0,0
224871,-87.719298245614,4,1,0,100,0,0
224872,-116.279069767442,4,1,0,100,0,0
224873,-81.9672131147541,4,1,0,100,0,0
224874,-128.205128205129,4,1,0,100,0,0
224875,-76.9230769230769,4,1,0,100,0,0
224876,-142.857142857143,4,1,0,100,0,0
224877,-71.9424460431655,4,1,0,100,0,0
224878,-163.934426229508,4,1,0,100,0,0
224879,-67.5675675675676,4,1,0,100,0,0
224880,-192.307692307692,4,1,0,100,0,0
224881,-63.2911392405063,4,1,0,100,0,0
224882,-238.095238095238,4,1,0,100,0,0
225154,-100,4,1,0,100,0,0
225155,-93.4579439252336,4,1,0,100,0,0
225156,-107.52688172043,4,1,0,100,0,0
225157,-87.719298245614,4,1,0,100,0,0
225158,-116.279069767442,4,1,0,100,0,0
225159,-81.9672131147541,4,1,0,100,0,0
225160,-128.205128205129,4,1,0,100,0,0
225161,-76.9230769230769,4,1,0,100,0,0
225162,-142.857142857143,4,1,0,100,0,0
225163,-71.9424460431655,4,1,0,100,0,0
225164,-163.934426229508,4,1,0,100,0,0
225165,-67.5675675675676,4,1,0,100,0,0
225166,-192.307692307692,4,1,0,100,0,0
225167,-63.2911392405063,4,1,0,100,0,0
225168,-238.095238095238,4,1,0,100,0,0
225440,-100,4,1,0,100,0,0
225441,-93.4579439252336,4,1,0,100,0,0
225442,-107.52688172043,4,1,0,100,0,0
225443,-87.719298245614,4,1,0,100,0,0
225444,-116.279069767442,4,1,0,100,0,0
225445,-81.9672131147541,4,1,0,100,0,0
225446,-128.205128205129,4,1,0,100,0,0
225447,-76.9230769230769,4,1,0,100,0,0
225448,-142.857142857143,4,1,0,100,0,0
225449,-71.9424460431655,4,1,0,100,0,0
225450,-163.934426229508,4,1,0,100,0,0
225451,-67.5675675675676,4,1,0,100,0,0
225452,-192.307692307692,4,1,0,100,0,0
225453,-63.2911392405063,4,1,0,100,0,0
225454,-238.095238095238,4,1,0,100,0,0
225868,-100,4,1,0,100,0,0
225869,-93.4579439252336,4,1,0,100,0,0
225870,-107.52688172043,4,1,0,100,0,0
225871,-87.719298245614,4,1,0,100,0,0
225872,-116.279069767442,4,1,0,100,0,0
225873,-81.9672131147541,4,1,0,100,0,0
225874,-128.205128205129,4,1,0,100,0,0
225875,-76.9230769230769,4,1,0,100,0,0
225876,-142.857142857143,4,1,0,100,0,0
225877,-71.9424460431655,4,1,0,100,0,0
225878,-163.934426229508,4,1,0,100,0,0
225879,-67.5675675675676,4,1,0,100,0,0
225880,-192.307692307692,4,1,0,100,0,0
225881,-63.2911392405063,4,1,0,100,0,0
225882,-238.095238095238,4,1,0,100,0,0
226154,-100,4,1,0,100,0,0
226155,-93.4579439252336,4,1,0,100,0,0
226156,-107.52688172043,4,1,0,100,0,0
226157,-87.719298245614,4,1,0,100,0,0
226158,-116.279069767442,4,1,0,100,0,0
226159,-81.9672131147541,4,1,0,100,0,0
226160,-128.205128205129,4,1,0,100,0,0
226161,-76.9230769230769,4,1,0,100,0,0
226162,-142.857142857143,4,1,0,100,0,0
226163,-71.9424460431655,4,1,0,100,0,0
226164,-163.934426229508,4,1,0,100,0,0
226165,-67.5675675675676,4,1,0,100,0,0
226166,-192.307692307692,4,1,0,100,0,0
226167,-63.2911392405063,4,1,0,100,0,0
226168,-238.095238095238,4,1,0,100,0,0
226440,-100,4,1,0,100,0,0
226441,-93.4579439252336,4,1,0,100,0,0
226442,-107.52688172043,4,1,0,100,0,0
226443,-87.719298245614,4,1,0,100,0,0
226444,-116.279069767442,4,1,0,100,0,0
226445,-81.9672131147541,4,1,0,100,0,0
226446,-128.205128205129,4,1,0,100,0,0
226447,-76.9230769230769,4,1,0,100,0,0
226448,-142.857142857143,4,1,0,100,0,0
226449,-71.9424460431655,4,1,0,100,0,0
226450,-163.934426229508,4,1,0,100,0,0
226451,-67.5675675675676,4,1,0,100,0,0
226452,-192.307692307692,4,1,0,100,0,0
226453,-63.2911392405063,4,1,0,100,0,0
226454,-238.095238095238,4,1,0,100,0,0
226724,-90.9090909090909,4,1,0,100,0,1
226796,-81.9672131147541,4,1,0,100,0,1
226867,-76.3358778625954,4,1,0,100,0,1
226939,-72.992700729927,4,1,0,100,0,1
227010,-71.4285714285714,4,1,0,100,0,1
227081,-72.992700729927,4,1,0,100,0,1
227153,-76.3358778625954,4,1,0,100,0,1
227224,-81.9672131147541,4,1,0,100,0,1
227296,-90.9090909090909,4,1,0,100,0,1
227367,-102.040816326531,4,1,0,100,0,1
227439,-112.359550561798,4,1,0,100,0,1
227510,-120.481927710843,4,1,0,100,0,1
227581,-125,4,1,0,100,0,1
227653,-120.481927710843,4,1,0,100,0,1
227724,-112.359550561798,4,1,0,100,0,1
227796,-102.040816326531,4,1,0,100,0,1
227864,-90.9090909090909,4,1,0,100,0,1
229298,1142.85714285714,4,1,0,100,1,9
229298,-25,4,1,0,100,0,1
229299,-21.978021978022,4,1,0,100,0,1
229369,1142.85714285714,4,1,0,100,1,9
229369,-25,4,1,0,100,0,1
229370,-21.978021978022,4,1,0,100,0,1
229441,1142.85714285714,4,1,0,100,1,9
229441,-25,4,1,0,100,0,1
229442,-21.978021978022,4,1,0,100,0,1
229512,1142.85714285714,4,1,0,100,1,9
229512,-25,4,1,0,100,0,1
229513,-21.978021978022,4,1,0,100,0,1
229583,1142.85714285714,4,1,0,100,1,9
229583,-25,4,1,0,100,0,1
229584,-21.978021978022,4,1,0,100,0,1
229655,1142.85714285714,4,1,0,100,1,9
229655,-25,4,1,0,100,0,1
229656,-21.978021978022,4,1,0,100,0,1
229726,1142.85714285714,4,1,0,100,1,9
229726,-25,4,1,0,100,0,1
229727,-21.978021978022,4,1,0,100,0,1
229798,1142.85714285714,4,1,0,100,1,9
229798,-25,4,1,0,100,0,1
229799,-21.978021978022,4,1,0,100,0,1
229869,1142.85714285714,4,1,0,100,1,9
229869,-25,4,1,0,100,0,1
229870,-21.978021978022,4,1,0,100,0,1
229941,1142.85714285714,4,1,0,100,1,9
229941,-25,4,1,0,100,0,1
229942,-21.978021978022,4,1,0,100,0,1
230012,1142.85714285714,4,1,0,100,1,9
230012,-25,4,1,0,100,0,1
230013,-21.978021978022,4,1,0,100,0,1
230083,1142.85714285714,4,1,0,100,1,9
230083,-25,4,1,0,100,0,1
230084,-21.978021978022,4,1,0,100,0,1
230155,1142.85714285714,4,1,0,100,1,9
230155,-25,4,1,0,100,0,1
230156,-21.978021978022,4,1,0,100,0,1
230226,1142.85714285714,4,1,0,100,1,9
230226,-25,4,1,0,100,0,1
230227,-21.978021978022,4,1,0,100,0,1
230298,1142.85714285714,4,1,0,100,1,9
230298,-25,4,1,0,100,0,1
230299,-21.978021978022,4,1,0,100,0,1
230369,1142.85714285714,4,1,0,100,1,9
230369,-25,4,1,0,100,0,1
230370,-21.978021978022,4,1,0,100,0,1
230441,1142.85714285714,4,1,0,100,1,9
230441,-25,4,1,0,100,0,1
230442,-21.978021978022,4,1,0,100,0,1
230512,1142.85714285714,4,1,0,100,1,9
230512,-25,4,1,0,100,0,1
230513,-21.978021978022,4,1,0,100,0,1
230583,1142.85714285714,4,1,0,100,1,9
230583,-25,4,1,0,100,0,1
230584,-21.978021978022,4,1,0,100,0,1
230655,1142.85714285714,4,1,0,100,1,9
230655,-25,4,1,0,100,0,1
230656,-21.978021978022,4,1,0,100,0,1
230726,1142.85714285714,4,1,0,100,1,9
230726,-25,4,1,0,100,0,1
230727,-21.978021978022,4,1,0,100,0,1
230798,1142.85714285714,4,1,0,100,1,9
230798,-25,4,1,0,100,0,1
230799,-21.978021978022,4,1,0,100,0,1
230869,1142.85714285714,4,1,0,100,1,9
230869,-25,4,1,0,100,0,1
230870,-21.978021978022,4,1,0,100,0,1
230941,1142.85714285714,4,1,0,100,1,9
230941,-25,4,1,0,100,0,1
230942,-21.978021978022,4,1,0,100,0,1
231012,1142.85714285714,4,1,0,100,1,9
231012,-25,4,1,0,100,0,1
231013,-21.978021978022,4,1,0,100,0,1
231083,1142.85714285714,4,1,0,100,1,9
231083,-25,4,1,0,100,0,1
231084,-21.978021978022,4,1,0,100,0,1
231155,1142.85714285714,4,1,0,100,1,9
231155,-25,4,1,0,100,0,1
231156,-21.978021978022,4,1,0,100,0,1
231224,1142.85714285714,4,1,0,100,1,9
231224,-25,4,1,0,100,0,1
231225,-21.978021978022,4,1,0,100,0,1
231298,285.714285714286,4,1,0,100,1,9
231298,-66.6666666666667,4,1,0,100,0,9
232369,-66.6666666666667,4,1,0,100,0,0
233083,-40,4,1,0,100,0,0
233512,-100,4,1,0,100,0,0
233583,-100,4,1,0,100,0,0
233584,-93.4579439252336,4,1,0,100,0,0
233585,-107.52688172043,4,1,0,100,0,0
233586,-87.719298245614,4,1,0,100,0,0
233587,-116.279069767442,4,1,0,100,0,0
233588,-81.9672131147541,4,1,0,100,0,0
233589,-128.205128205129,4,1,0,100,0,0
233590,-76.9230769230769,4,1,0,100,0,0
233591,-142.857142857143,4,1,0,100,0,0
233592,-71.9424460431655,4,1,0,100,0,0
233593,-163.934426229508,4,1,0,100,0,0
233594,-67.5675675675676,4,1,0,100,0,0
233595,-192.307692307692,4,1,0,100,0,0
233596,-63.2911392405063,4,1,0,100,0,0
233597,-238.095238095238,4,1,0,100,0,0
234012,-100,4,1,0,100,0,0
234013,-93.4579439252336,4,1,0,100,0,0
234014,-107.52688172043,4,1,0,100,0,0
234015,-87.719298245614,4,1,0,100,0,0
234016,-116.279069767442,4,1,0,100,0,0
234017,-81.9672131147541,4,1,0,100,0,0
234018,-128.205128205129,4,1,0,100,0,0
234019,-76.9230769230769,4,1,0,100,0,0
234020,-142.857142857143,4,1,0,100,0,0
234021,-71.9424460431655,4,1,0,100,0,0
234022,-163.934426229508,4,1,0,100,0,0
234023,-67.5675675675676,4,1,0,100,0,0
234024,-192.307692307692,4,1,0,100,0,0
234025,-63.2911392405063,4,1,0,100,0,0
234026,-238.095238095238,4,1,0,100,0,0
234298,-100,4,1,0,100,0,0
234299,-93.4579439252336,4,1,0,100,0,0
234300,-107.52688172043,4,1,0,100,0,0
234301,-87.719298245614,4,1,0,100,0,0
234302,-116.279069767442,4,1,0,100,0,0
234303,-81.9672131147541,4,1,0,100,0,0
234304,-128.205128205129,4,1,0,100,0,0
234305,-76.9230769230769,4,1,0,100,0,0
234306,-142.857142857143,4,1,0,100,0,0
234307,-71.9424460431655,4,1,0,100,0,0
234308,-163.934426229508,4,1,0,100,0,0
234309,-67.5675675675676,4,1,0,100,0,0
234310,-192.307692307692,4,1,0,100,0,0
234311,-63.2911392405063,4,1,0,100,0,0
234312,-238.095238095238,4,1,0,100,0,0
234583,-100,4,1,0,100,0,0
234584,-93.4579439252336,4,1,0,100,0,0
234585,-107.52688172043,4,1,0,100,0,0
234586,-87.719298245614,4,1,0,100,0,0
234587,-116.279069767442,4,1,0,100,0,0
234588,-81.9672131147541,4,1,0,100,0,0
234589,-128.205128205129,4,1,0,100,0,0
234590,-76.9230769230769,4,1,0,100,0,0
234591,-142.857142857143,4,1,0,100,0,0
234592,-71.9424460431655,4,1,0,100,0,0
234593,-163.934426229508,4,1,0,100,0,0
234594,-67.5675675675676,4,1,0,100,0,0
234595,-192.307692307692,4,1,0,100,0,0
234596,-63.2911392405063,4,1,0,100,0,0
234597,-238.095238095238,4,1,0,100,0,0
235012,-100,4,1,0,100,0,0
235013,-93.4579439252336,4,1,0,100,0,0
235014,-107.52688172043,4,1,0,100,0,0
235015,-87.719298245614,4,1,0,100,0,0
235016,-116.279069767442,4,1,0,100,0,0
235017,-81.9672131147541,4,1,0,100,0,0
235018,-128.205128205129,4,1,0,100,0,0
235019,-76.9230769230769,4,1,0,100,0,0
235020,-142.857142857143,4,1,0,100,0,0
235021,-71.9424460431655,4,1,0,100,0,0
235022,-163.934426229508,4,1,0,100,0,0
235023,-67.5675675675676,4,1,0,100,0,0
235024,-192.307692307692,4,1,0,100,0,0
235025,-63.2911392405063,4,1,0,100,0,0
235026,-238.095238095238,4,1,0,100,0,0
235298,-100,4,1,0,100,0,0
235299,-93.4579439252336,4,1,0,100,0,0
235300,-107.52688172043,4,1,0,100,0,0
235301,-87.719298245614,4,1,0,100,0,0
235302,-116.279069767442,4,1,0,100,0,0
235303,-81.9672131147541,4,1,0,100,0,0
235304,-128.205128205129,4,1,0,100,0,0
235305,-76.9230769230769,4,1,0,100,0,0
235306,-142.857142857143,4,1,0,100,0,0
235307,-71.9424460431655,4,1,0,100,0,0
235308,-163.934426229508,4,1,0,100,0,0
235309,-67.5675675675676,4,1,0,100,0,0
235310,-192.307692307692,4,1,0,100,0,0
235311,-63.2911392405063,4,1,0,100,0,0
235312,-238.095238095238,4,1,0,100,0,0
235583,-100,4,1,0,100,0,0
235584,-93.4579439252336,4,1,0,100,0,0
235585,-107.52688172043,4,1,0,100,0,0
235586,-87.719298245614,4,1,0,100,0,0
235587,-116.279069767442,4,1,0,100,0,0
235588,-81.9672131147541,4,1,0,100,0,0
235589,-128.205128205129,4,1,0,100,0,0
235590,-76.9230769230769,4,1,0,100,0,0
235591,-142.857142857143,4,1,0,100,0,0
235592,-71.9424460431655,4,1,0,100,0,0
235593,-163.934426229508,4,1,0,100,0,0
235594,-67.5675675675676,4,1,0,100,0,0
235595,-192.307692307692,4,1,0,100,0,0
235596,-63.2911392405063,4,1,0,100,0,0
235597,-238.095238095238,4,1,0,100,0,0
235868,-90.9090909090909,4,1,0,100,0,1
235940,-81.9672131147541,4,1,0,100,0,1
236011,-76.3358778625954,4,1,0,100,0,1
236083,-72.992700729927,4,1,0,100,0,1
236154,-71.4285714285714,4,1,0,100,0,1
236225,-72.992700729927,4,1,0,100,0,1
236297,-76.3358778625954,4,1,0,100,0,1
236368,-81.9672131147541,4,1,0,100,0,1
236440,-90.9090909090909,4,1,0,100,0,1
236511,-102.040816326531,4,1,0,100,0,1
236583,-112.359550561798,4,1,0,100,0,1
236654,-120.481927710843,4,1,0,100,0,1
236725,-125,4,1,0,100,0,1
236797,-120.481927710843,4,1,0,100,0,1
236868,-112.359550561798,4,1,0,100,0,1
236940,-102.040816326531,4,1,0,100,0,1
237008,-90.9090909090909,4,1,0,100,0,1
238155,1142.85714285714,4,1,0,100,1,9
238155,-25,4,1,0,100,0,1
238156,-21.978021978022,4,1,0,100,0,1
238226,1142.85714285714,4,1,0,100,1,9
238226,-25,4,1,0,100,0,1
238227,-21.978021978022,4,1,0,100,0,1
238298,1142.85714285714,4,1,0,100,1,9
238298,-25,4,1,0,100,0,1
238299,-21.978021978022,4,1,0,100,0,1
238369,1142.85714285714,4,1,0,100,1,9
238369,-25,4,1,0,100,0,1
238370,-21.978021978022,4,1,0,100,0,1
238440,1142.85714285714,4,1,0,100,1,9
238440,-25,4,1,0,100,0,1
238441,-21.978021978022,4,1,0,100,0,1
238512,1142.85714285714,4,1,0,100,1,9
238512,-25,4,1,0,100,0,1
238513,-21.978021978022,4,1,0,100,0,1
238583,1142.85714285714,4,1,0,100,1,9
238583,-25,4,1,0,100,0,1
238584,-21.978021978022,4,1,0,100,0,1
238655,1142.85714285714,4,1,0,100,1,9
238655,-25,4,1,0,100,0,1
238656,-21.978021978022,4,1,0,100,0,1
238726,1142.85714285714,4,1,0,100,1,9
238726,-25,4,1,0,100,0,1
238727,-21.978021978022,4,1,0,100,0,1
238798,1142.85714285714,4,1,0,100,1,9
238798,-25,4,1,0,100,0,1
238799,-21.978021978022,4,1,0,100,0,1
238869,1142.85714285714,4,1,0,100,1,9
238869,-25,4,1,0,100,0,1
238870,-21.978021978022,4,1,0,100,0,1
238940,1142.85714285714,4,1,0,100,1,9
238940,-25,4,1,0,100,0,1
238941,-21.978021978022,4,1,0,100,0,1
239012,1142.85714285714,4,1,0,100,1,9
239012,-25,4,1,0,100,0,1
239013,-21.978021978022,4,1,0,100,0,1
239083,1142.85714285714,4,1,0,100,1,9
239083,-25,4,1,0,100,0,1
239084,-21.978021978022,4,1,0,100,0,1
239155,1142.85714285714,4,1,0,100,1,9
239155,-25,4,1,0,100,0,1
239156,-21.978021978022,4,1,0,100,0,1
239226,1142.85714285714,4,1,0,100,1,9
239226,-25,4,1,0,100,0,1
239227,-21.978021978022,4,1,0,100,0,1
239298,1142.85714285714,4,1,0,100,1,9
239298,-25,4,1,0,100,0,1
239299,-21.978021978022,4,1,0,100,0,1
239369,1142.85714285714,4,1,0,100,1,9
239369,-25,4,1,0,100,0,1
239370,-21.978021978022,4,1,0,100,0,1
239440,1142.85714285714,4,1,0,100,1,9
239440,-25,4,1,0,100,0,1
239441,-21.978021978022,4,1,0,100,0,1
239512,1142.85714285714,4,1,0,100,1,9
239512,-25,4,1,0,100,0,1
239513,-21.978021978022,4,1,0,100,0,1
239583,1142.85714285714,4,1,0,100,1,9
239583,-25,4,1,0,100,0,1
239584,-21.978021978022,4,1,0,100,0,1
239655,1142.85714285714,4,1,0,100,1,9
239655,-25,4,1,0,100,0,1
239656,-21.978021978022,4,1,0,100,0,1
239726,1142.85714285714,4,1,0,100,1,9
239726,-25,4,1,0,100,0,1
239727,-21.978021978022,4,1,0,100,0,1
239798,1142.85714285714,4,1,0,100,1,9
239798,-25,4,1,0,100,0,1
239799,-21.978021978022,4,1,0,100,0,1
239869,1142.85714285714,4,1,0,100,1,9
239869,-25,4,1,0,100,0,1
239870,-21.978021978022,4,1,0,100,0,1
239940,1142.85714285714,4,1,0,100,1,9
239940,-25,4,1,0,100,0,1
239941,-21.978021978022,4,1,0,100,0,1
240012,1142.85714285714,4,1,0,100,1,9
240012,-25,4,1,0,100,0,1
240013,-21.978021978022,4,1,0,100,0,1
240083,1142.85714285714,4,1,0,100,1,9
240083,-25,4,1,0,100,0,1
240084,-21.978021978022,4,1,0,100,0,1
240155,1142.85714285714,4,1,0,100,1,9
240155,-25,4,1,0,100,0,1
240156,-21.978021978022,4,1,0,100,0,1
240226,1142.85714285714,4,1,0,100,1,9
240226,-25,4,1,0,100,0,1
240227,-21.978021978022,4,1,0,100,0,1
240298,1142.85714285714,4,1,0,100,1,9
240298,-25,4,1,0,100,0,1
240299,-21.978021978022,4,1,0,100,0,1
240369,1142.85714285714,4,1,0,100,1,9
240369,-25,4,1,0,100,0,1
240370,-21.978021978022,4,1,0,100,0,1
240443,285.714285714286,4,1,0,100,1,9
240443,-66.6666666666667,4,1,0,100,0,9
241889,-1E-08,4,1,0,100,0,0
242014,-66.6666666666667,4,1,0,100,0,0
242032,-1E-08,4,1,0,100,0,0
242300,-45.4545454545455,4,1,0,100,0,0
242460,-1E-08,4,1,0,100,0,0
242585,-1E-08,4,1,0,100,0,0
242728,1142.85714285714,4,1,0,100,1,1
242728,-33.3333333333333,4,1,0,100,0,1
249584,-33.3333333333333,4,1,0,100,0,1
249590,-99999999999,4,1,0,100,0,1
249655,-33.3333333333333,4,1,0,100,0,1
250155,-33.3333333333333,4,1,0,100,0,1
250161,-99999999999,4,1,0,100,0,1
250226,-33.3333333333333,4,1,0,100,0,1
250727,-33.3333333333333,4,1,0,100,0,1
250733,-99999999999,4,1,0,100,0,1
250798,-33.3333333333333,4,1,0,100,0,1
251298,-33.3333333333333,4,1,0,100,0,1
251304,-99999999999,4,1,0,100,0,1
251369,-33.3333333333333,4,1,0,100,0,1
251869,-33.3333333333333,4,1,0,100,0,1
251875,-99999999999,4,1,0,100,0,1
251940,-33.3333333333333,4,1,0,100,0,1
252441,-33.3333333333333,4,1,0,100,0,1
252447,-99999999999,4,1,0,100,0,1
252512,-33.3333333333333,4,1,0,100,0,1
253012,-33.3333333333333,4,1,0,100,0,1
253018,-99999999999,4,1,0,100,0,1
253083,-33.3333333333333,4,1,0,100,0,1
253584,-33.3333333333333,4,1,0,100,0,1
253590,-99999999999,4,1,0,100,0,1
253655,-33.3333333333333,4,1,0,100,0,1
254155,-33.3333333333333,4,1,0,100,0,1
254161,-99999999999,4,1,0,100,0,1
254226,-33.3333333333333,4,1,0,100,0,1
254727,-33.3333333333333,4,1,0,100,0,1
254733,-99999999999,4,1,0,100,0,1
254798,-33.3333333333333,4,1,0,100,0,1
255298,-33.3333333333333,4,1,0,100,0,1
255304,-99999999999,4,1,0,100,0,1
255369,-33.3333333333333,4,1,0,100,0,1
255869,-33.3333333333333,4,1,0,100,0,1
255875,-99999999999,4,1,0,100,0,1
255940,-33.3333333333333,4,1,0,100,0,1
256441,-33.3333333333333,4,1,0,100,0,1
256447,-99999999999,4,1,0,100,0,1
256512,-33.3333333333333,4,1,0,100,0,1
257012,-33.3333333333333,4,1,0,100,0,1
257018,-99999999999,4,1,0,100,0,1
257083,-33.3333333333333,4,1,0,100,0,1
257584,-33.3333333333333,4,1,0,100,0,1
257590,-99999999999,4,1,0,100,0,1
257656,-33.3333333333333,4,1,0,100,0,0
258680,-16.6666666666667,4,1,0,100,0,0
258728,285.714285714286,4,1,0,100,1,8
258728,-66.6666666666667,4,1,0,100,0,8
261317,1.54,1,1,0,100,1,0
261317,-1E+50,1,1,0,100,0,0
262156,285.714285714286,4,1,0,100,1,8
262156,-142.857142857143,4,1,0,100,0,0
262228,-76.9230769230769,4,1,0,100,0,0
262300,-125,4,1,0,100,0,0
262371,-83.3333333333333,4,1,0,100,0,0
262443,-111.111111111111,4,1,0,100,0,0
262514,-90.9090909090909,4,1,0,100,0,0
262585,-100,4,1,0,100,0,0
262657,-90.9090909090909,4,1,0,100,0,0
262728,-111.111111111111,4,1,0,100,0,0
262800,-83.3333333333333,4,1,0,100,0,0
262871,-125,4,1,0,100,0,0
262943,-76.9230769230769,4,1,0,100,0,0
263014,-62.5,4,1,0,100,0,0
263299,571.428571428571,4,1,0,100,1,9
263299,-58.8235294117647,4,1,0,100,0,8
263300,-55.5555555555556,4,1,0,100,0,9
263301,-62.5,4,1,0,100,0,9
263370,-56.1797752808989,4,1,0,100,0,8
263371,-53.1914893617021,4,1,0,100,0,9
263372,-59.5238095238095,4,1,0,100,0,9
263441,-53.763440860215,4,1,0,100,0,8
263442,-51.0204081632653,4,1,0,100,0,9
263443,-56.8181818181818,4,1,0,100,0,9
263513,-51.8134715025907,4,1,0,100,0,8
263514,-49.2610837438424,4,1,0,100,0,9
263515,-54.6448087431694,4,1,0,100,0,9
263584,571.428571428571,4,1,0,100,1,9
263584,-50,4,1,0,100,0,9
263585,-47.6190476190476,4,1,0,100,0,9
263586,-52.6315789473684,4,1,0,100,0,9
263656,-48.5436893203883,4,1,0,100,0,9
263657,-46.2962962962963,4,1,0,100,0,9
263658,-51.0204081632653,4,1,0,100,0,9
263727,-47.1698113207547,4,1,0,100,0,9
263728,-45.045045045045,4,1,0,100,0,9
263729,-49.5049504950495,4,1,0,100,0,9
263799,-46.0829493087558,4,1,0,100,0,9
263800,-44.0528634361233,4,1,0,100,0,9
263801,-48.3091787439614,4,1,0,100,0,9
263870,-45.045045045045,4,1,0,100,0,9
263871,-43.1034482758621,4,1,0,100,0,9
263872,-47.1698113207547,4,1,0,100,0,9
263941,-44.2477876106195,4,1,0,100,0,9
263942,-42.3728813559322,4,1,0,100,0,9
263943,-46.2962962962963,4,1,0,100,0,9
264013,-43.4782608695652,4,1,0,100,0,9
264014,-41.6666666666667,4,1,0,100,0,9
264015,-45.4545454545455,4,1,0,100,0,9
264084,-42.9184549356223,4,1,0,100,0,9
264085,-41.1522633744856,4,1,0,100,0,9
264086,-44.8430493273543,4,1,0,100,0,9
264156,-42.3728813559322,4,1,0,100,0,9
264157,-40.650406504065,4,1,0,100,0,9
264158,-44.2477876106195,4,1,0,100,0,9
264227,-42.0168067226891,4,1,0,100,0,9
264228,-40.3225806451613,4,1,0,100,0,9
264229,-43.859649122807,4,1,0,100,0,9
264299,-41.6666666666667,4,1,0,100,0,9
264300,-40,4,1,0,100,0,9
264301,-43.4782608695652,4,1,0,100,0,9
264370,-41.49377593361,4,1,0,100,0,9
264371,-39.8406374501992,4,1,0,100,0,9
264372,-43.2900432900433,4,1,0,100,0,9
264441,-41.3223140495868,4,1,0,100,0,9
264442,-39.6825396825397,4,1,0,100,0,9
264443,-43.1034482758621,4,1,0,100,0,9
264513,-41.49377593361,4,1,0,100,0,9
264514,-39.8406374501992,4,1,0,100,0,9
264515,-43.2900432900433,4,1,0,100,0,9
264584,-41.6666666666667,4,1,0,100,0,9
264585,-40,4,1,0,100,0,9
264586,-43.4782608695652,4,1,0,100,0,9
264656,-42.0168067226891,4,1,0,100,0,9
264657,-40.3225806451613,4,1,0,100,0,9
264658,-43.859649122807,4,1,0,100,0,9
264727,-42.3728813559322,4,1,0,100,0,9
264728,-40.650406504065,4,1,0,100,0,9
264729,-44.2477876106195,4,1,0,100,0,9
264799,-42.9184549356223,4,1,0,100,0,9
264800,-41.1522633744856,4,1,0,100,0,9
264801,-44.8430493273543,4,1,0,100,0,9
264870,-43.4782608695652,4,1,0,100,0,9
264871,-41.6666666666667,4,1,0,100,0,9
264872,-45.4545454545455,4,1,0,100,0,9
264941,-44.2477876106195,4,1,0,100,0,9
264942,-42.3728813559322,4,1,0,100,0,9
264943,-46.2962962962963,4,1,0,100,0,9
265013,-45.045045045045,4,1,0,100,0,9
265014,-43.1034482758621,4,1,0,100,0,9
265015,-47.1698113207547,4,1,0,100,0,9
265084,-46.0829493087558,4,1,0,100,0,9
265085,-44.0528634361233,4,1,0,100,0,9
265086,-48.3091787439614,4,1,0,100,0,9
265156,-47.1698113207547,4,1,0,100,0,9
265157,-45.045045045045,4,1,0,100,0,9
265158,-49.5049504950495,4,1,0,100,0,9
265227,-48.5436893203883,4,1,0,100,0,9
265228,-46.2962962962963,4,1,0,100,0,9
265229,-51.0204081632653,4,1,0,100,0,9
265299,-50,4,1,0,100,0,9
265300,-47.6190476190476,4,1,0,100,0,9
265301,-52.6315789473684,4,1,0,100,0,9
265370,-51.8134715025907,4,1,0,100,0,9
265371,-49.2610837438424,4,1,0,100,0,9
265372,-54.6448087431694,4,1,0,100,0,9
265441,-53.763440860215,4,1,0,100,0,9
265442,-51.0204081632653,4,1,0,100,0,9
265443,-56.8181818181818,4,1,0,100,0,9
265513,-56.1797752808989,4,1,0,100,0,9
265514,-53.1914893617021,4,1,0,100,0,9
265515,-59.5238095238095,4,1,0,100,0,9
265584,-58.8235294117647,4,1,0,100,0,9
265585,-55.5555555555556,4,1,0,100,0,9
265586,-62.5,4,1,0,100,0,9
265655,-56.1797752808989,4,1,0,100,0,9
265656,-53.1914893617021,4,1,0,100,0,9
265657,-59.5238095238095,4,1,0,100,0,9
265726,-53.763440860215,4,1,0,100,0,9
265727,-51.0204081632653,4,1,0,100,0,9
265728,-56.8181818181818,4,1,0,100,0,9
265798,-51.8134715025907,4,1,0,100,0,9
265799,-49.2610837438424,4,1,0,100,0,9
265800,-54.6448087431694,4,1,0,100,0,9
265869,-50,4,1,0,100,0,9
265870,-47.6190476190476,4,1,0,100,0,9
265871,-52.6315789473684,4,1,0,100,0,9
265941,-48.5436893203883,4,1,0,100,0,9
265942,-46.2962962962963,4,1,0,100,0,9
265943,-51.0204081632653,4,1,0,100,0,9
266012,-47.1698113207547,4,1,0,100,0,9
266013,-45.045045045045,4,1,0,100,0,9
266014,-49.5049504950495,4,1,0,100,0,9
266084,-46.0829493087558,4,1,0,100,0,9
266085,-44.0528634361233,4,1,0,100,0,9
266086,-48.3091787439614,4,1,0,100,0,9
266155,-45.045045045045,4,1,0,100,0,9
266156,-43.1034482758621,4,1,0,100,0,9
266157,-47.1698113207547,4,1,0,100,0,9
266226,-44.2477876106195,4,1,0,100,0,9
266227,-42.3728813559322,4,1,0,100,0,9
266228,-46.2962962962963,4,1,0,100,0,9
266298,-43.4782608695652,4,1,0,100,0,9
266299,-41.6666666666667,4,1,0,100,0,9
266300,-45.4545454545455,4,1,0,100,0,9
266369,-42.9184549356223,4,1,0,100,0,9
266370,-41.1522633744856,4,1,0,100,0,9
266371,-44.8430493273543,4,1,0,100,0,9
266441,-42.3728813559322,4,1,0,100,0,9
266442,-40.650406504065,4,1,0,100,0,9
266443,-44.2477876106195,4,1,0,100,0,9
266512,-42.0168067226891,4,1,0,100,0,9
266513,-40.3225806451613,4,1,0,100,0,9
266514,-43.859649122807,4,1,0,100,0,9
266584,-41.6666666666667,4,1,0,100,0,9
266585,-40,4,1,0,100,0,9
266586,-43.4782608695652,4,1,0,100,0,9
266655,-41.49377593361,4,1,0,100,0,9
266656,-39.8406374501992,4,1,0,100,0,9
266657,-43.2900432900433,4,1,0,100,0,9
266726,-41.3223140495868,4,1,0,100,0,9
266727,-39.6825396825397,4,1,0,100,0,9
266728,-43.1034482758621,4,1,0,100,0,9
266798,-41.49377593361,4,1,0,100,0,9
266799,-39.8406374501992,4,1,0,100,0,9
266800,-43.2900432900433,4,1,0,100,0,9
266869,-41.6666666666667,4,1,0,100,0,9
266870,-40,4,1,0,100,0,9
266871,-43.4782608695652,4,1,0,100,0,9
266941,-42.0168067226891,4,1,0,100,0,9
266942,-40.3225806451613,4,1,0,100,0,9
266943,-43.859649122807,4,1,0,100,0,9
267012,-42.3728813559322,4,1,0,100,0,9
267013,-40.650406504065,4,1,0,100,0,9
267014,-44.2477876106195,4,1,0,100,0,9
267084,-42.9184549356223,4,1,0,100,0,9
267085,-41.1522633744856,4,1,0,100,0,9
267086,-44.8430493273543,4,1,0,100,0,9
267155,-43.4782608695652,4,1,0,100,0,9
267156,-41.6666666666667,4,1,0,100,0,9
267157,-45.4545454545455,4,1,0,100,0,9
267226,-44.2477876106195,4,1,0,100,0,9
267227,-42.3728813559322,4,1,0,100,0,9
267228,-46.2962962962963,4,1,0,100,0,9
267298,-45.045045045045,4,1,0,100,0,9
267299,-43.1034482758621,4,1,0,100,0,9
267300,-47.1698113207547,4,1,0,100,0,9
267369,-46.0829493087558,4,1,0,100,0,9
267370,-44.0528634361233,4,1,0,100,0,9
267371,-48.3091787439614,4,1,0,100,0,9
267441,-47.1698113207547,4,1,0,100,0,9
267442,-45.045045045045,4,1,0,100,0,9
267443,-49.5049504950495,4,1,0,100,0,9
267512,-48.5436893203883,4,1,0,100,0,9
267513,-46.2962962962963,4,1,0,100,0,9
267514,-51.0204081632653,4,1,0,100,0,9
267584,-50,4,1,0,100,0,9
267585,-47.6190476190476,4,1,0,100,0,9
267586,-52.6315789473684,4,1,0,100,0,9
267655,-51.8134715025907,4,1,0,100,0,9
267656,-49.2610837438424,4,1,0,100,0,9
267657,-54.6448087431694,4,1,0,100,0,9
267726,-53.763440860215,4,1,0,100,0,9
267727,-51.0204081632653,4,1,0,100,0,9
267728,-56.8181818181818,4,1,0,100,0,9
267798,-56.1797752808989,4,1,0,100,0,9
267799,-53.1914893617021,4,1,0,100,0,9
267800,-59.5238095238095,4,1,0,100,0,9
267870,-58.8235294117647,4,1,0,100,0,9
267871,-55.5555555555556,4,1,0,100,0,9
267872,-62.5,4,1,0,100,0,9
267941,-56.1797752808989,4,1,0,100,0,9
267942,-53.1914893617021,4,1,0,100,0,9
267943,-59.5238095238095,4,1,0,100,0,9
268012,-53.763440860215,4,1,0,100,0,9
268013,-51.0204081632653,4,1,0,100,0,9
268014,-56.8181818181818,4,1,0,100,0,9
268084,-51.8134715025907,4,1,0,100,0,9
268085,-49.2610837438424,4,1,0,100,0,9
268086,-54.6448087431694,4,1,0,100,0,9
268155,-50,4,1,0,100,0,9
268156,-47.6190476190476,4,1,0,100,0,9
268157,-52.6315789473684,4,1,0,100,0,9
268227,-48.5436893203883,4,1,0,100,0,9
268228,-46.2962962962963,4,1,0,100,0,9
268229,-51.0204081632653,4,1,0,100,0,9
268298,-47.1698113207547,4,1,0,100,0,9
268299,-45.045045045045,4,1,0,100,0,9
268300,-49.5049504950495,4,1,0,100,0,9
268370,-46.0829493087558,4,1,0,100,0,9
268371,-44.0528634361233,4,1,0,100,0,9
268372,-48.3091787439614,4,1,0,100,0,9
268441,-45.045045045045,4,1,0,100,0,9
268442,-43.1034482758621,4,1,0,100,0,9
268443,-47.1698113207547,4,1,0,100,0,9
268512,-44.2477876106195,4,1,0,100,0,9
268513,-42.3728813559322,4,1,0,100,0,9
268514,-46.2962962962963,4,1,0,100,0,9
268584,-43.4782608695652,4,1,0,100,0,9
268585,-41.6666666666667,4,1,0,100,0,9
268586,-45.4545454545455,4,1,0,100,0,9
268655,-42.9184549356223,4,1,0,100,0,9
268656,-41.1522633744856,4,1,0,100,0,9
268657,-44.8430493273543,4,1,0,100,0,9
268727,-42.3728813559322,4,1,0,100,0,9
268728,-40.650406504065,4,1,0,100,0,9
268729,-44.2477876106195,4,1,0,100,0,9
268798,-42.0168067226891,4,1,0,100,0,9
268799,-40.3225806451613,4,1,0,100,0,9
268800,-43.859649122807,4,1,0,100,0,9
268870,-41.6666666666667,4,1,0,100,0,9
268871,-40,4,1,0,100,0,9
268872,-43.4782608695652,4,1,0,100,0,9
268941,-41.49377593361,4,1,0,100,0,9
268942,-39.8406374501992,4,1,0,100,0,9
268943,-43.2900432900433,4,1,0,100,0,9
269012,-41.3223140495868,4,1,0,100,0,9
269013,-39.6825396825397,4,1,0,100,0,9
269014,-43.1034482758621,4,1,0,100,0,9
269084,-41.49377593361,4,1,0,100,0,9
269085,-39.8406374501992,4,1,0,100,0,9
269086,-43.2900432900433,4,1,0,100,0,9
269155,-41.6666666666667,4,1,0,100,0,9
269156,-40,4,1,0,100,0,9
269157,-43.4782608695652,4,1,0,100,0,9
269227,-42.0168067226891,4,1,0,100,0,9
269228,-40.3225806451613,4,1,0,100,0,9
269229,-43.859649122807,4,1,0,100,0,9
269298,-42.3728813559322,4,1,0,100,0,9
269299,-40.650406504065,4,1,0,100,0,9
269300,-44.2477876106195,4,1,0,100,0,9
269370,-42.9184549356223,4,1,0,100,0,9
269371,-41.1522633744856,4,1,0,100,0,9
269372,-44.8430493273543,4,1,0,100,0,9
269441,-43.4782608695652,4,1,0,100,0,9
269442,-41.6666666666667,4,1,0,100,0,9
269443,-45.4545454545455,4,1,0,100,0,9
269512,-44.2477876106195,4,1,0,100,0,9
269513,-42.3728813559322,4,1,0,100,0,9
269514,-46.2962962962963,4,1,0,100,0,9
269584,-45.045045045045,4,1,0,100,0,9
269585,-43.1034482758621,4,1,0,100,0,9
269586,-47.1698113207547,4,1,0,100,0,9
269655,-46.0829493087558,4,1,0,100,0,9
269656,-44.0528634361233,4,1,0,100,0,9
269657,-48.3091787439614,4,1,0,100,0,9
269727,-47.1698113207547,4,1,0,100,0,9
269728,-45.045045045045,4,1,0,100,0,9
269729,-49.5049504950495,4,1,0,100,0,9
269798,-48.5436893203883,4,1,0,100,0,9
269799,-46.2962962962963,4,1,0,100,0,9
269800,-51.0204081632653,4,1,0,100,0,9
269870,-50,4,1,0,100,0,9
269871,-47.6190476190476,4,1,0,100,0,9
269872,-52.6315789473684,4,1,0,100,0,9
269941,-51.8134715025907,4,1,0,100,0,9
269942,-49.2610837438424,4,1,0,100,0,9
269943,-54.6448087431694,4,1,0,100,0,9
270012,-53.763440860215,4,1,0,100,0,9
270013,-51.0204081632653,4,1,0,100,0,9
270014,-56.8181818181818,4,1,0,100,0,9
270084,-56.1797752808989,4,1,0,100,0,9
270085,-53.1914893617021,4,1,0,100,0,9
270086,-59.5238095238095,4,1,0,100,0,9
270156,-58.8235294117647,4,1,0,100,0,9
270157,-55.5555555555556,4,1,0,100,0,9
270158,-62.5,4,1,0,100,0,9
270227,-56.1797752808989,4,1,0,100,0,9
270228,-53.1914893617021,4,1,0,100,0,9
270229,-59.5238095238095,4,1,0,100,0,9
270298,-53.763440860215,4,1,0,100,0,9
270299,-51.0204081632653,4,1,0,100,0,9
270300,-56.8181818181818,4,1,0,100,0,9
270370,-51.8134715025907,4,1,0,100,0,9
270371,-49.2610837438424,4,1,0,100,0,9
270372,-54.6448087431694,4,1,0,100,0,9
270441,-50,4,1,0,100,0,9
270442,-47.6190476190476,4,1,0,100,0,9
270443,-52.6315789473684,4,1,0,100,0,9
270513,-48.5436893203883,4,1,0,100,0,9
270514,-46.2962962962963,4,1,0,100,0,9
270515,-51.0204081632653,4,1,0,100,0,9
270584,-47.1698113207547,4,1,0,100,0,9
270585,-45.045045045045,4,1,0,100,0,9
270586,-49.5049504950495,4,1,0,100,0,9
270656,-46.0829493087558,4,1,0,100,0,9
270657,-44.0528634361233,4,1,0,100,0,9
270658,-48.3091787439614,4,1,0,100,0,9
270727,-45.045045045045,4,1,0,100,0,9
270728,-43.1034482758621,4,1,0,100,0,9
270729,-47.1698113207547,4,1,0,100,0,9
270798,-44.2477876106195,4,1,0,100,0,9
270799,-42.3728813559322,4,1,0,100,0,9
270800,-46.2962962962963,4,1,0,100,0,9
270870,-43.4782608695652,4,1,0,100,0,9
270871,-41.6666666666667,4,1,0,100,0,9
270872,-45.4545454545455,4,1,0,100,0,9
270941,-42.9184549356223,4,1,0,100,0,9
270942,-41.1522633744856,4,1,0,100,0,9
270943,-44.8430493273543,4,1,0,100,0,9
271013,-42.3728813559322,4,1,0,100,0,9
271014,-40.650406504065,4,1,0,100,0,9
271015,-44.2477876106195,4,1,0,100,0,9
271084,-42.0168067226891,4,1,0,100,0,9
271085,-40.3225806451613,4,1,0,100,0,9
271086,-43.859649122807,4,1,0,100,0,9
271156,-41.6666666666667,4,1,0,100,0,9
271157,-40,4,1,0,100,0,9
271158,-43.4782608695652,4,1,0,100,0,9
271227,-41.49377593361,4,1,0,100,0,9
271228,-39.8406374501992,4,1,0,100,0,9
271229,-43.2900432900433,4,1,0,100,0,9
271298,-41.3223140495868,4,1,0,100,0,9
271299,-39.6825396825397,4,1,0,100,0,9
271300,-43.1034482758621,4,1,0,100,0,9
271370,-41.49377593361,4,1,0,100,0,9
271371,-39.8406374501992,4,1,0,100,0,9
271372,-43.2900432900433,4,1,0,100,0,9
271441,-41.6666666666667,4,1,0,100,0,9
271442,-40,4,1,0,100,0,9
271443,-43.4782608695652,4,1,0,100,0,9
271513,-42.0168067226891,4,1,0,100,0,9
271514,-40.3225806451613,4,1,0,100,0,9
271515,-43.859649122807,4,1,0,100,0,9
271584,-42.3728813559322,4,1,0,100,0,9
271585,-40.650406504065,4,1,0,100,0,9
271586,-44.2477876106195,4,1,0,100,0,9
271656,-42.9184549356223,4,1,0,100,0,9
271657,-41.1522633744856,4,1,0,100,0,9
271658,-44.8430493273543,4,1,0,100,0,9
271727,-43.4782608695652,4,1,0,100,0,9
271728,-41.6666666666667,4,1,0,100,0,9
271729,-45.4545454545455,4,1,0,100,0,9
271798,-44.2477876106195,4,1,0,100,0,9
271799,-42.3728813559322,4,1,0,100,0,9
271800,-46.2962962962963,4,1,0,100,0,9
271870,-45.045045045045,4,1,0,100,0,9
271871,-43.1034482758621,4,1,0,100,0,9
271872,-47.1698113207547,4,1,0,100,0,9
271941,-46.0829493087558,4,1,0,100,0,9
271942,-44.0528634361233,4,1,0,100,0,9
271943,-48.3091787439614,4,1,0,100,0,9
272013,-47.1698113207547,4,1,0,100,0,9
272014,-45.045045045045,4,1,0,100,0,9
272015,-49.5049504950495,4,1,0,100,0,9
272084,-48.5436893203883,4,1,0,100,0,9
272085,-46.2962962962963,4,1,0,100,0,9
272086,-51.0204081632653,4,1,0,100,0,9
272156,-50,4,1,0,100,0,9
272157,-47.6190476190476,4,1,0,100,0,9
272158,-52.6315789473684,4,1,0,100,0,9
272227,-51.8134715025907,4,1,0,100,0,9
272228,-49.2610837438424,4,1,0,100,0,9
272229,-54.6448087431694,4,1,0,100,0,9
272298,-53.763440860215,4,1,0,100,0,9
272299,-51.0204081632653,4,1,0,100,0,9
272300,-56.8181818181818,4,1,0,100,0,9
272370,-35.7142857142857,4,1,0,100,0,0
272441,285.714285714286,4,1,0,100,1,8
272441,-71.4285714285714,4,1,0,100,0,8
272584,-98.0392156862745,4,1,0,100,0,0
272656,-96.1538461538461,4,1,0,100,0,0
272727,-94.3396226415094,4,1,0,100,0,0
272799,-58.8235294117647,4,1,0,100,0,0
273013,-89.2857142857143,4,1,0,100,0,0
273084,-87.719298245614,4,1,0,100,0,0
273156,-86.2068965517241,4,1,0,100,0,0
273227,-50,4,1,0,100,0,0
273441,-81.9672131147541,4,1,0,100,0,0
273513,-80.6451612903226,4,1,0,100,0,0
273584,-79.3650793650794,4,1,0,100,0,0
273656,-43.4782608695652,4,1,0,100,0,0
273870,-75.7575757575758,4,1,0,100,0,0
273941,-74.6268656716418,4,1,0,100,0,0
274013,-73.5294117647059,4,1,0,100,0,0
274084,-38.4615384615385,4,1,0,100,0,0
274298,-70.4225352112676,4,1,0,100,0,0
274370,-69.4444444444444,4,1,0,100,0,0
274441,-68.4931506849315,4,1,0,100,0,0
274477,-37.037037037037,4,1,0,100,0,0
274727,1E+30,4,1,0,5,1,8
278156,0.771436285791429,1,1,0,100,1,0
278156,-1E-08,4,1,0,100,0,0
278870,-1E-08,4,1,0,100,0,0
278875,1E+30,4,1,0,100,1,8
279156,0.771436285791429,1,1,0,100,1,0
279156,-1E-08,4,1,0,100,0,0

[HitObjects]
0,192,425,6,4,L|288:192,1,-2000
0,192,425,6,4,L|288:192,1,-2000
0,192,425,6,4,L|288:192,1,-2000
280,148,443,5,2,0:0:0:0:
280,148,871,1,2,0:0:0:0:
280,148,943,1,2,0:0:0:0:
280,148,1014,1,2,0:0:0:0:
312,244,1586,5,4,0:0:0:0:
272,232,3585,1,4,0:0:0:0:
272,232,3871,1,4,0:0:0:0:
280,236,5871,1,4,0:0:0:0:
280,236,6157,1,4,0:0:0:0:
280,236,6443,1,4,0:0:0:0:
280,236,8443,5,4,0:0:0:0:
304,216,8728,1,2,0:0:0:0:
280,236,9014,1,4,0:0:0:0:
304,216,9300,1,2,0:0:0:0:
296,232,9586,1,4,0:0:0:0:
296,232,9871,1,4,0:0:0:0:
296,232,10157,1,4,0:0:0:0:
296,232,10443,1,6,0:0:0:0:
304,120,10728,1,2,0:0:0:0:
304,120,10800,1,2,0:0:0:0:
304,120,10871,1,2,0:0:0:0:
304,120,10943,1,2,0:0:0:0:
304,120,11014,1,2,0:0:0:0:
276,148,11157,1,0,0:0:0:0:
340,116,11228,1,0,0:0:0:0:
340,116,11300,1,0,0:0:0:0:
296,256,11371,1,0,0:0:0:0:
368,172,11443,1,2,0:0:0:0:
336,76,11586,1,0,0:0:0:0:
332,92,11728,1,2,0:0:0:0:
332,92,11800,1,2,0:0:0:0:
332,60,11871,1,2,0:0:0:0:
332,60,11943,1,2,0:0:0:0:
332,60,12014,1,0,0:0:0:0:
256,204,12157,1,2,0:0:0:0:
256,204,12228,1,2,0:0:0:0:
256,120,12300,1,0,0:0:0:0:
312,72,12443,1,2,0:0:0:0:
312,72,12514,1,2,0:0:0:0:
288,112,12586,1,0,0:0:0:0:
288,112,12657,1,0,0:0:0:0:
252,148,12728,1,2,0:0:0:0:
184,200,12800,1,2,0:0:0:0:
436,216,12871,1,0,0:0:0:0:
312,136,13014,1,2,0:0:0:0:
312,136,13086,1,0,0:0:0:0:
312,136,13157,1,2,0:0:0:0:
312,136,13228,1,0,0:0:0:0:
312,136,13300,1,2,0:0:0:0:
392,84,13443,1,0,0:0:0:0:
316,128,13514,1,0,0:0:0:0:
316,128,13586,1,0,0:0:0:0:
264,236,13657,1,0,0:0:0:0:
444,88,13728,1,2,0:0:0:0:
388,160,13871,1,0,0:0:0:0:
396,168,14014,1,2,0:0:0:0:
396,168,14086,1,2,0:0:0:0:
352,60,14157,1,2,0:0:0:0:
352,60,14228,1,2,0:0:0:0:
352,60,14300,1,0,0:0:0:0:
352,72,14371,1,0,0:0:0:0:
288,88,14443,1,2,0:0:0:0:
288,88,14514,1,2,0:0:0:0:
280,112,14586,1,0,0:0:0:0:
352,136,14657,1,0,0:0:0:0:
288,64,14728,1,2,0:0:0:0:
288,64,14776,1,2,0:0:0:0:
288,64,14824,1,2,0:0:0:0:
288,64,14871,1,2,0:0:0:0:
272,156,14919,1,2,0:0:0:0:
272,156,14966,1,2,0:0:0:0:
344,160,15014,1,0,0:0:0:0:
364,216,15086,1,0,0:0:0:0:
412,152,15157,1,2,0:0:0:0:
412,152,15300,1,2,0:0:0:0:
412,152,15371,1,2,0:0:0:0:
412,152,15443,1,2,0:0:0:0:
412,152,15514,1,2,0:0:0:0:
412,152,15586,1,2,0:0:0:0:
376,180,15728,1,0,0:0:0:0:
392,144,15800,1,0,0:0:0:0:
392,144,15871,1,0,0:0:0:0:
220,196,15943,1,0,0:0:0:0:
372,184,16014,1,2,0:0:0:0:
336,128,16157,1,0,0:0:0:0:
336,128,16300,1,2,0:0:0:0:
336,128,16371,1,2,0:0:0:0:
312,224,16443,1,2,0:0:0:0:
312,224,16514,1,2,0:0:0:0:
300,136,16586,1,0,0:0:0:0:
272,124,16728,1,2,0:0:0:0:
336,136,16800,1,2,0:0:0:0:
232,148,16871,1,0,0:0:0:0:
336,136,17014,1,2,0:0:0:0:
336,136,17086,1,2,0:0:0:0:
392,192,17157,1,0,0:0:0:0:
336,136,17228,1,2,0:0:0:0:
212,180,17300,1,2,0:0:0:0:
212,180,17371,1,2,0:0:0:0:
176,204,17443,1,0,0:0:0:0:
364,116,17586,1,2,0:0:0:0:
292,60,17657,1,0,0:0:0:0:
292,60,17728,1,2,0:0:0:0:
292,60,17800,1,0,0:0:0:0:
292,60,17871,1,2,0:0:0:0:
260,128,18014,1,0,0:0:0:0:
260,128,18086,1,0,0:0:0:0:
260,128,18157,1,0,0:0:0:0:
296,68,18228,1,0,0:0:0:0:
300,96,18300,1,2,0:0:0:0:
296,116,18443,1,0,0:0:0:0:
296,120,18586,1,2,0:0:0:0:
296,120,18657,1,2,0:0:0:0:
296,120,18728,1,2,0:0:0:0:
296,120,18800,1,2,0:0:0:0:
272,72,18871,1,0,0:0:0:0:
272,72,18943,1,0,0:0:0:0:
272,72,19014,1,2,0:0:0:0:
272,72,19086,1,2,0:0:0:0:
256,96,19157,1,2,0:0:0:0:
256,96,19228,1,2,0:0:0:0:
328,100,19300,1,0,0:0:0:0:
328,100,19347,1,0,0:0:0:0:
328,100,19395,1,0,0:0:0:0:
104,164,19443,1,0,0:0:0:0:
104,164,19490,1,0,0:0:0:0:
104,164,19538,1,0,0:0:0:0:
328,100,19586,1,6,0:0:0:0:
320,112,19871,1,4,0:0:0:0:
408,208,20014,1,2,0:0:0:0:
344,152,20086,1,2,0:0:0:0:
408,208,20157,1,2,0:0:0:0:
320,112,20300,1,4,0:0:0:0:
408,208,20443,1,2,0:0:0:0:
276,204,20514,1,0,0:0:0:0:
408,208,20586,1,2,0:0:0:0:
320,112,20728,1,4,0:0:0:0:
408,208,20871,1,2,0:0:0:0:
284,108,20943,1,2,0:0:0:0:
408,208,21014,1,2,0:0:0:0:
320,112,21157,1,4,0:0:0:0:
408,208,21300,1,2,0:0:0:0:
248,136,21371,1,0,0:0:0:0:
408,208,21443,1,2,0:0:0:0:
320,112,21586,1,4,0:0:0:0:
408,208,21728,1,2,0:0:0:0:
248,88,21800,1,2,0:0:0:0:
408,208,21871,1,2,0:0:0:0:
320,112,22014,1,4,0:0:0:0:
412,216,22443,1,2,0:0:0:0:
412,216,22586,1,2,0:0:0:0:
412,216,22871,1,2,0:0:0:0:
412,216,23157,1,2,0:0:0:0:
412,216,23443,1,2,0:0:0:0:
412,216,23728,1,6,0:0:0:0:
412,216,23871,1,6,0:0:0:0:
328,152,24443,1,2,0:0:0:0:
328,152,24728,1,2,0:0:0:0:
324,156,25014,1,0,0:0:0:0:
324,164,25300,1,0,0:0:0:0:
256,156,26728,1,6,0:0:0:0:
256,156,26871,1,6,0:0:0:0:
256,156,27157,1,4,0:0:0:0:
256,156,27443,1,4,0:0:0:0:
256,156,27728,1,6,0:0:0:0:
424,172,28157,1,4,0:0:0:0:
80,208,28318,6,4,L|220:204,1,-90
80,208,28318,6,4,L|220:204,1,-90
80,208,28318,6,4,L|220:204,1,-90
288,120,28443,1,4,0:0:0:0:
288,120,28728,1,4,0:0:0:0:
80,208,28890,6,4,L|220:204,1,-90
80,208,28890,6,4,L|220:204,1,-90
80,208,28890,6,4,L|220:204,1,-90
296,116,29014,1,4,0:0:0:0:
424,172,29300,1,4,0:0:0:0:
80,208,29461,6,4,L|220:204,1,-90
80,208,29461,6,4,L|220:204,1,-90
80,208,29461,6,4,L|220:204,1,-90
424,172,29586,1,4,0:0:0:0:
424,172,29871,1,4,0:0:0:0:
80,208,30032,6,4,L|220:204,1,-90
80,208,30032,6,4,L|220:204,1,-90
80,208,30032,6,4,L|220:204,1,-90
424,172,30157,1,4,0:0:0:0:
424,172,30443,1,4,0:0:0:0:
80,208,30603,6,4,L|220:204,1,-90
80,208,30603,6,4,L|220:204,1,-90
80,208,30603,6,4,L|220:204,1,-90
424,172,30728,1,4,0:0:0:0:
424,172,31014,1,4,0:0:0:0:
80,208,31175,6,4,L|220:204,1,-90
80,208,31175,6,4,L|220:204,1,-90
80,208,31175,6,4,L|220:204,1,-90
424,172,31300,1,4,0:0:0:0:
396,224,31443,1,2,0:0:0:0:
396,224,31514,1,2,0:0:0:0:
268,128,31586,1,2,0:0:0:0:
396,224,31728,1,0,0:0:0:0:
80,208,31746,6,4,L|220:204,1,-90
80,208,31746,6,4,L|220:204,1,-90
80,208,31746,6,4,L|220:204,1,-90
320,208,31871,1,0,0:0:0:0:
400,264,32014,1,6,0:0:0:0:
400,264,32300,1,6,0:0:0:0:
80,208,32317,6,4,L|220:204,1,-90
80,208,32317,6,4,L|220:204,1,-90
80,208,32317,6,4,L|220:204,1,-90
248,116,32728,1,4,0:0:0:0:
80,208,32889,6,4,L|220:204,1,-90
80,208,32889,6,4,L|220:204,1,-90
80,208,32889,6,4,L|220:204,1,-90
248,116,33014,1,4,0:0:0:0:
248,116,33300,1,4,0:0:0:0:
80,208,33461,6,4,L|220:204,1,-90
80,208,33461,6,4,L|220:204,1,-90
80,208,33461,6,4,L|220:204,1,-90
292,192,33586,1,4,0:0:0:0:
292,192,33871,1,4,0:0:0:0:
80,208,34032,6,4,L|220:204,1,-90
80,208,34032,6,4,L|220:204,1,-90
80,208,34032,6,4,L|220:204,1,-90
292,192,34157,1,4,0:0:0:0:
292,192,34443,1,4,0:0:0:0:
80,208,34603,6,4,L|220:204,1,-90
80,208,34603,6,4,L|220:204,1,-90
80,208,34603,6,4,L|220:204,1,-90
292,192,34728,1,4,0:0:0:0:
292,192,35014,1,4,0:0:0:0:
80,208,35175,6,4,L|220:204,1,-90
80,208,35175,6,4,L|220:204,1,-90
80,208,35175,6,4,L|220:204,1,-90
292,192,35300,1,4,0:0:0:0:
292,192,35586,1,4,0:0:0:0:
80,208,35747,6,4,L|220:204,1,-90
80,208,35747,6,4,L|220:204,1,-90
80,208,35747,6,4,L|220:204,1,-90
292,192,35871,1,4,0:0:0:0:
248,132,36014,1,2,0:0:0:0:
248,132,36086,1,2,0:0:0:0:
248,132,36157,1,2,0:0:0:0:
292,120,36300,1,0,0:0:0:0:
80,208,36318,6,4,L|220:204,1,-90
80,208,36318,6,4,L|220:204,1,-90
80,208,36318,6,4,L|220:204,1,-90
296,112,36443,1,6,0:0:0:0:
296,112,36586,1,6,0:0:0:0:
296,112,36728,1,6,0:0:0:0:
296,112,36871,1,6,0:0:0:0:
332,172,37156,1,2,0:0:0:0:
256,192,37157,2,0,L|372:192,1,1E-87
332,172,37228,1,2,0:0:0:0:
256,192,37229,2,0,L|372:192,1,1E-87
332,172,37299,1,2,0:0:0:0:
256,192,37300,2,0,L|372:192,1,1E-87
332,172,37442,1,0,0:0:0:0:
256,192,37443,2,0,L|372:192,1,1E-87
280,248,37585,1,0,0:0:0:0:
256,192,37586,2,0,L|372:192,1,1E-87
280,248,37656,1,0,0:0:0:0:
256,192,37657,2,0,L|372:192,1,1E-87
332,172,37728,1,2,0:0:0:0:
256,192,37729,2,0,L|372:192,1,1E-87
284,252,37799,1,0,0:0:0:0:
256,192,37800,2,0,L|372:192,1,1E-87
332,172,37871,1,2,0:0:0:0:
256,192,37872,2,0,L|372:192,1,1E-87
336,128,38014,1,0,0:0:0:0:
256,192,38015,2,0,L|372:192,1,1E-87
336,128,38085,1,0,0:0:0:0:
256,192,38086,2,0,L|372:192,1,1E-87
336,128,38156,1,0,0:0:0:0:
256,192,38157,2,0,L|372:192,1,1E-87
244,240,38228,1,0,0:0:0:0:
256,192,38229,2,0,L|372:192,1,1E-87
336,128,38299,1,0,0:0:0:0:
256,192,38300,2,0,L|372:192,1,1E-87
332,132,38442,1,2,0:0:0:0:
256,192,38443,2,0,L|372:192,1,1E-87
268,144,38585,1,0,0:0:0:0:
256,192,38586,2,0,L|372:192,1,1E-87
220,52,38728,1,0,0:0:0:0:
256,192,38729,2,0,L|372:192,1,1E-87
316,152,38799,1,0,0:0:0:0:
256,192,38800,2,0,L|372:192,1,1E-87
264,112,38871,1,2,0:0:0:0:
256,192,38872,2,0,L|372:192,1,1E-87
224,60,38942,1,2,0:0:0:0:
256,192,38943,2,0,L|372:192,1,1E-87
308,144,39014,1,0,0:0:0:0:
256,192,39015,2,0,L|372:192,1,1E-87
312,120,39156,1,2,0:0:0:0:
256,192,39157,2,0,L|372:192,1,1E-87
312,120,39228,1,2,0:0:0:0:
256,192,39229,2,0,L|372:192,1,1E-87
312,120,39299,1,2,0:0:0:0:
256,192,39300,2,0,L|372:192,1,1E-87
272,256,39371,1,2,0:0:0:0:
256,192,39372,2,0,L|372:192,1,1E-87
312,120,39442,1,2,0:0:0:0:
256,192,39443,2,0,L|372:192,1,1E-87
240,140,39585,1,0,0:0:0:0:
256,192,39586,2,0,L|372:192,1,1E-87
240,140,39728,1,2,0:0:0:0:
256,192,39729,2,0,L|372:192,1,1E-87
352,116,39871,1,2,0:0:0:0:
256,192,39872,2,0,L|372:192,1,1E-87
352,116,39942,1,0,0:0:0:0:
256,192,39943,2,0,L|372:192,1,1E-87
240,140,40014,1,2,0:0:0:0:
256,192,40015,2,0,L|372:192,1,1E-87
220,104,40085,1,0,0:0:0:0:
256,192,40086,2,0,L|372:192,1,1E-87
240,52,40156,1,2,0:0:0:0:
256,192,40157,2,0,L|372:192,1,1E-87
376,104,40299,1,0,0:0:0:0:
256,192,40300,2,0,L|372:192,1,1E-87
344,88,40371,1,0,0:0:0:0:
256,192,40372,2,0,L|372:192,1,1E-87
344,88,40442,1,0,0:0:0:0:
256,192,40443,2,0,L|372:192,1,1E-87
276,220,40514,1,0,0:0:0:0:
256,192,40515,2,0,L|372:192,1,1E-87
340,96,40585,1,0,0:0:0:0:
256,192,40586,2,0,L|372:192,1,1E-87
336,92,40728,1,2,0:0:0:0:
256,192,40729,2,0,L|372:192,1,1E-87
296,120,40871,1,0,0:0:0:0:
256,192,40872,2,0,L|372:192,1,1E-87
284,128,41014,1,2,0:0:0:0:
256,192,41015,2,0,L|372:192,1,1E-87
248,168,41156,1,0,0:0:0:0:
256,192,41157,2,0,L|372:192,1,1E-87
296,92,41299,1,2,0:0:0:0:
256,192,41300,2,0,L|372:192,1,1E-87
316,64,41442,1,2,0:0:0:0:
256,192,41443,2,0,L|372:192,1,1E-87
316,64,41514,1,2,0:0:0:0:
256,192,41515,2,0,L|372:192,1,1E-87
316,64,41585,1,2,0:0:0:0:
256,192,41586,2,0,L|372:192,1,1E-87
316,64,41656,1,2,0:0:0:0:
256,192,41657,2,0,L|372:192,1,1E-87
316,64,41728,1,2,0:0:0:0:
256,192,41729,2,0,L|372:192,1,1E-87
288,84,41871,1,0,0:0:0:0:
256,192,41872,2,0,L|372:192,1,1E-87
256,132,42014,1,2,0:0:0:0:
256,192,42015,2,0,L|372:192,1,1E-87
240,132,42156,1,2,0:0:0:0:
256,192,42157,2,0,L|372:192,1,1E-87
288,160,42228,1,2,0:0:0:0:
256,192,42229,2,0,L|372:192,1,1E-87
340,84,42299,1,0,0:0:0:0:
256,192,42300,2,0,L|372:192,1,1E-87
356,200,42371,1,0,0:0:0:0:
256,192,42372,2,0,L|372:192,1,1E-87
340,84,42442,1,2,0:0:0:0:
256,192,42443,2,0,L|372:192,1,1E-87
328,84,42585,1,0,0:0:0:0:
256,192,42586,2,0,L|372:192,1,1E-87
328,84,42656,1,0,0:0:0:0:
256,192,42657,2,0,L|372:192,1,1E-87
328,84,42728,1,0,0:0:0:0:
256,192,42729,2,0,L|372:192,1,1E-87
328,84,42799,1,0,0:0:0:0:
256,192,42800,2,0,L|372:192,1,1E-87
328,84,42871,1,0,0:0:0:0:
256,192,42872,2,0,L|372:192,1,1E-87
320,88,43014,1,2,0:0:0:0:
256,192,43015,2,0,L|372:192,1,1E-87
336,196,43156,1,2,0:0:0:0:
256,192,43157,2,0,L|372:192,1,1E-87
352,228,43299,1,0,0:0:0:0:
256,192,43300,2,0,L|372:192,1,1E-87
260,116,43371,1,2,0:0:0:0:
256,192,43372,2,0,L|372:192,1,1E-87
288,80,43442,1,0,0:0:0:0:
256,192,43443,2,0,L|372:192,1,1E-87
352,228,43514,1,0,0:0:0:0:
256,192,43515,2,0,L|372:192,1,1E-87
272,88,43585,1,2,0:0:0:0:
256,192,43586,2,0,L|372:192,1,1E-87
280,80,43728,1,0,0:0:0:0:
256,192,43729,2,0,L|372:192,1,1E-87
188,196,43871,1,0,0:0:0:0:
256,192,43872,2,0,L|372:192,1,1E-87
188,196,44014,1,2,0:0:0:0:
256,192,44015,2,0,L|372:192,1,1E-87
188,196,44085,1,2,0:0:0:0:
256,192,44086,2,0,L|372:192,1,1E-87
188,196,44156,1,2,0:0:0:0:
256,192,44157,2,0,L|372:192,1,1E-87
160,216,44299,1,0,0:0:0:0:
256,192,44300,2,0,L|372:192,1,1E-87
160,216,44442,1,2,0:0:0:0:
256,192,44443,2,0,L|372:192,1,1E-87
160,216,44514,1,2,0:0:0:0:
256,192,44515,2,0,L|372:192,1,1E-87
256,148,44585,1,0,0:0:0:0:
256,192,44586,2,0,L|372:192,1,1E-87
160,216,44728,1,6,0:0:0:0:
256,192,44729,2,4,L|372:192,1,1E-87
160,216,44871,1,6,0:0:0:0:
256,192,44872,2,4,L|372:192,1,1E-87
308,168,45157,1,0,0:0:0:0:
304,168,45300,1,2,0:0:0:0:
264,180,45443,1,0,0:0:0:0:
264,180,45586,1,2,0:0:0:0:
264,180,45871,1,2,0:0:0:0:
336,120,46157,1,6,0:0:0:0:
336,120,46443,1,6,0:0:0:0:
328,136,46728,1,4,0:0:0:0:
328,272,47014,1,4,0:0:0:0:
268,192,47157,1,4,0:0:0:0:
320,100,47300,1,6,0:0:0:0:
320,100,47586,1,6,0:0:0:0:
96,216,47871,1,2,0:0:0:0:
364,236,47943,1,2,0:0:0:0:
96,216,48014,1,2,0:0:0:0:
336,184,48300,1,4,0:0:0:0:
332,152,48585,1,2,0:0:0:0:
308,180,48728,1,4,0:0:0:0:
308,180,48871,1,2,0:0:0:0:
304,184,49014,1,4,0:0:0:0:
264,204,49157,1,2,0:0:0:0:
332,176,49228,1,2,0:0:0:0:
264,204,49300,1,2,0:0:0:0:
264,204,49443,1,4,0:0:0:0:
280,172,49728,1,0,0:0:0:0:
280,172,49871,1,6,0:0:0:0:
272,176,50014,1,0,0:0:0:0:
268,180,50157,1,6,0:0:0:0:
268,180,50300,1,0,0:0:0:0:
280,200,50371,1,0,0:0:0:0:
248,192,50443,1,0,0:0:0:0:
248,192,50585,1,6,0:0:0:0:
304,168,50871,5,2,0:0:0:0:
268,156,50943,1,0,0:0:0:0:
304,168,51014,1,2,0:0:0:0:
276,48,51085,1,2,0:0:0:0:
288,180,51157,1,0,0:0:0:0:
288,184,51300,1,2,0:0:0:0:
288,184,51371,1,2,0:0:0:0:
264,196,51443,1,0,0:0:0:0:
264,200,51514,1,0,0:0:0:0:
296,76,51585,1,2,0:0:0:0:
316,200,51728,1,6,0:0:0:0:
280,164,52014,1,6,0:0:0:0:
224,128,52157,1,4,0:0:0:0:
248,136,52443,1,4,0:0:0:0:
248,136,52586,1,6,0:0:0:0:
248,136,52871,1,4,0:0:0:0:
284,68,53157,1,2,0:0:0:0:
280,96,53300,1,4,0:0:0:0:
280,104,53443,1,2,0:0:0:0:
280,104,53585,1,4,0:0:0:0:
272,124,53728,1,2,0:0:0:0:
372,224,53800,1,2,0:1:0:0:
272,128,53871,1,2,0:0:0:0:
272,128,54014,1,4,0:0:0:0:
328,116,54300,1,0,0:0:0:0:
320,136,54443,1,6,0:0:0:0:
220,164,54585,1,0,0:0:0:0:
220,164,54728,1,6,0:0:0:0:
212,168,54871,1,0,0:0:0:0:
280,156,54943,1,0,0:0:0:0:
320,156,55014,1,0,0:0:0:0:
320,156,55157,1,6,0:0:0:0:
248,152,55443,1,2,0:0:0:0:
336,136,55514,1,2,0:0:0:0:
364,176,55585,1,0,0:0:0:0:
364,176,55728,1,0,0:0:0:0:
284,104,55871,1,2,0:0:0:0:
336,116,55943,1,2,0:0:0:0:
388,132,56014,1,0,0:0:0:0:
456,132,56085,1,0,0:0:0:0:
272,136,56157,1,2,0:0:0:0:
272,112,56300,1,4,0:0:0:0:
292,212,56443,1,2,0:0:0:0:
348,148,56585,1,4,0:0:0:0:
292,212,56728,1,2,0:0:0:0:
348,148,56871,1,4,0:0:0:0:
328,136,57014,1,2,0:0:0:0:
328,136,57085,1,2,0:0:0:0:
328,136,57157,1,2,0:0:0:0:
328,136,57228,1,2,0:0:0:0:
328,136,57300,1,2,0:0:0:0:
328,136,57371,1,2,0:0:0:0:
320,140,57443,5,4,0:0:0:0:
256,192,57443,12,0,58585,0:0:0:0:
348,264,57728,5,0,0:0:0:0:
348,264,57800,1,2,0:0:0:0:
348,264,57871,1,0,0:0:0:0:
348,264,57943,1,2,0:0:0:0:
348,264,58014,1,0,0:0:0:0:
348,264,58085,1,0,0:0:0:0:
348,264,58157,1,2,0:0:0:0:
348,264,58228,1,0,0:0:0:0:
348,264,58300,1,2,0:0:0:0:
348,264,58371,1,2,0:0:0:0:
360,128,58443,1,0,0:0:0:0:
360,128,58514,1,0,0:0:0:0:
360,128,58585,5,6,0:0:0:0:
256,192,58585,12,0,59728,0:0:0:0:
408,120,58871,5,2,0:0:0:0:
408,120,58943,1,0,0:0:0:0:
408,120,59014,1,2,0:0:0:0:
408,120,59085,1,0,0:0:0:0:
408,120,59157,1,2,0:0:0:0:
408,120,59228,1,2,0:0:0:0:
408,120,59300,1,0,0:0:0:0:
408,120,59371,1,2,0:0:0:0:
408,120,59443,1,0,0:0:0:0:
408,120,59514,1,2,0:0:0:0:
408,120,59585,1,0,0:0:0:0:
408,120,59657,1,0,0:0:0:0:
408,120,59728,5,6,0:0:0:0:
256,192,59728,12,0,60871,0:0:0:0:
220,120,60014,5,0,0:0:0:0:
268,116,60085,1,2,0:0:0:0:
220,120,60157,1,0,0:0:0:0:
328,260,60228,1,0,0:0:0:0:
328,260,60300,1,2,0:0:0:0:
312,64,60371,1,0,0:0:0:0:
328,260,60443,1,2,0:0:0:0:
280,216,60514,1,0,0:0:0:0:
284,160,60585,1,2,0:0:0:0:
220,156,60657,1,2,0:0:0:0:
220,156,60728,1,0,0:0:0:0:
328,260,60800,1,0,0:0:0:0:
328,252,60871,5,6,0:0:0:0:
256,192,60871,12,0,62014,0:0:0:0:
328,240,61157,5,2,0:0:0:0:
316,52,61228,1,0,0:0:0:0:
324,236,61300,1,2,0:0:0:0:
316,52,61371,1,0,0:0:0:0:
324,236,61443,1,2,0:0:0:0:
288,216,61514,1,2,0:0:0:0:
328,240,61585,1,0,0:0:0:0:
328,240,61657,1,2,0:0:0:0:
296,224,61728,1,0,0:0:0:0:
300,128,61800,1,2,0:0:0:0:
296,224,61871,1,0,0:0:0:0:
288,152,61943,1,0,0:0:0:0:
328,240,62014,5,6,0:0:0:0:
256,192,62014,12,0,63157,0:0:0:0:
272,88,62300,5,0,0:0:0:0:
272,88,62371,1,2,0:0:0:0:
240,128,62443,1,0,0:0:0:0:
240,128,62514,1,2,0:0:0:0:
228,152,62585,1,0,0:0:0:0:
228,152,62657,1,0,0:0:0:0:
228,152,62728,1,2,0:0:0:0:
224,168,62800,1,0,0:0:0:0:
224,168,62871,1,2,0:0:0:0:
224,168,62943,1,2,0:0:0:0:
212,188,63014,1,0,0:0:0:0:
216,188,63085,1,0,0:0:0:0:
272,272,63157,5,6,0:0:0:0:
256,192,63157,12,0,64300,0:0:0:0:
312,132,63443,5,2,0:0:0:0:
296,88,63514,1,2,0:0:0:0:
312,136,63585,1,0,0:0:0:0:
292,92,63657,1,0,0:0:0:0:
312,136,63728,1,2,0:0:0:0:
292,92,63800,1,0,0:0:0:0:
312,136,63871,1,2,0:0:0:0:
312,136,63943,1,2,0:0:0:0:
292,92,64014,1,0,0:0:0:0:
316,140,64085,1,2,0:0:0:0:
352,132,64157,1,0,0:0:0:0:
252,52,64228,1,2,0:0:0:0:
300,128,64300,1,0,0:0:0:0:
220,224,64443,1,6,0:0:0:0:
352,168,64585,1,0,0:0:0:0:
352,168,64657,1,0,0:0:0:0:
352,168,64728,1,0,0:0:0:0:
220,224,64871,1,6,0:0:0:0:
248,168,65014,1,0,0:0:0:0:
192,192,65085,1,2,0:0:0:0:
192,192,65157,1,0,0:0:0:0:
320,136,65300,1,6,0:0:0:0:
312,116,65443,1,0,0:0:0:0:
312,116,65514,1,0,0:0:0:0:
312,116,65585,1,0,0:0:0:0:
320,136,65728,1,6,0:0:0:0:
328,92,65871,1,0,0:0:0:0:
304,96,65943,1,2,0:0:0:0:
236,144,66014,1,0,0:0:0:0:
320,136,66157,1,6,0:0:0:0:
324,52,66300,1,0,0:0:0:0:
324,52,66371,1,0,0:0:0:0:
324,52,66443,1,0,0:0:0:0:
320,136,66585,1,6,0:0:0:0:
280,128,67871,1,6,0:0:0:0:
280,128,68014,1,6,0:0:0:0:
280,128,68157,1,6,0:0:0:0:
304,280,68442,1,2,0:0:0:0:
304,280,68728,1,2,0:0:0:0:
432,200,69014,1,4,0:0:0:0:
336,124,69443,1,6,0:0:0:0:
336,124,69728,1,6,0:0:0:0:
336,132,70014,1,4,0:0:0:0:
384,148,70443,1,6,0:0:0:0:
368,156,70728,1,4,0:0:0:0:
368,156,71014,1,6,0:0:0:0:
328,192,71299,1,0,0:0:0:0:
364,232,71371,1,0,0:0:0:0:
328,192,71443,1,0,0:0:0:0:
216,208,71514,1,0,0:0:0:0:
328,192,71585,1,2,0:0:0:0:
252,216,71656,1,2,0:0:0:0:
328,192,71728,1,0,0:0:0:0:
328,192,71800,1,0,0:0:0:0:
348,164,71871,1,2,0:0:0:0:
336,184,71942,1,2,0:0:0:0:
324,108,72014,1,2,0:0:0:0:
260,148,72085,1,2,0:0:0:0:
336,104,72157,1,0,0:0:0:0:
324,108,72228,1,0,0:0:0:0:
288,128,72299,1,0,0:0:0:0:
288,128,72371,1,0,0:0:0:0:
336,104,72443,1,2,0:0:0:0:
284,192,72585,1,0,0:0:0:0:
284,192,72656,1,0,0:0:0:0:
284,192,72728,1,2,0:0:0:0:
284,192,72799,1,0,0:0:0:0:
284,192,72871,1,2,0:0:0:0:
284,192,72942,1,2,0:0:0:0:
280,192,73014,1,0,0:0:0:0:
272,200,73156,1,0,0:0:0:0:
312,76,73228,1,0,0:0:0:0:
272,200,73299,1,2,0:0:0:0:
352,72,73371,1,2,0:0:0:0:
272,200,73442,1,0,0:0:0:0:
272,200,73514,1,2,0:0:0:0:
296,128,73585,1,0,0:0:0:0:
336,160,73726,1,2,0:0:0:0:
180,136,73871,1,0,0:0:0:0:
204,140,73942,1,0,0:0:0:0:
280,164,74014,1,0,0:0:0:0:
280,164,74085,1,0,0:0:0:0:
280,164,74157,1,2,0:0:0:0:
280,164,74228,1,2,0:0:0:0:
272,176,74300,1,0,0:0:0:0:
236,48,74371,1,0,0:0:0:0:
272,180,74443,1,2,0:0:0:0:
272,180,74514,1,2,0:0:0:0:
272,180,74585,1,2,0:0:0:0:
272,180,74657,1,2,0:0:0:0:
256,88,74728,1,0,0:0:0:0:
256,88,74800,1,0,0:0:0:0:
256,88,74871,1,2,0:0:0:0:
224,104,74943,1,2,0:0:0:0:
208,84,75014,1,0,0:0:0:0:
208,84,75085,1,0,0:0:0:0:
208,84,75157,1,0,0:0:0:0:
208,84,75228,1,0,0:0:0:0:
208,88,75300,1,2,0:0:0:0:
208,88,75371,1,2,0:0:0:0:
276,88,75443,1,0,0:0:0:0:
188,104,75514,1,0,0:0:0:0:
188,104,75585,1,2,0:0:0:0:
188,104,75657,1,2,0:0:0:0:
276,92,75728,1,2,0:0:0:0:
276,92,75800,1,2,0:0:0:0:
320,124,75871,5,4,0:0:0:0:
344,216,76157,1,4,0:0:0:0:
432,184,76300,1,4,0:0:0:0:
336,216,76443,1,6,0:0:0:0:
360,136,76586,1,6,0:0:0:0:
336,216,76728,1,4,0:0:0:0:
344,144,76871,1,4,0:0:0:0:
296,128,77157,1,12,0:0:0:0:
392,152,77300,1,4,0:0:0:0:
296,172,77443,1,6,0:0:0:0:
272,184,77728,1,2,0:0:0:0:
348,120,77871,1,2,0:0:0:0:
352,200,78156,1,4,0:0:0:0:
348,120,78585,1,6,0:0:0:0:
348,120,78871,1,6,0:0:0:0:
348,120,79156,1,4,0:0:0:0:
404,120,79585,1,6,0:0:0:0:
400,128,79871,1,4,0:0:0:0:
400,128,80156,1,6,0:0:0:0:
388,144,80443,1,0,0:0:0:0:
108,200,80513,1,0,0:0:0:0:
388,144,80584,1,0,0:0:0:0:
108,200,80656,1,0,0:0:0:0:
388,144,80727,1,2,0:0:0:0:
288,72,80799,1,2,0:0:0:0:
280,104,80870,1,0,0:0:0:0:
388,144,80943,1,0,0:0:0:0:
280,104,81013,1,2,0:0:0:0:
280,104,81084,1,2,0:0:0:0:
280,104,81156,1,2,0:0:0:0:
280,104,81227,1,2,0:0:0:0:
280,144,81299,1,0,0:0:0:0:
280,144,81370,1,0,0:0:0:0:
384,148,81443,1,2,0:0:0:0:
384,148,81514,1,2,0:0:0:0:
268,192,81585,1,2,0:0:0:0:
192,200,81726,1,0,0:0:0:0:
224,208,81797,1,0,0:0:0:0:
232,144,81869,1,2,0:0:0:0:
232,144,81941,1,2,0:0:0:0:
264,112,82012,1,0,0:0:0:0:
264,108,82084,1,0,0:0:0:0:
140,184,82155,1,0,0:0:0:0:
192,200,82298,1,0,0:0:0:0:
224,208,82369,1,2,0:0:0:0:
200,168,82441,1,2,0:0:0:0:
200,168,82512,1,2,0:0:0:0:
200,168,82584,1,0,0:0:0:0:
200,168,82655,1,2,0:0:0:0:
140,184,82727,1,0,0:0:0:0:
336,128,82870,1,2,0:0:0:0:
344,84,83014,1,0,0:0:0:0:
344,84,83085,1,0,0:0:0:0:
344,84,83156,1,0,0:0:0:0:
344,84,83228,1,0,0:0:0:0:
344,84,83300,1,2,0:0:0:0:
344,84,83371,1,2,0:0:0:0:
324,120,83443,1,0,0:0:0:0:
324,120,83514,1,0,0:0:0:0:
324,120,83585,1,2,0:0:0:0:
324,120,83657,1,2,0:0:0:0:
324,120,83728,1,0,0:0:0:0:
324,120,83800,1,0,0:0:0:0:
324,120,83871,1,2,0:0:0:0:
344,92,83943,1,2,0:0:0:0:
344,92,84014,1,2,0:0:0:0:
344,92,84085,1,2,0:0:0:0:
196,80,84157,1,0,0:0:0:0:
196,80,84228,1,0,0:0:0:0:
196,80,84300,1,2,0:0:0:0:
196,80,84371,1,2,0:0:0:0:
196,80,84442,1,0,0:0:0:0:
196,80,84514,1,0,0:0:0:0:
240,52,84585,1,2,0:0:0:0:
192,84,84657,1,2,0:0:0:0:
240,52,84728,1,0,0:0:0:0:
240,52,84800,1,0,0:0:0:0:
240,52,84871,1,0,0:0:0:0:
240,52,84943,1,0,0:0:0:0:
240,52,85013,1,6,0:0:0:0:
228,168,85300,1,4,0:0:0:0:
228,168,85585,1,6,0:0:0:0:
228,168,85871,1,6,0:0:0:0:
220,176,86014,1,4,0:0:0:0:
344,112,86300,1,6,0:0:0:0:
344,112,86443,1,4,0:0:0:0:
344,112,86585,1,6,0:0:0:0:
324,128,86871,1,2,0:0:0:0:
468,128,87013,1,2,0:0:0:0:
156,164,87299,1,0,0:0:0:0:
256,192,87300,2,0,L|372:192,1,1E-87
256,192,87300,2,0,L|372:192,1,1E-87
256,192,87300,2,0,L|372:192,1,1E-87
156,164,87727,1,0,0:0:0:0:
256,192,87728,2,0,L|372:192,1,1E-87
256,192,87728,2,0,L|372:192,1,1E-87
256,192,87728,2,0,L|372:192,1,1E-87
156,164,87870,1,6,0:0:0:0:
256,192,87871,2,6,L|372:192,1,1E-87
256,192,87871,2,6,L|372:192,1,1E-87
256,192,87871,2,6,L|372:192,1,1E-87
156,164,88156,1,0,0:0:0:0:
256,192,88157,2,0,L|372:192,1,1E-87
256,192,88157,2,0,L|372:192,1,1E-87
256,192,88157,2,0,L|372:192,1,1E-87
156,164,88441,1,0,0:0:0:0:
256,192,88442,2,0,L|372:192,1,1E-87
256,192,88442,2,0,L|372:192,1,1E-87
256,192,88442,2,0,L|372:192,1,1E-87
156,164,88870,1,0,0:0:0:0:
256,192,88871,2,0,L|372:192,1,1E-87
256,192,88871,2,0,L|372:192,1,1E-87
256,192,88871,2,0,L|372:192,1,1E-87
156,164,89013,1,6,0:0:0:0:
256,192,89014,2,6,L|372:192,1,1E-87
256,192,89014,2,6,L|372:192,1,1E-87
256,192,89014,2,6,L|372:192,1,1E-87
156,164,89299,1,0,0:0:0:0:
256,192,89300,2,0,L|372:192,1,1E-87
256,192,89300,2,0,L|372:192,1,1E-87
256,192,89300,2,0,L|372:192,1,1E-87
156,164,89584,1,0,0:0:0:0:
256,192,89585,2,0,L|372:192,1,1E-87
256,192,89585,2,0,L|372:192,1,1E-87
256,192,89585,2,0,L|372:192,1,1E-87
156,164,90013,1,0,0:0:0:0:
256,192,90014,2,0,L|372:192,1,1E-87
256,192,90014,2,0,L|372:192,1,1E-87
256,192,90014,2,0,L|372:192,1,1E-87
156,164,90156,1,6,0:0:0:0:
256,192,90157,2,6,L|372:192,1,1E-87
256,192,90157,2,6,L|372:192,1,1E-87
256,192,90157,2,6,L|372:192,1,1E-87
156,164,90441,1,0,0:0:0:0:
256,192,90442,2,0,L|372:192,1,1E-87
256,192,90442,2,0,L|372:192,1,1E-87
256,192,90442,2,0,L|372:192,1,1E-87
156,164,90584,1,0,0:0:0:0:
256,192,90585,2,0,L|372:192,1,1E-87
256,192,90585,2,0,L|372:192,1,1E-87
256,192,90585,2,0,L|372:192,1,1E-87
156,164,90727,1,0,0:0:0:0:
256,192,90728,2,0,L|372:192,1,1E-87
256,192,90728,2,0,L|372:192,1,1E-87
256,192,90728,2,0,L|372:192,1,1E-87
156,164,90870,1,0,0:0:0:0:
256,192,90871,2,0,L|372:192,1,1E-87
256,192,90871,2,0,L|372:192,1,1E-87
256,192,90871,2,0,L|372:192,1,1E-87
156,164,91156,1,0,0:0:0:0:
256,192,91157,2,0,L|372:192,1,1E-87
256,192,91157,2,0,L|372:192,1,1E-87
256,192,91157,2,0,L|372:192,1,1E-87
156,164,91299,1,6,0:0:0:0:
256,192,91300,2,6,L|372:192,1,1E-87
256,192,91300,2,6,L|372:192,1,1E-87
256,192,91300,2,6,L|372:192,1,1E-87
156,164,91584,1,0,0:0:0:0:
256,192,91585,2,0,L|372:192,1,1E-87
256,192,91585,2,0,L|372:192,1,1E-87
256,192,91585,2,0,L|372:192,1,1E-87
156,164,91870,1,0,0:0:0:0:
256,192,91871,2,0,L|372:192,1,1E-87
256,192,91871,2,0,L|372:192,1,1E-87
256,192,91871,2,0,L|372:192,1,1E-87
156,164,92156,1,0,0:0:0:0:
256,192,92157,2,0,L|372:192,1,1E-87
256,192,92157,2,0,L|372:192,1,1E-87
256,192,92157,2,0,L|372:192,1,1E-87
156,164,92584,1,0,0:0:0:0:
256,192,92585,2,0,L|372:192,1,1E-87
256,192,92585,2,0,L|372:192,1,1E-87
256,192,92585,2,0,L|372:192,1,1E-87
156,164,92727,1,6,0:0:0:0:
256,192,92728,2,6,L|372:192,1,1E-87
256,192,92728,2,6,L|372:192,1,1E-87
256,192,92728,2,6,L|372:192,1,1E-87
156,164,93013,1,0,0:0:0:0:
256,192,93014,2,0,L|372:192,1,1E-87
256,192,93014,2,0,L|372:192,1,1E-87
256,192,93014,2,0,L|372:192,1,1E-87
156,164,93299,1,0,0:0:0:0:
256,192,93300,2,0,L|372:192,1,1E-87
256,192,93300,2,0,L|372:192,1,1E-87
256,192,93300,2,0,L|372:192,1,1E-87
156,164,93727,1,0,0:0:0:0:
256,192,93728,2,0,L|372:192,1,1E-87
256,192,93728,2,0,L|372:192,1,1E-87
256,192,93728,2,0,L|372:192,1,1E-87
156,164,93870,1,6,0:0:0:0:
256,192,93871,2,6,L|372:192,1,1E-87
256,192,93871,2,6,L|372:192,1,1E-87
256,192,93871,2,6,L|372:192,1,1E-87
156,164,94156,1,0,0:0:0:0:
256,192,94157,2,0,L|372:192,1,1E-87
256,192,94157,2,0,L|372:192,1,1E-87
256,192,94157,2,0,L|372:192,1,1E-87
0,192,94174,6,4,L|288:192,1,-2000
156,164,94299,1,0,0:0:0:0:
256,192,94300,2,0,L|372:192,1,1E-87
256,192,94300,2,0,L|372:192,1,1E-87
256,192,94300,2,0,L|372:192,1,1E-87
156,164,94441,1,6,0:0:0:0:
256,192,94442,2,6,L|372:192,1,1E-87
256,192,94442,2,6,L|372:192,1,1E-87
256,192,94442,2,6,L|372:192,1,1E-87
156,164,94727,1,0,0:0:0:0:
256,192,94728,2,0,L|372:192,1,1E-87
256,192,94728,2,0,L|372:192,1,1E-87
256,192,94728,2,0,L|372:192,1,1E-87
0,192,94745,6,4,L|288:192,1,-2000
156,164,94870,1,0,0:0:0:0:
256,192,94871,2,0,L|372:192,1,1E-87
256,192,94871,2,0,L|372:192,1,1E-87
256,192,94871,2,0,L|372:192,1,1E-87
156,164,95013,1,6,0:0:0:0:
256,192,95014,2,6,L|372:192,1,1E-87
256,192,95014,2,6,L|372:192,1,1E-87
256,192,95014,2,6,L|372:192,1,1E-87
156,164,95156,1,0,0:0:0:0:
256,192,95157,2,0,L|372:192,1,1E-87
256,192,95157,2,0,L|372:192,1,1E-87
256,192,95157,2,0,L|372:192,1,1E-87
156,164,95299,1,6,0:0:0:0:
256,192,95300,2,6,L|372:192,1,1E-87
256,192,95300,2,6,L|372:192,1,1E-87
256,192,95300,2,6,L|372:192,1,1E-87
0,192,95316,6,4,L|288:192,1,-2000
156,164,95441,1,0,0:0:0:0:
256,192,95442,2,0,L|372:192,1,1E-87
256,192,95442,2,0,L|372:192,1,1E-87
256,192,95442,2,0,L|372:192,1,1E-87
156,164,95584,1,6,0:0:0:0:
256,192,95585,2,6,L|372:192,1,1E-87
256,192,95585,2,6,L|372:192,1,1E-87
256,192,95585,2,6,L|372:192,1,1E-87
156,164,95727,1,0,0:0:0:0:
256,192,95728,2,0,L|372:192,1,1E-87
256,192,95728,2,0,L|372:192,1,1E-87
256,192,95728,2,0,L|372:192,1,1E-87
156,164,95870,1,6,0:0:0:0:
256,192,95871,2,6,L|372:192,1,1E-87
256,192,95871,2,6,L|372:192,1,1E-87
256,192,95871,2,6,L|372:192,1,1E-87
0,192,95888,6,4,L|288:192,1,-2000
156,164,96013,1,0,0:0:0:0:
256,192,96014,2,0,L|372:192,1,1E-87
256,192,96014,2,0,L|372:192,1,1E-87
256,192,96014,2,0,L|372:192,1,1E-87
156,164,96156,1,6,0:0:0:0:
256,192,96157,2,6,L|372:192,1,1E-87
256,192,96157,2,6,L|372:192,1,1E-87
256,192,96157,2,6,L|372:192,1,1E-87
156,164,96299,1,0,0:0:0:0:
256,192,96300,2,0,L|372:192,1,1E-87
256,192,96300,2,0,L|372:192,1,1E-87
256,192,96300,2,0,L|372:192,1,1E-87
156,164,96441,1,0,0:0:0:0:
256,192,96442,2,0,L|372:192,1,1E-87
256,192,96442,2,0,L|372:192,1,1E-87
256,192,96442,2,0,L|372:192,1,1E-87
0,192,96459,6,4,L|288:192,1,-2000
156,164,96870,1,0,0:0:0:0:
256,192,96871,2,0,L|372:192,1,1E-87
256,192,96871,2,0,L|372:192,1,1E-87
256,192,96871,2,0,L|372:192,1,1E-87
156,164,97013,1,6,0:0:0:0:
256,192,97014,2,6,L|372:192,1,1E-87
256,192,97014,2,6,L|372:192,1,1E-87
256,192,97014,2,6,L|372:192,1,1E-87
0,192,97031,6,4,L|288:192,1,-2000
156,164,97299,1,0,0:0:0:0:
256,192,97300,2,0,L|372:192,1,1E-87
256,192,97300,2,0,L|372:192,1,1E-87
256,192,97300,2,0,L|372:192,1,1E-87
156,164,97584,1,0,0:0:0:0:
256,192,97585,2,0,L|372:192,1,1E-87
256,192,97585,2,0,L|372:192,1,1E-87
256,192,97585,2,0,L|372:192,1,1E-87
0,192,97602,6,4,L|288:192,1,-2000
156,164,98013,1,0,0:0:0:0:
256,192,98014,2,0,L|372:192,1,1E-87
256,192,98014,2,0,L|372:192,1,1E-87
256,192,98014,2,0,L|372:192,1,1E-87
156,164,98156,1,6,0:0:0:0:
256,192,98157,2,6,L|372:192,1,1E-87
256,192,98157,2,6,L|372:192,1,1E-87
256,192,98157,2,6,L|372:192,1,1E-87
0,192,98174,6,4,L|288:192,1,-2000
156,164,98727,1,0,0:0:0:0:
256,192,98728,2,0,L|372:192,1,1E-87
256,192,98728,2,0,L|372:192,1,1E-87
256,192,98728,2,0,L|372:192,1,1E-87
0,192,98745,6,4,L|288:192,1,-2000
156,164,99156,1,0,0:0:0:0:
256,192,99157,2,0,L|372:192,1,1E-87
256,192,99157,2,0,L|372:192,1,1E-87
256,192,99157,2,0,L|372:192,1,1E-87
156,164,99299,1,6,0:0:0:0:
256,192,99300,2,6,L|372:192,1,1E-87
256,192,99300,2,6,L|372:192,1,1E-87
256,192,99300,2,6,L|372:192,1,1E-87
0,192,99316,6,4,L|288:192,1,-2000
156,164,99727,1,0,0:0:0:0:
256,192,99728,2,0,L|372:192,1,1E-87
256,192,99728,2,0,L|372:192,1,1E-87
256,192,99728,2,0,L|372:192,1,1E-87
156,164,99870,1,0,0:0:0:0:
256,192,99871,2,0,L|372:192,1,1E-87
256,192,99871,2,0,L|372:192,1,1E-87
256,192,99871,2,0,L|372:192,1,1E-87
0,192,99888,6,4,L|288:192,1,-2000
156,164,100013,1,0,0:0:0:0:
256,192,100014,2,0,L|372:192,1,1E-87
256,192,100014,2,0,L|372:192,1,1E-87
256,192,100014,2,0,L|372:192,1,1E-87
156,164,100299,1,0,0:0:0:0:
256,192,100300,2,0,L|372:192,1,1E-87
256,192,100300,2,0,L|372:192,1,1E-87
256,192,100300,2,0,L|372:192,1,1E-87
156,164,100441,1,6,0:0:0:0:
256,192,100442,2,6,L|372:192,1,1E-87
256,192,100442,2,6,L|372:192,1,1E-87
256,192,100442,2,6,L|372:192,1,1E-87
0,192,100459,6,4,L|288:192,1,-2000
156,164,100727,1,0,0:0:0:0:
256,192,100728,2,0,L|372:192,1,1E-87
256,192,100728,2,0,L|372:192,1,1E-87
256,192,100728,2,0,L|372:192,1,1E-87
156,164,101013,1,0,0:0:0:0:
256,192,101014,2,0,L|372:192,1,1E-87
256,192,101014,2,0,L|372:192,1,1E-87
256,192,101014,2,0,L|372:192,1,1E-87
0,192,101031,6,4,L|288:192,1,-2000
156,164,101156,1,0,0:0:0:0:
256,192,101157,2,0,L|372:192,1,1E-87
256,192,101157,2,0,L|372:192,1,1E-87
256,192,101157,2,0,L|372:192,1,1E-87
156,164,101299,1,0,0:0:0:0:
256,192,101300,2,0,L|372:192,1,1E-87
256,192,101300,2,0,L|372:192,1,1E-87
256,192,101300,2,0,L|372:192,1,1E-87
156,164,101441,1,0,0:0:0:0:
256,192,101442,2,0,L|372:192,1,1E-87
256,192,101442,2,0,L|372:192,1,1E-87
256,192,101442,2,0,L|372:192,1,1E-87
156,164,101584,1,0,0:0:0:0:
256,192,101585,2,0,L|372:192,1,1E-87
256,192,101585,2,0,L|372:192,1,1E-87
256,192,101585,2,0,L|372:192,1,1E-87
0,192,101602,6,4,L|288:192,1,-2000
156,164,101727,1,0,0:0:0:0:
256,192,101728,2,0,L|372:192,1,1E-87
256,192,101728,2,0,L|372:192,1,1E-87
256,192,101728,2,0,L|372:192,1,1E-87
156,164,101870,1,0,0:0:0:0:
256,192,101871,2,0,L|372:192,1,1E-87
256,192,101871,2,0,L|372:192,1,1E-87
256,192,101871,2,0,L|372:192,1,1E-87
156,164,102013,1,0,0:0:0:0:
256,192,102014,2,0,L|372:192,1,1E-87
256,192,102014,2,0,L|372:192,1,1E-87
256,192,102014,2,0,L|372:192,1,1E-87
156,164,102156,1,0,0:0:0:0:
256,192,102157,2,0,L|372:192,1,1E-87
256,192,102157,2,0,L|372:192,1,1E-87
256,192,102157,2,0,L|372:192,1,1E-87
0,192,102174,6,4,L|288:192,1,-2000
156,164,102227,1,0,0:0:0:0:
256,192,102228,2,0,L|372:192,1,1E-87
256,192,102228,2,0,L|372:192,1,1E-87
256,192,102228,2,0,L|372:192,1,1E-87
156,164,102298,1,0,0:0:0:0:
256,192,102299,2,0,L|372:192,1,1E-87
256,192,102299,2,0,L|372:192,1,1E-87
256,192,102299,2,0,L|372:192,1,1E-87
156,164,102370,1,0,0:0:0:0:
256,192,102371,2,0,L|372:192,1,1E-87
256,192,102371,2,0,L|372:192,1,1E-87
256,192,102371,2,0,L|372:192,1,1E-87
156,164,102441,1,0,0:0:0:0:
256,192,102442,2,0,L|372:192,1,1E-87
256,192,102442,2,0,L|372:192,1,1E-87
256,192,102442,2,0,L|372:192,1,1E-87
156,164,102513,1,0,0:0:0:0:
256,192,102514,2,0,L|372:192,1,1E-87
256,192,102514,2,0,L|372:192,1,1E-87
256,192,102514,2,0,L|372:192,1,1E-87
156,164,102584,1,0,0:0:0:0:
256,192,102585,2,0,L|372:192,1,1E-87
256,192,102585,2,0,L|372:192,1,1E-87
256,192,102585,2,0,L|372:192,1,1E-87
156,164,102656,1,0,0:0:0:0:
256,192,102657,2,0,L|372:192,1,1E-87
256,192,102657,2,0,L|372:192,1,1E-87
256,192,102657,2,0,L|372:192,1,1E-87
352,212,102728,1,2,0:0:0:0:
312,208,102799,1,2,0:0:0:0:
312,208,102870,1,2,0:0:0:0:
312,208,102941,1,2,0:0:0:0:
312,208,103013,1,2,0:0:0:0:
312,208,103084,1,2,0:0:0:0:
312,208,103156,1,2,0:0:0:0:
312,208,103227,1,2,0:0:0:0:
376,312,103300,1,4,0:0:0:0:
364,116,103443,1,4,0:0:0:0:
364,116,103585,1,6,0:0:0:0:
364,116,103728,1,6,0:0:0:0:
320,148,103871,1,4,0:0:0:0:
320,148,104157,1,4,0:0:0:0:
320,148,104300,1,6,0:0:0:0:
320,148,104585,1,6,0:0:0:0:
312,156,104728,1,4,0:0:0:0:
312,156,104871,1,6,0:0:0:0:
312,156,105014,1,6,0:0:0:0:
392,108,105157,1,4,0:0:0:0:
296,168,105300,1,4,0:0:0:0:
384,120,105443,1,6,0:0:0:0:
312,144,105871,1,6,0:0:0:0:
320,160,106727,1,2,0:0:0:0:
320,160,106800,1,2,0:0:0:0:
320,160,106871,1,2,0:0:0:0:
320,160,106943,1,2,0:0:0:0:
320,160,107014,1,2,0:0:0:0:
320,160,107085,1,2,0:0:0:0:
320,160,107157,1,2,0:0:0:0:
320,160,107228,1,2,0:0:0:0:
320,160,107300,1,2,0:0:0:0:
320,160,107371,1,2,0:0:0:0:
320,160,107443,1,2,0:0:0:0:
320,160,107514,1,2,0:0:0:0:
296,124,107585,1,4,0:0:0:0:
200,160,107871,1,0,0:0:0:0:
200,160,107943,1,0,0:0:0:0:
200,160,108014,1,0,0:0:0:0:
200,160,108085,1,0,0:0:0:0:
344,168,108157,1,6,0:0:0:0:
344,168,108300,1,6,0:0:0:0:
348,176,108443,1,0,0:0:0:0:
272,92,108514,1,2,0:0:0:0:
256,112,108585,1,0,0:0:0:0:
256,112,108657,1,0,0:0:0:0:
344,168,108728,1,6,0:0:0:0:
368,160,108871,1,6,0:0:0:0:
324,128,109014,1,0,0:0:0:0:
324,128,109085,1,0,0:0:0:0:
324,128,109157,1,2,0:0:0:0:
324,128,109228,1,0,0:0:0:0:
368,160,109300,1,6,0:0:0:0:
368,160,109443,1,6,0:0:0:0:
300,76,109585,1,2,0:0:0:0:
300,76,109657,1,2,0:0:0:0:
288,80,109728,1,0,0:0:0:0:
288,80,109800,1,0,0:0:0:0:
368,160,109871,1,6,0:0:0:0:
368,160,110014,1,6,0:0:0:0:
296,88,110157,1,0,0:0:0:0:
296,88,110228,1,0,0:0:0:0:
296,88,110300,1,0,0:0:0:0:
296,88,110371,1,0,0:0:0:0:
368,160,110443,1,6,0:0:0:0:
368,160,110585,1,6,0:0:0:0:
412,100,110728,1,0,0:0:0:0:
336,120,110800,1,2,0:0:0:0:
292,108,110871,1,0,0:0:0:0:
328,140,110943,1,0,0:0:0:0:
368,160,111014,1,6,0:0:0:0:
368,160,111157,1,6,0:0:0:0:
312,56,111300,1,2,0:0:0:0:
312,56,111371,1,2,0:0:0:0:
320,80,111443,1,0,0:0:0:0:
308,88,111514,1,0,0:0:0:0:
360,80,111585,1,6,0:0:0:0:
368,160,111728,1,6,0:0:0:0:
288,132,111871,1,6,0:0:0:0:
288,132,111943,1,6,0:0:0:0:
288,132,112014,1,6,0:0:0:0:
288,132,112085,1,6,0:0:0:0:
288,132,112157,1,6,0:0:0:0:
288,132,112300,1,6,0:0:0:0:
432,200,112443,1,0,0:0:0:0:
432,200,112514,1,0,0:0:0:0:
432,200,112585,1,0,0:0:0:0:
432,200,112657,1,0,0:0:0:0:
288,132,112728,1,6,0:0:0:0:
288,132,112871,1,6,0:0:0:0:
320,176,113014,1,0,0:0:0:0:
320,184,113085,1,2,0:0:0:0:
308,200,113157,1,0,0:0:0:0:
308,200,113228,1,0,0:0:0:0:
284,116,113300,1,6,0:0:0:0:
284,116,113443,1,6,0:0:0:0:
420,144,113585,1,0,0:0:0:0:
420,144,113657,1,0,0:0:0:0:
228,64,113728,1,2,0:0:0:0:
224,64,113800,1,0,0:0:0:0:
284,116,113871,1,6,0:0:0:0:
284,116,114014,1,6,0:0:0:0:
304,68,114157,1,2,0:0:0:0:
304,68,114228,1,2,0:0:0:0:
312,64,114300,1,0,0:0:0:0:
312,64,114371,1,0,0:0:0:0:
284,116,114443,1,6,0:0:0:0:
284,116,114585,1,6,0:0:0:0:
344,88,114728,1,0,0:0:0:0:
344,88,114800,1,0,0:0:0:0:
344,88,114871,1,0,0:0:0:0:
344,88,114943,1,0,0:0:0:0:
284,116,115014,1,6,0:0:0:0:
284,116,115157,1,6,0:0:0:0:
340,112,115300,1,0,0:0:0:0:
332,112,115371,1,2,0:0:0:0:
336,116,115443,1,0,0:0:0:0:
336,116,115514,1,0,0:0:0:0:
296,124,115585,1,6,0:0:0:0:
296,124,115728,1,6,0:0:0:0:
276,128,115871,1,2,0:0:0:0:
320,140,115943,1,2,0:0:0:0:
376,96,116014,1,0,0:0:0:0:
288,112,116085,1,0,0:0:0:0:
276,128,116157,1,2,0:0:0:0:
296,96,116228,1,2,0:0:0:0:
376,96,116300,1,0,0:0:0:0:
280,128,116371,1,0,0:0:0:0:
276,128,116443,1,6,0:0:0:0:
280,132,116514,1,6,0:0:0:0:
280,132,116585,1,6,0:0:0:0:
280,132,116657,1,6,0:0:0:0:
280,132,116728,1,6,0:0:0:0:
416,112,117014,1,4,0:0:0:0:
440,224,117156,1,2,0:0:0:0:
440,224,117228,1,2,0:0:0:0:
440,224,117299,1,2,0:0:0:0:
384,104,117443,1,4,0:0:0:0:
296,92,117585,1,2,0:0:0:0:
260,124,117656,1,0,0:0:0:0:
260,124,117728,1,2,0:0:0:0:
384,104,117871,1,4,0:0:0:0:
332,136,118014,1,2,0:0:0:0:
332,136,118085,1,2,0:0:0:0:
332,136,118156,1,2,0:0:0:0:
384,104,118300,1,4,0:0:0:0:
276,88,118442,1,2,0:0:0:0:
252,112,118514,1,0,0:0:0:0:
252,112,118585,1,2,0:0:0:0:
384,104,118728,1,4,0:0:0:0:
268,120,118871,1,2,0:0:0:0:
268,120,118942,1,2,0:0:0:0:
268,120,119014,1,2,0:0:0:0:
384,104,119157,1,4,0:0:0:0:
232,160,119728,1,2,0:0:0:0:
296,192,120014,1,2,0:0:0:0:
296,192,120300,1,2,0:0:0:0:
284,160,120728,1,6,0:0:0:0:
184,204,121014,1,6,0:0:0:0:
0,192,122727,6,4,L|288:192,1,-2000
6,193,123585,2,4,B|132:192|132:192|209:3|209:3|329:364|329:364|408:192|408:192|560:192,1,1050
288,228,123871,5,6,0:0:0:0:
288,228,124062,1,6,0:0:0:0:
172,160,124347,1,4,0:0:0:0:
172,160,124633,1,4,0:0:0:0:
172,160,124919,1,6,0:0:0:0:
296,232,125204,1,0,0:0:0:0:
296,232,125299,1,2,0:0:0:0:
80,208,125460,6,4,L|220:204,1,-90
80,208,125460,6,4,L|220:204,1,-90
80,208,125460,6,4,L|220:204,1,-90
80,208,125460,6,4,L|220:204,1,-90
80,208,125460,6,4,L|220:204,1,-90
188,192,125489,1,0,0:0:0:0:
296,232,125585,1,2,0:0:0:0:
272,264,125775,1,0,0:0:0:0:
280,240,125871,1,0,0:0:0:0:
80,208,126031,6,4,L|220:204,1,-90
80,208,126031,6,4,L|220:204,1,-90
80,208,126031,6,4,L|220:204,1,-90
80,208,126031,6,4,L|220:204,1,-90
80,208,126031,6,4,L|220:204,1,-90
296,232,126062,1,2,0:0:0:0:
244,212,126157,1,2,0:0:0:0:
244,212,126347,1,0,0:0:0:0:
244,212,126443,1,2,0:0:0:0:
80,208,126602,6,4,L|220:204,1,-90
80,208,126602,6,4,L|220:204,1,-90
80,208,126602,6,4,L|220:204,1,-90
80,208,126602,6,4,L|220:204,1,-90
80,208,126602,6,4,L|220:204,1,-90
360,248,126632,1,0,0:0:0:0:
300,252,126728,1,2,0:0:0:0:
260,92,126918,1,0,0:0:0:0:
300,252,127014,1,0,0:0:0:0:
80,208,127174,6,4,L|220:204,1,-90
80,208,127174,6,4,L|220:204,1,-90
80,208,127174,6,4,L|220:204,1,-90
80,208,127174,6,4,L|220:204,1,-90
80,208,127174,6,4,L|220:204,1,-90
244,212,127204,1,2,0:0:0:0:
244,212,127300,1,2,0:0:0:0:
244,212,127489,1,0,0:0:0:0:
244,212,127585,1,2,0:0:0:0:
80,208,127745,6,4,L|220:204,1,-90
80,208,127745,6,4,L|220:204,1,-90
80,208,127745,6,4,L|220:204,1,-90
80,208,127745,6,4,L|220:204,1,-90
80,208,127745,6,4,L|220:204,1,-90
236,144,127775,1,0,0:0:0:0:
316,220,127871,1,2,0:0:0:0:
244,108,128061,1,0,0:0:0:0:
316,220,128157,1,0,0:0:0:0:
80,208,128317,6,4,L|220:204,1,-90
80,208,128317,6,4,L|220:204,1,-90
80,208,128317,6,4,L|220:204,1,-90
80,208,128317,6,4,L|220:204,1,-90
80,208,128317,6,4,L|220:204,1,-90
244,212,128346,1,2,0:0:0:0:
244,212,128442,1,2,0:0:0:0:
220,196,128632,1,0,0:0:0:0:
216,184,128728,1,2,0:0:0:0:
80,208,128888,6,4,L|220:204,1,-90
80,208,128888,6,4,L|220:204,1,-90
80,208,128888,6,4,L|220:204,1,-90
80,208,128888,6,4,L|220:204,1,-90
80,208,128888,6,4,L|220:204,1,-90
296,184,128919,1,0,0:0:0:0:
296,184,129014,1,0,0:0:0:0:
296,184,129109,1,0,0:0:0:0:
296,184,129204,1,0,0:0:0:0:
344,136,129300,1,2,0:0:0:0:
80,208,129460,6,4,L|220:204,1,-90
80,208,129460,6,4,L|220:204,1,-90
80,208,129460,6,4,L|220:204,1,-90
80,208,129460,6,4,L|220:204,1,-90
80,208,129460,6,4,L|220:204,1,-90
344,136,129490,1,6,0:0:0:0:
68,196,129775,1,0,0:0:0:0:
212,244,129870,1,2,0:0:0:0:
80,208,130031,6,4,L|220:204,1,-90
80,208,130031,6,4,L|220:204,1,-90
80,208,130031,6,4,L|220:204,1,-90
80,208,130031,6,4,L|220:204,1,-90
80,208,130031,6,4,L|220:204,1,-90
352,152,130061,1,0,0:0:0:0:
352,116,130157,1,2,0:0:0:0:
352,152,130346,1,0,0:0:0:0:
352,116,130443,1,0,0:0:0:0:
80,208,130602,6,4,L|220:204,1,-90
80,208,130602,6,4,L|220:204,1,-90
80,208,130602,6,4,L|220:204,1,-90
80,208,130602,6,4,L|220:204,1,-90
80,208,130602,6,4,L|220:204,1,-90
68,196,130632,1,2,0:0:0:0:
212,244,130727,1,2,0:0:0:0:
68,196,130918,1,0,0:0:0:0:
212,244,131013,1,2,0:0:0:0:
80,208,131174,6,4,L|220:204,1,-90
80,208,131174,6,4,L|220:204,1,-90
80,208,131174,6,4,L|220:204,1,-90
80,208,131174,6,4,L|220:204,1,-90
80,208,131174,6,4,L|220:204,1,-90
292,128,131204,1,0,0:0:0:0:
252,164,131299,1,2,0:0:0:0:
292,128,131489,1,0,0:0:0:0:
352,116,131585,1,0,0:0:0:0:
80,208,131745,6,4,L|220:204,1,-90
80,208,131745,6,4,L|220:204,1,-90
80,208,131745,6,4,L|220:204,1,-90
80,208,131745,6,4,L|220:204,1,-90
80,208,131745,6,4,L|220:204,1,-90
68,196,131775,1,2,0:0:0:0:
212,244,131870,1,2,0:0:0:0:
68,196,132061,1,0,0:0:0:0:
212,244,132156,1,2,0:0:0:0:
80,208,132317,6,4,L|220:204,1,-90
80,208,132317,6,4,L|220:204,1,-90
80,208,132317,6,4,L|220:204,1,-90
80,208,132317,6,4,L|220:204,1,-90
80,208,132317,6,4,L|220:204,1,-90
316,72,132346,1,0,0:0:0:0:
344,112,132443,1,2,0:0:0:0:
316,84,132632,1,0,0:0:0:0:
344,112,132728,1,0,0:0:0:0:
80,208,132888,6,4,L|220:204,1,-90
80,208,132888,6,4,L|220:204,1,-90
80,208,132888,6,4,L|220:204,1,-90
80,208,132888,6,4,L|220:204,1,-90
80,208,132888,6,4,L|220:204,1,-90
356,128,132919,1,0,0:0:0:0:
364,88,133014,1,2,0:0:0:0:
364,88,133109,1,2,0:0:0:0:
364,88,133204,1,2,0:0:0:0:
344,112,133300,1,0,0:0:0:0:
80,208,133460,6,4,L|220:204,1,-90
80,208,133460,6,4,L|220:204,1,-90
80,208,133460,6,4,L|220:204,1,-90
80,208,133460,6,4,L|220:204,1,-90
80,208,133460,6,4,L|220:204,1,-90
276,64,133490,1,2,0:0:0:0:
344,112,133585,1,0,0:0:0:0:
344,112,133681,1,0,0:0:0:0:
292,112,133776,1,2,0:0:0:0:
312,296,133871,1,0,0:0:0:0:
320,104,134062,1,6,0:0:0:0:
332,264,134346,1,0,0:0:0:0:
332,264,134442,1,2,0:0:0:0:
160,228,134489,2,4,L|524:136,1,-200
300,184,134632,1,0,0:0:0:0:
300,184,134727,1,2,0:0:0:0:
160,228,134775,2,4,L|524:136,1,-200
316,200,134823,1,0,0:0:0:0:
316,200,134918,1,0,0:0:0:0:
316,200,135013,1,0,0:0:0:0:
160,228,135060,2,4,L|524:136,1,-200
316,200,135204,1,2,0:0:0:0:
316,200,135299,1,0,0:0:0:0:
160,228,135346,2,4,L|524:136,1,-200
316,200,135489,1,2,0:0:0:0:
316,200,135585,1,0,0:0:0:0:
160,228,135632,2,4,L|524:136,1,-200
316,200,135775,1,2,0:0:0:0:
316,200,135870,1,0,0:0:0:0:
160,228,135917,2,4,L|524:136,1,-200
316,200,135965,1,0,0:0:0:0:
316,200,136061,1,2,0:0:0:0:
81,192,136084,2,4,B|291:30|291:30|141:143|141:143|121:39|121:39|185:183|128:314|128:314|182:183|146:139|146:139|276:42|276:42|324:111|397:82|397:82|309:118|309:118|462:205|378:329|284:364|135:270|203:129|469:195,2,2012.5
316,200,136346,1,4,0:0:0:0:
160,228,136488,2,4,L|524:136,1,-200
272,104,136632,1,2,0:0:0:0:
272,104,136727,1,0,0:0:0:0:
160,228,136774,2,4,L|524:136,1,-200
184,240,136918,1,2,0:0:0:0:
184,240,137013,1,0,0:0:0:0:
160,228,137060,2,4,L|524:136,1,-200
224,224,137108,1,0,0:0:0:0:
220,228,137204,1,2,0:0:0:0:
220,228,137299,1,0,0:0:0:0:
160,228,137345,2,4,L|524:136,1,-200
220,228,137489,1,2,0:0:0:0:
364,212,137585,1,0,0:0:0:0:
160,228,137631,2,4,L|524:136,1,-200
364,212,137775,1,2,0:0:0:0:
364,212,137870,1,0,0:0:0:0:
160,228,137917,2,4,L|524:136,1,-200
364,212,138061,1,2,0:0:0:0:
364,212,138156,1,0,0:0:0:0:
160,228,138202,2,4,L|524:136,1,-200
364,212,138251,1,0,0:0:0:0:
364,212,138346,1,2,0:0:0:0:
196,27,138370,2,4,B|420:169|420:169|262:67|262:67|353:12|353:12|240:122|97:113|97:113|239:119|268:70|268:70|403:159|403:159|355:228|407:286|407:286|343:216|343:216|314:390|168:353|103:277|141:104|297:120|326:393,2,2012.5
364,212,138632,1,4,0:0:0:0:
160,228,138774,2,4,L|524:136,1,-200
288,216,138918,1,0,0:0:0:0:
288,216,139013,1,2,0:0:0:0:
160,228,139060,2,4,L|524:136,1,-200
288,216,139204,1,0,0:0:0:0:
288,216,139299,1,2,0:0:0:0:
160,228,139346,2,4,L|524:136,1,-200
296,224,139394,1,0,0:0:0:0:
288,216,139489,1,0,0:0:0:0:
288,216,139585,1,2,0:0:0:0:
160,228,139631,2,4,L|524:136,1,-200
288,200,139775,1,2,0:0:0:0:
288,200,139870,1,0,0:0:0:0:
160,228,139917,2,4,L|524:136,1,-200
292,200,140061,1,2,0:0:0:0:
292,200,140156,1,2,0:0:0:0:
160,228,140203,2,4,L|524:136,1,-200
292,200,140251,1,0,0:0:0:0:
312,176,140346,1,0,0:0:0:0:
292,200,140442,1,2,0:0:0:0:
148,312,140459,2,4,B|273:216|273:216|184:283|184:283|172:221|172:221|210:307|176:385|176:385|208:307|187:281|187:281|264:223|264:223|293:264|336:247|336:247|284:268|284:268|375:320|325:394|269:415|180:359|221:275|379:314,2,1198.75
292,200,140632,1,4,0:0:0:0:
4,136,140649,2,4,B|129:40|129:40|40:107|40:107|28:45|28:45|66:131|32:209|32:209|64:131|43:105|43:105|120:47|120:47|149:88|192:71|192:71|140:92|140:92|231:144|181:218|125:239|36:183|77:99|235:138,2,1198.75
288,200,140823,1,4,0:0:0:0:
284,120,140839,2,4,B|409:24|409:24|320:91|320:91|308:29|308:29|346:115|312:193|312:193|344:115|323:89|323:89|400:31|400:31|429:72|472:55|472:55|420:76|420:76|511:128|461:202|405:223|316:167|357:83|515:122,2,1198.75
292,200,141013,1,6,0:0:0:0:
160,228,141060,2,4,L|524:136,1,-200
324,172,141204,1,0,0:0:0:0:
324,172,141299,1,2,0:0:0:0:
160,228,141346,2,4,L|524:136,1,-200
324,172,141489,1,0,0:0:0:0:
324,172,141585,1,0,0:0:0:0:
160,228,141632,2,4,L|524:136,1,-200
324,172,141680,1,0,0:0:0:0:
324,172,141775,1,0,0:0:0:0:
324,172,141870,1,2,0:0:0:0:
400,127,141888,2,4,B|285:337|285:337|366:189|366:189|423:268|423:268|316:172|315:43|315:43|319:171|365:193|365:193|293:323|293:323|229:283|180:334|180:334|238:272|238:272|80:255|104:123|168:59|326:81|320:224|78:267,2,1820
256,96,142156,1,0,0:0:0:0:
160,228,142203,2,4,L|524:136,1,-200
256,96,142346,1,0,0:0:0:0:
256,96,142442,1,0,0:0:0:0:
160,228,142489,2,4,L|524:136,1,-200
264,136,142536,1,0,0:0:0:0:
256,96,142632,1,0,0:0:0:0:
256,96,142727,1,0,0:0:0:0:
160,228,142775,2,4,L|524:136,1,-200
268,184,143013,1,0,0:0:0:0:
0,68,143031,2,4,B|60:22|60:22|17:54|17:54|12:25|12:25|29:66|14:102|14:102|28:66|19:54|19:54|56:26|56:26|69:46|89:38|89:38|65:47|65:47|107:72|83:106|57:117|15:91|35:50|108:70,1,560
268,184,143084,1,0,0:0:0:0:
408,72,143102,2,4,B|467:26|467:26|425:57|425:57|420:28|420:28|437:69|421:106|421:106|436:69|426:57|426:57|463:30|463:30|476:49|496:42|496:42|473:51|473:51|515:76|491:110|465:121|422:94|442:53|516:73,1,560
268,184,143156,1,0,0:0:0:0:
408,308,143174,2,4,B|467:262|467:262|425:294|425:294|420:265|420:265|437:305|421:342|421:342|436:305|426:294|426:294|463:266|463:266|476:286|496:278|496:278|472:287|472:287|515:312|491:346|465:357|422:330|442:290|516:309,1,560
280,176,143227,1,0,0:0:0:0:
20,304,143245,2,4,B|78:258|78:258|37:290|37:290|30:261|30:261|49:301|33:338|33:338|47:301|38:290|38:290|74:262|74:262|88:282|108:274|108:274|84:283|84:283|126:308|103:342|76:353|34:326|54:286|128:305,1,560
316,140,143299,1,6,0:0:0:0:
428,20,143315,6,4,B|860:236|860:236|424:16|424:16,1,962.5
404,136,143583,1,4,0:0:0:0:
312,32,143601,6,4,B|744:248|744:248|308:28|308:28,1,962.5
320,148,143869,1,6,0:0:0:0:
200,44,143887,6,4,B|632:260|632:260|196:40|196:40,1,962.5
320,148,144155,1,4,0:0:0:0:
0,152,144173,6,4,B|432:368|432:368|-4:148|-4:148,1,962.5
320,148,144440,1,6,0:0:0:0:
0,0,144458,6,4,B|432:216|432:216|-4:-4|-4:-4,1,962.5
320,148,144726,1,6,0:0:0:0:
24,44,144744,6,0,L|424:24,1,350
332,184,144870,1,4,0:0:0:0:
160,180,144887,6,0,L|528:160,1,350
304,180,145012,1,4,0:0:0:0:
0,180,145030,6,4,B|432:396|432:396|-4:176|-4:176,1,962.5
304,180,145298,1,4,0:0:0:0:
264,268,145315,6,0,L|632:248,1,350
312,104,145440,1,6,0:0:0:0:
264,268,145458,6,0,L|632:248,1,350
304,84,145583,1,6,0:0:0:0:
4,216,145601,6,4,B|436:432|436:432|0:212|0:212,1,962.5
304,84,145869,1,6,0:0:0:0:
264,268,145887,6,0,L|632:248,1,350
328,72,146012,1,6,0:0:0:0:
264,268,146030,6,0,L|632:248,1,350
296,148,146155,1,4,0:0:0:0:
0,220,146173,6,4,B|432:436|432:436|-4:216|-4:216,1,962.5
360,128,146440,1,4,0:0:0:0:
120,140,146458,6,0,L|520:120,1,350
360,128,146583,1,4,0:0:0:0:
160,280,146601,6,0,L|560:260,1,350
356,132,146726,1,6,0:0:0:0:
136,184,146744,6,0,L|536:164,1,350
236,52,146869,1,6,0:0:0:0:
120,84,146887,6,0,L|520:64,1,350
200,88,147012,1,4,0:0:0:0:
156,236,147030,6,4,L|556:216,1,350
200,96,147299,1,2,0:0:0:0:
336,176,147370,1,2,0:0:0:0:
200,96,147442,1,2,0:0:0:0:
160,192,147655,6,0,L|236:192,1,-70
160,192,147655,6,0,L|236:192,1,-70
128,136,147727,1,4,0:0:0:0:
312,96,147869,1,2,0:0:0:0:
320,168,147940,1,2,0:0:0:0:
388,88,148012,1,2,0:0:0:0:
160,192,148083,6,0,L|236:192,1,-70
160,192,148083,6,0,L|236:192,1,-70
456,136,148155,1,4,0:0:0:0:
384,112,148298,1,2,0:0:0:0:
160,192,148369,6,0,L|236:192,1,-70
160,192,148369,6,0,L|236:192,1,-70
456,136,148440,1,4,0:0:0:0:
384,112,148583,1,2,0:0:0:0:
300,112,148655,1,2,0:0:0:0:
384,112,148726,1,2,0:0:0:0:
160,192,148798,6,0,L|236:192,1,-70
160,192,148798,6,0,L|236:192,1,-70
456,136,148869,1,4,0:0:0:0:
300,112,149012,1,2,0:0:0:0:
300,112,149083,1,2,0:0:0:0:
304,100,149155,1,2,0:0:0:0:
160,192,149226,6,0,L|236:192,1,-70
160,192,149226,6,0,L|236:192,1,-70
456,136,149298,1,4,0:0:0:0:
304,100,149440,1,2,0:0:0:0:
160,192,149512,6,0,L|236:192,1,-70
160,192,149512,6,0,L|236:192,1,-70
456,136,149583,1,4,0:0:0:0:
304,100,149726,1,2,0:0:0:0:
304,100,149798,1,2,0:0:0:0:
304,100,149869,1,2,0:0:0:0:
160,192,149940,6,0,L|236:192,1,-70
160,192,149940,6,0,L|236:192,1,-70
456,136,150012,1,4,0:0:0:0:
304,100,150155,1,2,0:0:0:0:
304,100,150226,1,2,0:0:0:0:
304,100,150298,1,2,0:0:0:0:
160,192,150369,6,0,L|236:192,1,-70
160,192,150369,6,0,L|236:192,1,-70
456,136,150440,1,4,0:0:0:0:
304,100,150583,1,2,0:0:0:0:
160,192,150655,6,0,L|236:192,1,-70
160,192,150655,6,0,L|236:192,1,-70
456,136,150726,1,4,0:0:0:0:
304,100,150869,1,2,0:0:0:0:
304,100,150940,1,2,0:0:0:0:
304,100,151012,1,2,0:0:0:0:
456,136,151155,1,4,0:0:0:0:
456,136,151440,1,6,0:0:0:0:
456,136,151583,1,4,0:0:0:0:
456,136,151869,1,4,0:0:0:0:
456,136,152012,1,6,0:0:0:0:
160,192,152226,6,0,L|236:192,1,-70
160,192,152226,6,0,L|236:192,1,-70
332,224,152298,1,6,0:0:0:0:
332,160,152440,1,0,0:0:0:0:
332,160,152512,1,0,0:0:0:0:
332,160,152583,1,2,0:0:0:0:
160,192,152655,6,0,L|236:192,1,-70
160,192,152655,6,0,L|236:192,1,-70
436,180,152726,1,4,0:0:0:0:
332,160,152869,1,2,0:0:0:0:
160,192,152940,6,0,L|236:192,1,-70
160,192,152940,6,0,L|236:192,1,-70
436,180,153012,1,4,0:0:0:0:
332,160,153155,1,2,0:0:0:0:
332,160,153226,1,2,0:0:0:0:
332,160,153298,1,0,0:0:0:0:
160,192,153369,6,0,L|236:192,1,-70
160,192,153369,6,0,L|236:192,1,-70
436,180,153440,1,6,0:0:0:0:
332,160,153583,1,0,0:0:0:0:
332,160,153655,1,0,0:0:0:0:
332,160,153726,1,2,0:0:0:0:
160,192,153798,6,0,L|236:192,1,-70
160,192,153798,6,0,L|236:192,1,-70
436,180,153869,1,4,0:0:0:0:
332,160,154012,1,2,0:0:0:0:
160,192,154083,6,0,L|236:192,1,-70
160,192,154083,6,0,L|236:192,1,-70
436,180,154155,1,4,0:0:0:0:
332,160,154298,1,2,0:0:0:0:
332,160,154369,1,2,0:0:0:0:
332,160,154440,1,0,0:0:0:0:
160,192,154512,6,0,L|236:192,1,-70
160,192,154512,6,0,L|236:192,1,-70
436,180,154583,1,6,0:0:0:0:
320,160,154726,1,0,0:0:0:0:
320,160,154798,1,0,0:0:0:0:
320,160,154869,1,2,0:0:0:0:
160,192,154940,6,0,L|236:192,1,-70
160,192,154940,6,0,L|236:192,1,-70
396,120,155012,1,4,0:0:0:0:
308,152,155155,1,2,0:0:0:0:
160,192,155226,6,0,L|236:192,1,-70
160,192,155226,6,0,L|236:192,1,-70
396,120,155298,1,4,0:0:0:0:
312,152,155440,1,2,0:0:0:0:
312,152,155512,1,2,0:0:0:0:
360,136,155583,1,2,0:0:0:0:
160,192,155655,6,0,L|236:192,1,-70
160,192,155655,6,0,L|236:192,1,-70
392,128,155726,1,4,0:0:0:0:
356,116,155869,1,2,0:0:0:0:
160,192,155940,6,0,L|236:192,1,-70
160,192,155940,6,0,L|236:192,1,-70
400,104,156012,1,4,0:0:0:0:
400,104,156155,1,2,0:0:0:0:
160,192,156226,6,0,L|236:192,1,-70
160,192,156226,6,0,L|236:192,1,-70
268,180,156298,1,4,0:0:0:0:
268,180,156440,1,2,0:0:0:0:
368,104,156512,1,2,0:0:0:0:
264,184,156583,1,2,0:0:0:0:
368,104,156655,1,2,0:0:0:0:
264,188,156726,1,2,0:0:0:0:
316,160,156798,1,2,0:0:0:0:
240,200,156869,5,4,0:0:0:0:
256,192,156869,12,0,158012,0:0:0:0:
356,240,157155,5,0,0:0:0:0:
416,164,157226,1,2,0:0:0:0:
356,240,157298,1,0,0:0:0:0:
416,164,157369,1,2,0:0:0:0:
356,240,157440,1,0,0:0:0:0:
408,176,157512,1,0,0:0:0:0:
380,112,157583,1,2,0:0:0:0:
344,160,157655,1,0,0:0:0:0:
328,76,157726,1,2,0:0:0:0:
300,124,157798,1,2,0:0:0:0:
340,160,157869,1,0,0:0:0:0:
284,128,157940,1,0,0:0:0:0:
356,240,158012,5,6,0:0:0:0:
256,192,158012,12,0,159155,0:0:0:0:
332,104,158298,5,2,0:0:0:0:
300,144,158369,1,0,0:0:0:0:
300,144,158440,1,2,0:0:0:0:
288,156,158512,1,0,0:0:0:0:
284,156,158583,1,2,0:0:0:0:
284,156,158655,1,2,0:0:0:0:
268,168,158726,1,0,0:0:0:0:
268,168,158798,1,2,0:0:0:0:
248,184,158869,1,0,0:0:0:0:
248,184,158940,1,2,0:0:0:0:
240,188,159012,1,0,0:0:0:0:
240,188,159083,1,0,0:0:0:0:
236,188,159155,5,6,0:0:0:0:
256,192,159155,12,0,160298,0:0:0:0:
288,72,159440,5,0,0:0:0:0:
288,72,159512,1,2,0:0:0:0:
312,64,159583,1,0,0:0:0:0:
272,108,159655,1,2,0:0:0:0:
264,112,159726,1,0,0:0:0:0:
340,80,159798,1,0,0:0:0:0:
252,28,159869,1,2,0:0:0:0:
272,28,159940,1,2,0:0:0:0:
256,64,160012,1,0,0:0:0:0:
324,48,160083,1,2,0:0:0:0:
288,72,160155,1,0,0:0:0:0:
304,32,160226,1,0,0:0:0:0:
268,76,160298,5,6,0:0:0:0:
256,192,160298,12,0,161440,0:0:0:0:
276,184,160583,5,2,0:0:0:0:
240,212,160655,1,0,0:0:0:0:
344,76,160726,1,2,0:0:0:0:
260,148,160798,1,0,0:0:0:0:
336,64,160869,1,2,0:0:0:0:
240,220,160940,1,0,0:0:0:0:
316,108,161012,1,0,0:0:0:0:
316,108,161083,1,2,0:0:0:0:
304,104,161155,1,0,0:0:0:0:
304,104,161226,1,2,0:0:0:0:
304,104,161298,1,0,0:0:0:0:
304,104,161369,1,0,0:0:0:0:
300,48,161440,5,6,0:0:0:0:
256,192,161440,12,0,162583,0:0:0:0:
340,156,161726,5,0,0:0:0:0:
304,184,161798,1,2,0:0:0:0:
256,216,161869,1,0,0:0:0:0:
256,216,161940,1,2,0:0:0:0:
380,108,162012,1,0,0:0:0:0:
312,112,162083,1,0,0:0:0:0:
324,32,162155,1,2,0:0:0:0:
332,40,162226,1,0,0:0:0:0:
328,44,162298,1,2,0:0:0:0:
328,44,162369,1,2,0:0:0:0:
308,72,162440,1,2,0:0:0:0:
296,84,162512,1,0,0:0:0:0:
272,96,162583,5,6,0:0:0:0:
256,192,162583,12,0,163726,0:0:0:0:
324,32,162869,5,2,0:0:0:0:
300,72,162940,1,0,0:0:0:0:
296,72,163012,1,2,0:0:0:0:
400,84,163083,1,0,0:0:0:0:
392,88,163155,1,2,0:0:0:0:
292,72,163226,1,0,0:0:0:0:
216,260,163298,1,0,0:0:0:0:
456,80,163369,1,2,0:0:0:0:
216,260,163440,1,0,0:0:0:0:
456,80,163512,1,2,0:0:0:0:
456,80,163583,1,2,0:0:0:0:
340,104,163655,1,2,0:0:0:0:
272,156,163726,1,0,0:0:0:0:
224,224,163869,5,6,0:0:0:0:
168,160,163870,2,6,L|200:160,1,1E-13
80,212,163872,2,2,L|108:212,1,1E-13
80,212,163872,2,2,L|108:212,1,1E-13
80,212,163872,2,2,L|108:212,1,1E-13
80,212,163872,2,2,L|108:212,1,1E-13
80,212,163872,2,2,L|108:212,1,1E-13
80,212,163872,2,2,L|108:212,1,1E-13
80,212,163872,2,2,L|108:212,1,1E-13
80,212,163872,2,2,L|108:212,1,1E-13
80,212,163872,2,2,L|108:212,1,1E-13
80,212,163872,2,2,L|108:212,1,1E-13
80,212,163872,2,2,L|108:212,1,1E-13
224,224,164419,5,4,0:0:0:0:
168,160,164420,2,4,L|200:160,1,1E-13
80,212,164422,2,0,L|108:212,1,1E-13
80,212,164422,2,0,L|108:212,1,1E-13
80,212,164422,2,0,L|108:212,1,1E-13
80,212,164422,2,0,L|108:212,1,1E-13
80,212,164422,2,0,L|108:212,1,1E-13
80,212,164422,2,0,L|108:212,1,1E-13
80,212,164422,2,0,L|108:212,1,1E-13
80,212,164422,2,0,L|108:212,1,1E-13
80,212,164422,2,0,L|108:212,1,1E-13
80,212,164422,2,0,L|108:212,1,1E-13
80,212,164422,2,0,L|108:212,1,1E-13
224,224,164969,5,6,0:0:0:0:
168,160,164970,2,6,L|200:160,1,1E-13
80,212,164972,2,2,L|108:212,1,1E-13
80,212,164972,2,2,L|108:212,1,1E-13
80,212,164972,2,2,L|108:212,1,1E-13
80,212,164972,2,2,L|108:212,1,1E-13
80,212,164972,2,2,L|108:212,1,1E-13
80,212,164972,2,2,L|108:212,1,1E-13
80,212,164972,2,2,L|108:212,1,1E-13
80,212,164972,2,2,L|108:212,1,1E-13
80,212,164972,2,2,L|108:212,1,1E-13
80,212,164972,2,2,L|108:212,1,1E-13
80,212,164972,2,2,L|108:212,1,1E-13
224,224,165520,5,4,0:0:0:0:
168,160,165521,2,4,L|200:160,1,1E-13
80,212,165523,2,0,L|108:212,1,1E-13
80,212,165523,2,0,L|108:212,1,1E-13
80,212,165523,2,0,L|108:212,1,1E-13
80,212,165523,2,0,L|108:212,1,1E-13
80,212,165523,2,0,L|108:212,1,1E-13
80,212,165523,2,0,L|108:212,1,1E-13
80,212,165523,2,0,L|108:212,1,1E-13
80,212,165523,2,0,L|108:212,1,1E-13
80,212,165523,2,0,L|108:212,1,1E-13
80,212,165523,2,0,L|108:212,1,1E-13
80,212,165523,2,0,L|108:212,1,1E-13
224,224,167015,5,4,0:0:0:0:
168,160,167016,2,4,L|200:160,1,1E-13
80,212,167018,2,0,L|108:212,1,1E-13
80,212,167018,2,0,L|108:212,1,1E-13
80,212,167018,2,0,L|108:212,1,1E-13
80,212,167018,2,0,L|108:212,1,1E-13
80,212,167018,2,0,L|108:212,1,1E-13
80,212,167018,2,0,L|108:212,1,1E-13
80,212,167018,2,0,L|108:212,1,1E-13
80,212,167018,2,0,L|108:212,1,1E-13
80,212,167018,2,0,L|108:212,1,1E-13
80,212,167018,2,0,L|108:212,1,1E-13
80,212,167018,2,0,L|108:212,1,1E-13
224,224,167500,5,6,0:0:0:0:
168,160,167501,2,6,L|200:160,1,1E-13
80,212,167503,2,2,L|108:212,1,1E-13
80,212,167503,2,2,L|108:212,1,1E-13
80,212,167503,2,2,L|108:212,1,1E-13
80,212,167503,2,2,L|108:212,1,1E-13
80,212,167503,2,2,L|108:212,1,1E-13
80,212,167503,2,2,L|108:212,1,1E-13
80,212,167503,2,2,L|108:212,1,1E-13
80,212,167503,2,2,L|108:212,1,1E-13
80,212,167503,2,2,L|108:212,1,1E-13
80,212,167503,2,2,L|108:212,1,1E-13
80,212,167503,2,2,L|108:212,1,1E-13
224,224,167986,5,6,0:0:0:0:
168,160,167987,2,6,L|200:160,1,1E-13
80,212,167989,2,2,L|108:212,1,1E-13
80,212,167989,2,2,L|108:212,1,1E-13
80,212,167989,2,2,L|108:212,1,1E-13
80,212,167989,2,2,L|108:212,1,1E-13
80,212,167989,2,2,L|108:212,1,1E-13
80,212,167989,2,2,L|108:212,1,1E-13
80,212,167989,2,2,L|108:212,1,1E-13
80,212,167989,2,2,L|108:212,1,1E-13
80,212,167989,2,2,L|108:212,1,1E-13
80,212,167989,2,2,L|108:212,1,1E-13
80,212,167989,2,2,L|108:212,1,1E-13
224,224,168472,5,4,0:0:0:0:
168,160,168473,2,4,L|200:160,1,1E-13
80,212,168475,2,0,L|108:212,1,1E-13
80,212,168475,2,0,L|108:212,1,1E-13
80,212,168475,2,0,L|108:212,1,1E-13
80,212,168475,2,0,L|108:212,1,1E-13
80,212,168475,2,0,L|108:212,1,1E-13
80,212,168475,2,0,L|108:212,1,1E-13
80,212,168475,2,0,L|108:212,1,1E-13
80,212,168475,2,0,L|108:212,1,1E-13
80,212,168475,2,0,L|108:212,1,1E-13
80,212,168475,2,0,L|108:212,1,1E-13
80,212,168475,2,0,L|108:212,1,1E-13
360,176,170850,5,6,0:0:0:0:
360,176,171090,1,6,0:0:0:0:
20,192,171300,2,4,B|120:148|128:64|128:64|96:276|164:372|272:376|360:348|384:264|376:120|260:52|260:52|336:128|456:140|456:140|336:128|260:52|260:52|304:20|304:20|416:-92|492:60|440:108|296:92|352:-8|352:-8,49,1680
156,164,171810,1,2,0:0:0:0:
256,192,171811,2,2,L|372:192,1,1E-87
256,192,171811,2,2,L|372:192,1,1E-87
256,192,171811,2,2,L|372:192,1,1E-87
156,164,171870,1,2,0:0:0:0:
256,192,171871,2,2,L|372:192,1,1E-87
256,192,171871,2,2,L|372:192,1,1E-87
256,192,171871,2,2,L|372:192,1,1E-87
156,164,171930,1,2,0:0:0:0:
256,192,171931,2,2,L|372:192,1,1E-87
256,192,171931,2,2,L|372:192,1,1E-87
256,192,171931,2,2,L|372:192,1,1E-87
156,164,172050,1,0,0:0:0:0:
256,192,172051,2,0,L|372:192,1,1E-87
256,192,172051,2,0,L|372:192,1,1E-87
256,192,172051,2,0,L|372:192,1,1E-87
156,164,172170,1,2,0:0:0:0:
256,192,172171,2,2,L|372:192,1,1E-87
256,192,172171,2,2,L|372:192,1,1E-87
256,192,172171,2,2,L|372:192,1,1E-87
156,164,172230,1,2,0:0:0:0:
256,192,172231,2,2,L|372:192,1,1E-87
256,192,172231,2,2,L|372:192,1,1E-87
256,192,172231,2,2,L|372:192,1,1E-87
156,164,172290,1,2,0:0:0:0:
256,192,172291,2,2,L|372:192,1,1E-87
256,192,172291,2,2,L|372:192,1,1E-87
256,192,172291,2,2,L|372:192,1,1E-87
156,164,172410,1,0,0:0:0:0:
256,192,172411,2,0,L|372:192,1,1E-87
256,192,172411,2,0,L|372:192,1,1E-87
256,192,172411,2,0,L|372:192,1,1E-87
156,164,172530,1,0,0:0:0:0:
256,192,172531,2,0,L|372:192,1,1E-87
256,192,172531,2,0,L|372:192,1,1E-87
256,192,172531,2,0,L|372:192,1,1E-87
156,164,172650,1,2,0:0:0:0:
256,192,172651,2,2,L|372:192,1,1E-87
256,192,172651,2,2,L|372:192,1,1E-87
256,192,172651,2,2,L|372:192,1,1E-87
156,164,172710,1,2,0:0:0:0:
256,192,172711,2,2,L|372:192,1,1E-87
256,192,172711,2,2,L|372:192,1,1E-87
256,192,172711,2,2,L|372:192,1,1E-87
156,164,172770,1,0,0:0:0:0:
256,192,172771,2,0,L|372:192,1,1E-87
256,192,172771,2,0,L|372:192,1,1E-87
256,192,172771,2,0,L|372:192,1,1E-87
156,164,172890,1,2,0:0:0:0:
256,192,172891,2,2,L|372:192,1,1E-87
256,192,172891,2,2,L|372:192,1,1E-87
256,192,172891,2,2,L|372:192,1,1E-87
156,164,173010,1,0,0:0:0:0:
256,192,173011,2,0,L|372:192,1,1E-87
256,192,173011,2,0,L|372:192,1,1E-87
256,192,173011,2,0,L|372:192,1,1E-87
156,164,173130,1,2,0:0:0:0:
256,192,173131,2,2,L|372:192,1,1E-87
256,192,173131,2,2,L|372:192,1,1E-87
256,192,173131,2,2,L|372:192,1,1E-87
156,164,173190,1,2,0:0:0:0:
256,192,173191,2,2,L|372:192,1,1E-87
256,192,173191,2,2,L|372:192,1,1E-87
256,192,173191,2,2,L|372:192,1,1E-87
156,164,173250,1,2,0:0:0:0:
256,192,173251,2,2,L|372:192,1,1E-87
256,192,173251,2,2,L|372:192,1,1E-87
256,192,173251,2,2,L|372:192,1,1E-87
156,164,173370,1,0,0:0:0:0:
256,192,173371,2,0,L|372:192,1,1E-87
256,192,173371,2,0,L|372:192,1,1E-87
256,192,173371,2,0,L|372:192,1,1E-87
156,164,173490,1,2,0:0:0:0:
256,192,173491,2,2,L|372:192,1,1E-87
256,192,173491,2,2,L|372:192,1,1E-87
256,192,173491,2,2,L|372:192,1,1E-87
156,164,173550,1,2,0:0:0:0:
256,192,173551,2,2,L|372:192,1,1E-87
256,192,173551,2,2,L|372:192,1,1E-87
256,192,173551,2,2,L|372:192,1,1E-87
156,164,173610,1,0,0:0:0:0:
256,192,173611,2,0,L|372:192,1,1E-87
256,192,173611,2,0,L|372:192,1,1E-87
256,192,173611,2,0,L|372:192,1,1E-87
156,164,173670,1,0,0:0:0:0:
256,192,173671,2,0,L|372:192,1,1E-87
256,192,173671,2,0,L|372:192,1,1E-87
256,192,173671,2,0,L|372:192,1,1E-87
156,164,173730,1,2,0:0:0:0:
256,192,173731,2,2,L|372:192,1,1E-87
256,192,173731,2,2,L|372:192,1,1E-87
256,192,173731,2,2,L|372:192,1,1E-87
156,164,173850,1,0,0:0:0:0:
256,192,173851,2,0,L|372:192,1,1E-87
256,192,173851,2,0,L|372:192,1,1E-87
256,192,173851,2,0,L|372:192,1,1E-87
156,164,173910,1,0,0:0:0:0:
256,192,173911,2,0,L|372:192,1,1E-87
256,192,173911,2,0,L|372:192,1,1E-87
256,192,173911,2,0,L|372:192,1,1E-87
156,164,173970,1,0,0:0:0:0:
256,192,173971,2,0,L|372:192,1,1E-87
256,192,173971,2,0,L|372:192,1,1E-87
256,192,173971,2,0,L|372:192,1,1E-87
156,164,174090,1,2,0:0:0:0:
256,192,174091,2,2,L|372:192,1,1E-87
256,192,174091,2,2,L|372:192,1,1E-87
256,192,174091,2,2,L|372:192,1,1E-87
156,164,174210,1,0,0:0:0:0:
256,192,174211,2,0,L|372:192,1,1E-87
256,192,174211,2,0,L|372:192,1,1E-87
256,192,174211,2,0,L|372:192,1,1E-87
156,164,174270,1,0,0:0:0:0:
256,192,174271,2,0,L|372:192,1,1E-87
256,192,174271,2,0,L|372:192,1,1E-87
256,192,174271,2,0,L|372:192,1,1E-87
156,164,174330,1,2,0:0:0:0:
256,192,174331,2,2,L|372:192,1,1E-87
256,192,174331,2,2,L|372:192,1,1E-87
256,192,174331,2,2,L|372:192,1,1E-87
156,164,174450,1,0,0:0:0:0:
256,192,174451,2,0,L|372:192,1,1E-87
256,192,174451,2,0,L|372:192,1,1E-87
256,192,174451,2,0,L|372:192,1,1E-87
156,164,174570,1,2,0:0:0:0:
256,192,174571,2,2,L|372:192,1,1E-87
256,192,174571,2,2,L|372:192,1,1E-87
256,192,174571,2,2,L|372:192,1,1E-87
156,164,174630,1,2,0:0:0:0:
256,192,174631,2,2,L|372:192,1,1E-87
256,192,174631,2,2,L|372:192,1,1E-87
256,192,174631,2,2,L|372:192,1,1E-87
156,164,174690,1,2,0:0:0:0:
256,192,174691,2,2,L|372:192,1,1E-87
256,192,174691,2,2,L|372:192,1,1E-87
256,192,174691,2,2,L|372:192,1,1E-87
156,164,174810,1,2,0:0:0:0:
256,192,174811,2,2,L|372:192,1,1E-87
256,192,174811,2,2,L|372:192,1,1E-87
256,192,174811,2,2,L|372:192,1,1E-87
156,164,174930,1,0,0:0:0:0:
256,192,174931,2,0,L|372:192,1,1E-87
256,192,174931,2,0,L|372:192,1,1E-87
256,192,174931,2,0,L|372:192,1,1E-87
156,164,174990,1,0,0:0:0:0:
256,192,174991,2,0,L|372:192,1,1E-87
256,192,174991,2,0,L|372:192,1,1E-87
256,192,174991,2,0,L|372:192,1,1E-87
156,164,175050,1,2,0:0:0:0:
256,192,175051,2,2,L|372:192,1,1E-87
256,192,175051,2,2,L|372:192,1,1E-87
256,192,175051,2,2,L|372:192,1,1E-87
156,164,175110,1,2,0:0:0:0:
256,192,175111,2,2,L|372:192,1,1E-87
256,192,175111,2,2,L|372:192,1,1E-87
256,192,175111,2,2,L|372:192,1,1E-87
156,164,175170,1,2,0:0:0:0:
256,192,175171,2,2,L|372:192,1,1E-87
256,192,175171,2,2,L|372:192,1,1E-87
256,192,175171,2,2,L|372:192,1,1E-87
156,164,175290,1,0,0:0:0:0:
256,192,175291,2,0,L|372:192,1,1E-87
256,192,175291,2,0,L|372:192,1,1E-87
256,192,175291,2,0,L|372:192,1,1E-87
156,164,175410,1,2,0:0:0:0:
256,192,175411,2,2,L|372:192,1,1E-87
256,192,175411,2,2,L|372:192,1,1E-87
256,192,175411,2,2,L|372:192,1,1E-87
156,164,175470,1,2,0:0:0:0:
256,192,175471,2,2,L|372:192,1,1E-87
256,192,175471,2,2,L|372:192,1,1E-87
256,192,175471,2,2,L|372:192,1,1E-87
156,164,175530,1,0,0:0:0:0:
256,192,175531,2,0,L|372:192,1,1E-87
256,192,175531,2,0,L|372:192,1,1E-87
256,192,175531,2,0,L|372:192,1,1E-87
156,164,175590,1,0,0:0:0:0:
256,192,175591,2,0,L|372:192,1,1E-87
256,192,175591,2,0,L|372:192,1,1E-87
256,192,175591,2,0,L|372:192,1,1E-87
156,164,175650,1,2,0:0:0:0:
256,192,175651,2,2,L|372:192,1,1E-87
256,192,175651,2,2,L|372:192,1,1E-87
256,192,175651,2,2,L|372:192,1,1E-87
156,164,175770,1,0,0:0:0:0:
256,192,175771,2,0,L|372:192,1,1E-87
256,192,175771,2,0,L|372:192,1,1E-87
256,192,175771,2,0,L|372:192,1,1E-87
156,164,175830,1,0,0:0:0:0:
256,192,175831,2,0,L|372:192,1,1E-87
256,192,175831,2,0,L|372:192,1,1E-87
256,192,175831,2,0,L|372:192,1,1E-87
156,164,175890,1,0,0:0:0:0:
256,192,175891,2,0,L|372:192,1,1E-87
256,192,175891,2,0,L|372:192,1,1E-87
256,192,175891,2,0,L|372:192,1,1E-87
156,164,176010,1,2,0:0:0:0:
256,192,176011,2,2,L|372:192,1,1E-87
256,192,176011,2,2,L|372:192,1,1E-87
256,192,176011,2,2,L|372:192,1,1E-87
156,164,176130,1,0,0:0:0:0:
256,192,176131,2,0,L|372:192,1,1E-87
256,192,176131,2,0,L|372:192,1,1E-87
256,192,176131,2,0,L|372:192,1,1E-87
156,164,176190,1,0,0:0:0:0:
256,192,176191,2,0,L|372:192,1,1E-87
256,192,176191,2,0,L|372:192,1,1E-87
256,192,176191,2,0,L|372:192,1,1E-87
156,164,176250,1,2,0:0:0:0:
256,192,176251,2,2,L|372:192,1,1E-87
256,192,176251,2,2,L|372:192,1,1E-87
256,192,176251,2,2,L|372:192,1,1E-87
156,164,176310,1,2,0:0:0:0:
256,192,176311,2,2,L|372:192,1,1E-87
256,192,176311,2,2,L|372:192,1,1E-87
256,192,176311,2,2,L|372:192,1,1E-87
156,164,176370,1,0,0:0:0:0:
256,192,176371,2,0,L|372:192,1,1E-87
256,192,176371,2,0,L|372:192,1,1E-87
256,192,176371,2,0,L|372:192,1,1E-87
156,164,176490,1,2,0:0:0:0:
256,192,176491,2,2,L|372:192,1,1E-87
256,192,176491,2,2,L|372:192,1,1E-87
256,192,176491,2,2,L|372:192,1,1E-87
156,164,176550,1,2,0:0:0:0:
256,192,176551,2,2,L|372:192,1,1E-87
256,192,176551,2,2,L|372:192,1,1E-87
256,192,176551,2,2,L|372:192,1,1E-87
156,164,176610,1,0,0:0:0:0:
256,192,176611,2,0,L|372:192,1,1E-87
256,192,176611,2,0,L|372:192,1,1E-87
256,192,176611,2,0,L|372:192,1,1E-87
156,164,176670,1,0,0:0:0:0:
256,192,176671,2,0,L|372:192,1,1E-87
256,192,176671,2,0,L|372:192,1,1E-87
256,192,176671,2,0,L|372:192,1,1E-87
156,164,176730,1,2,0:0:0:0:
256,192,176731,2,2,L|372:192,1,1E-87
256,192,176731,2,2,L|372:192,1,1E-87
256,192,176731,2,2,L|372:192,1,1E-87
156,164,176850,1,0,0:0:0:0:
256,192,176851,2,0,L|372:192,1,1E-87
256,192,176851,2,0,L|372:192,1,1E-87
256,192,176851,2,0,L|372:192,1,1E-87
156,164,176970,1,2,0:0:0:0:
256,192,176971,2,2,L|372:192,1,1E-87
256,192,176971,2,2,L|372:192,1,1E-87
256,192,176971,2,2,L|372:192,1,1E-87
156,164,177030,1,2,0:0:0:0:
256,192,177031,2,2,L|372:192,1,1E-87
256,192,177031,2,2,L|372:192,1,1E-87
256,192,177031,2,2,L|372:192,1,1E-87
156,164,177090,1,2,0:0:0:0:
256,192,177091,2,2,L|372:192,1,1E-87
256,192,177091,2,2,L|372:192,1,1E-87
256,192,177091,2,2,L|372:192,1,1E-87
156,164,177210,1,0,0:0:0:0:
256,192,177211,2,0,L|372:192,1,1E-87
256,192,177211,2,0,L|372:192,1,1E-87
256,192,177211,2,0,L|372:192,1,1E-87
156,164,177330,1,2,0:0:0:0:
256,192,177331,2,2,L|372:192,1,1E-87
256,192,177331,2,2,L|372:192,1,1E-87
256,192,177331,2,2,L|372:192,1,1E-87
156,164,177390,1,2,0:0:0:0:
256,192,177391,2,2,L|372:192,1,1E-87
256,192,177391,2,2,L|372:192,1,1E-87
256,192,177391,2,2,L|372:192,1,1E-87
156,164,177450,1,0,0:0:0:0:
256,192,177451,2,0,L|372:192,1,1E-87
256,192,177451,2,0,L|372:192,1,1E-87
256,192,177451,2,0,L|372:192,1,1E-87
156,164,177510,1,0,0:0:0:0:
256,192,177511,2,0,L|372:192,1,1E-87
256,192,177511,2,0,L|372:192,1,1E-87
256,192,177511,2,0,L|372:192,1,1E-87
156,164,177570,1,2,0:0:0:0:
256,192,177571,2,2,L|372:192,1,1E-87
256,192,177571,2,2,L|372:192,1,1E-87
256,192,177571,2,2,L|372:192,1,1E-87
156,164,177690,1,0,0:0:0:0:
256,192,177691,2,0,L|372:192,1,1E-87
256,192,177691,2,0,L|372:192,1,1E-87
256,192,177691,2,0,L|372:192,1,1E-87
156,164,177810,1,2,0:0:0:0:
256,192,177811,2,2,L|372:192,1,1E-87
256,192,177811,2,2,L|372:192,1,1E-87
256,192,177811,2,2,L|372:192,1,1E-87
156,164,177870,1,2,0:0:0:0:
256,192,177871,2,2,L|372:192,1,1E-87
256,192,177871,2,2,L|372:192,1,1E-87
256,192,177871,2,2,L|372:192,1,1E-87
156,164,177930,1,2,0:0:0:0:
256,192,177931,2,2,L|372:192,1,1E-87
256,192,177931,2,2,L|372:192,1,1E-87
256,192,177931,2,2,L|372:192,1,1E-87
156,164,178050,1,0,0:0:0:0:
256,192,178051,2,0,L|372:192,1,1E-87
256,192,178051,2,0,L|372:192,1,1E-87
256,192,178051,2,0,L|372:192,1,1E-87
156,164,178170,1,2,0:0:0:0:
256,192,178171,2,2,L|372:192,1,1E-87
256,192,178171,2,2,L|372:192,1,1E-87
256,192,178171,2,2,L|372:192,1,1E-87
156,164,178230,1,2,0:0:0:0:
256,192,178231,2,2,L|372:192,1,1E-87
256,192,178231,2,2,L|372:192,1,1E-87
256,192,178231,2,2,L|372:192,1,1E-87
156,164,178290,1,0,0:0:0:0:
256,192,178291,2,0,L|372:192,1,1E-87
256,192,178291,2,0,L|372:192,1,1E-87
256,192,178291,2,0,L|372:192,1,1E-87
156,164,178410,1,2,0:0:0:0:
256,192,178411,2,2,L|372:192,1,1E-87
256,192,178411,2,2,L|372:192,1,1E-87
256,192,178411,2,2,L|372:192,1,1E-87
156,164,178470,1,2,0:0:0:0:
256,192,178471,2,2,L|372:192,1,1E-87
256,192,178471,2,2,L|372:192,1,1E-87
256,192,178471,2,2,L|372:192,1,1E-87
156,164,178530,1,2,0:0:0:0:
256,192,178531,2,2,L|372:192,1,1E-87
256,192,178531,2,2,L|372:192,1,1E-87
256,192,178531,2,2,L|372:192,1,1E-87
156,164,178650,1,0,0:0:0:0:
256,192,178651,2,0,L|372:192,1,1E-87
256,192,178651,2,0,L|372:192,1,1E-87
256,192,178651,2,0,L|372:192,1,1E-87
156,164,178770,1,2,0:0:0:0:
256,192,178771,2,2,L|372:192,1,1E-87
256,192,178771,2,2,L|372:192,1,1E-87
256,192,178771,2,2,L|372:192,1,1E-87
156,164,178830,1,2,0:0:0:0:
256,192,178831,2,2,L|372:192,1,1E-87
256,192,178831,2,2,L|372:192,1,1E-87
256,192,178831,2,2,L|372:192,1,1E-87
156,164,178890,1,0,0:0:0:0:
256,192,178891,2,0,L|372:192,1,1E-87
256,192,178891,2,0,L|372:192,1,1E-87
256,192,178891,2,0,L|372:192,1,1E-87
156,164,178950,1,0,0:0:0:0:
256,192,178951,2,0,L|372:192,1,1E-87
256,192,178951,2,0,L|372:192,1,1E-87
256,192,178951,2,0,L|372:192,1,1E-87
156,164,179010,1,2,0:0:0:0:
256,192,179011,2,2,L|372:192,1,1E-87
256,192,179011,2,2,L|372:192,1,1E-87
256,192,179011,2,2,L|372:192,1,1E-87
156,164,179070,1,2,0:0:0:0:
256,192,179071,2,2,L|372:192,1,1E-87
256,192,179071,2,2,L|372:192,1,1E-87
256,192,179071,2,2,L|372:192,1,1E-87
156,164,179130,1,2,0:0:0:0:
256,192,179131,2,2,L|372:192,1,1E-87
256,192,179131,2,2,L|372:192,1,1E-87
256,192,179131,2,2,L|372:192,1,1E-87
156,164,179190,1,2,0:0:0:0:
256,192,179191,2,2,L|372:192,1,1E-87
256,192,179191,2,2,L|372:192,1,1E-87
256,192,179191,2,2,L|372:192,1,1E-87
156,164,179250,1,0,0:0:0:0:
256,192,179251,2,0,L|372:192,1,1E-87
256,192,179251,2,0,L|372:192,1,1E-87
256,192,179251,2,0,L|372:192,1,1E-87
184,188,179490,1,0,0:0:0:0:
156,164,179550,1,8,0:0:0:0:
256,192,179551,2,8,L|372:192,1,1E-87
256,192,179551,2,8,L|372:192,1,1E-87
256,192,179551,2,8,L|372:192,1,1E-87
204,200,179610,1,0,0:0:0:0:
204,200,179670,1,0,0:0:0:0:
156,164,179730,1,8,0:0:0:0:
256,192,179731,2,8,L|372:192,1,1E-87
256,192,179731,2,8,L|372:192,1,1E-87
256,192,179731,2,8,L|372:192,1,1E-87
204,200,179850,1,0,0:0:0:0:
204,200,179910,1,0,0:0:0:0:
208,204,179970,1,0,0:0:0:0:
156,164,180090,1,8,0:0:0:0:
256,192,180091,2,8,L|372:192,1,1E-87
256,192,180091,2,8,L|372:192,1,1E-87
256,192,180091,2,8,L|372:192,1,1E-87
156,164,180150,1,8,0:0:0:0:
256,192,180151,2,8,L|372:192,1,1E-87
256,192,180151,2,8,L|372:192,1,1E-87
256,192,180151,2,8,L|372:192,1,1E-87
176,192,180210,1,0,0:0:0:0:
236,212,180270,1,0,0:0:0:0:
156,164,180330,1,8,0:0:0:0:
256,192,180331,2,8,L|372:192,1,1E-87
256,192,180331,2,8,L|372:192,1,1E-87
256,192,180331,2,8,L|372:192,1,1E-87
156,164,180390,1,8,0:0:0:0:
256,192,180391,2,8,L|372:192,1,1E-87
256,192,180391,2,8,L|372:192,1,1E-87
256,192,180391,2,8,L|372:192,1,1E-87
156,164,180450,1,8,0:0:0:0:
256,192,180451,2,8,L|372:192,1,1E-87
256,192,180451,2,8,L|372:192,1,1E-87
256,192,180451,2,8,L|372:192,1,1E-87
132,180,180510,1,0,0:0:0:0:
156,164,180570,1,8,0:0:0:0:
256,192,180571,2,8,L|372:192,1,1E-87
256,192,180571,2,8,L|372:192,1,1E-87
256,192,180571,2,8,L|372:192,1,1E-87
20,168,180690,1,0,0:0:0:0:
216,208,180750,1,0,0:0:0:0:
156,164,180810,1,8,0:0:0:0:
256,192,180811,2,8,L|372:192,1,1E-87
256,192,180811,2,8,L|372:192,1,1E-87
256,192,180811,2,8,L|372:192,1,1E-87
156,164,180870,1,8,0:0:0:0:
256,192,180871,2,8,L|372:192,1,1E-87
256,192,180871,2,8,L|372:192,1,1E-87
256,192,180871,2,8,L|372:192,1,1E-87
156,164,180930,1,8,0:0:0:0:
256,192,180931,2,8,L|372:192,1,1E-87
256,192,180931,2,8,L|372:192,1,1E-87
256,192,180931,2,8,L|372:192,1,1E-87
340,228,181050,1,0,0:0:0:0:
340,228,181110,1,0,0:0:0:0:
156,164,181170,1,8,0:0:0:0:
256,192,181171,2,8,L|372:192,1,1E-87
256,192,181171,2,8,L|372:192,1,1E-87
256,192,181171,2,8,L|372:192,1,1E-87
156,164,181230,1,8,0:0:0:0:
256,192,181231,2,8,L|372:192,1,1E-87
256,192,181231,2,8,L|372:192,1,1E-87
256,192,181231,2,8,L|372:192,1,1E-87
96,160,181290,1,0,0:0:0:0:
168,172,181350,1,0,0:0:0:0:
156,164,181410,1,8,0:0:0:0:
156,164,181530,1,0,0:0:0:0:
256,192,181531,2,0,L|372:192,1,1E-87
256,192,181531,2,0,L|372:192,1,1E-87
256,192,181531,2,0,L|372:192,1,1E-87
156,164,181590,1,0,0:0:0:0:
256,192,181591,2,0,L|372:192,1,1E-87
256,192,181591,2,0,L|372:192,1,1E-87
256,192,181591,2,0,L|372:192,1,1E-87
156,164,181650,1,0,0:0:0:0:
256,192,181651,2,0,L|372:192,1,1E-87
256,192,181651,2,0,L|372:192,1,1E-87
256,192,181651,2,0,L|372:192,1,1E-87
156,164,181770,1,8,0:0:0:0:
156,164,181830,1,8,0:0:0:0:
156,164,181890,1,0,0:0:0:0:
256,192,181891,2,0,L|372:192,1,1E-87
256,192,181891,2,0,L|372:192,1,1E-87
256,192,181891,2,0,L|372:192,1,1E-87
156,164,181950,1,0,0:0:0:0:
256,192,181951,2,0,L|372:192,1,1E-87
256,192,181951,2,0,L|372:192,1,1E-87
256,192,181951,2,0,L|372:192,1,1E-87
156,164,182010,1,8,0:0:0:0:
156,164,182130,1,0,0:0:0:0:
256,192,182131,2,0,L|372:192,1,1E-87
256,192,182131,2,0,L|372:192,1,1E-87
256,192,182131,2,0,L|372:192,1,1E-87
156,164,182190,1,0,0:0:0:0:
256,192,182191,2,0,L|372:192,1,1E-87
256,192,182191,2,0,L|372:192,1,1E-87
256,192,182191,2,0,L|372:192,1,1E-87
156,164,182250,1,8,0:0:0:0:
156,164,182310,1,0,0:0:0:0:
256,192,182311,2,0,L|372:192,1,1E-87
256,192,182311,2,0,L|372:192,1,1E-87
256,192,182311,2,0,L|372:192,1,1E-87
156,164,182370,1,8,0:0:0:0:
156,164,182430,1,8,0:0:0:0:
156,164,182490,1,8,0:0:0:0:
156,164,182550,1,8,0:0:0:0:
156,164,182610,1,0,0:0:0:0:
256,192,182611,2,0,L|372:192,1,1E-87
256,192,182611,2,0,L|372:192,1,1E-87
256,192,182611,2,0,L|372:192,1,1E-87
156,164,182730,1,0,0:0:0:0:
256,192,182731,2,0,L|372:192,1,1E-87
256,192,182731,2,0,L|372:192,1,1E-87
256,192,182731,2,0,L|372:192,1,1E-87
156,164,182790,1,0,0:0:0:0:
256,192,182791,2,0,L|372:192,1,1E-87
256,192,182791,2,0,L|372:192,1,1E-87
256,192,182791,2,0,L|372:192,1,1E-87
156,164,182850,1,8,0:0:0:0:
156,164,182910,1,0,0:0:0:0:
256,192,182911,2,0,L|372:192,1,1E-87
256,192,182911,2,0,L|372:192,1,1E-87
256,192,182911,2,0,L|372:192,1,1E-87
156,164,182970,1,0,0:0:0:0:
256,192,182971,2,0,L|372:192,1,1E-87
256,192,182971,2,0,L|372:192,1,1E-87
256,192,182971,2,0,L|372:192,1,1E-87
156,164,183030,1,8,0:0:0:0:
156,164,183090,1,0,0:0:0:0:
256,192,183091,2,0,L|372:192,1,1E-87
256,192,183091,2,0,L|372:192,1,1E-87
256,192,183091,2,0,L|372:192,1,1E-87
156,164,183150,1,0,0:0:0:0:
256,192,183151,2,0,L|372:192,1,1E-87
256,192,183151,2,0,L|372:192,1,1E-87
256,192,183151,2,0,L|372:192,1,1E-87
156,164,183210,1,8,0:0:0:0:
156,164,183270,1,8,0:0:0:0:
156,164,183330,1,0,0:0:0:0:
156,164,183450,1,8,0:0:0:0:
256,192,183451,2,8,L|372:192,1,1E-87
256,192,183451,2,8,L|372:192,1,1E-87
256,192,183451,2,8,L|372:192,1,1E-87
156,164,183510,1,8,0:0:0:0:
256,192,183511,2,8,L|372:192,1,1E-87
256,192,183511,2,8,L|372:192,1,1E-87
256,192,183511,2,8,L|372:192,1,1E-87
156,164,183570,1,8,0:0:0:0:
256,192,183571,2,8,L|372:192,1,1E-87
256,192,183571,2,8,L|372:192,1,1E-87
256,192,183571,2,8,L|372:192,1,1E-87
156,164,183690,1,0,0:0:0:0:
156,164,183750,1,0,0:0:0:0:
156,164,183810,1,8,0:0:0:0:
256,192,183811,2,8,L|372:192,1,1E-87
256,192,183811,2,8,L|372:192,1,1E-87
256,192,183811,2,8,L|372:192,1,1E-87
156,164,183870,1,0,0:0:0:0:
156,164,183930,1,8,0:0:0:0:
256,192,183931,2,8,L|372:192,1,1E-87
256,192,183931,2,8,L|372:192,1,1E-87
256,192,183931,2,8,L|372:192,1,1E-87
156,164,183990,1,8,0:0:0:0:
256,192,183991,2,8,L|372:192,1,1E-87
256,192,183991,2,8,L|372:192,1,1E-87
256,192,183991,2,8,L|372:192,1,1E-87
156,164,184050,1,0,0:0:0:0:
156,164,184170,1,8,0:0:0:0:
256,192,184171,2,8,L|372:192,1,1E-87
256,192,184171,2,8,L|372:192,1,1E-87
256,192,184171,2,8,L|372:192,1,1E-87
156,164,184230,1,8,0:0:0:0:
256,192,184231,2,8,L|372:192,1,1E-87
256,192,184231,2,8,L|372:192,1,1E-87
256,192,184231,2,8,L|372:192,1,1E-87
156,164,184290,1,0,0:0:0:0:
156,164,184350,1,0,0:0:0:0:
156,164,184410,1,8,0:0:0:0:
256,192,184411,2,8,L|372:192,1,1E-87
256,192,184411,2,8,L|372:192,1,1E-87
256,192,184411,2,8,L|372:192,1,1E-87
156,164,184470,1,8,0:0:0:0:
256,192,184471,2,8,L|372:192,1,1E-87
256,192,184471,2,8,L|372:192,1,1E-87
256,192,184471,2,8,L|372:192,1,1E-87
156,164,184530,1,0,0:0:0:0:
156,164,184590,1,8,0:0:0:0:
256,192,184591,2,8,L|372:192,1,1E-87
256,192,184591,2,8,L|372:192,1,1E-87
256,192,184591,2,8,L|372:192,1,1E-87
156,164,184650,1,8,0:0:0:0:
256,192,184651,2,8,L|372:192,1,1E-87
256,192,184651,2,8,L|372:192,1,1E-87
256,192,184651,2,8,L|372:192,1,1E-87
156,164,184710,1,0,0:0:0:0:
156,164,184770,1,8,0:0:0:0:
256,192,184771,2,8,L|372:192,1,1E-87
256,192,184771,2,8,L|372:192,1,1E-87
256,192,184771,2,8,L|372:192,1,1E-87
156,164,184830,1,8,0:0:0:0:
256,192,184831,2,8,L|372:192,1,1E-87
256,192,184831,2,8,L|372:192,1,1E-87
256,192,184831,2,8,L|372:192,1,1E-87
156,164,184890,1,0,0:0:0:0:
156,164,185010,1,8,0:0:0:0:
256,192,185011,2,8,L|372:192,1,1E-87
256,192,185011,2,8,L|372:192,1,1E-87
256,192,185011,2,8,L|372:192,1,1E-87
156,164,185070,1,8,0:0:0:0:
256,192,185071,2,8,L|372:192,1,1E-87
256,192,185071,2,8,L|372:192,1,1E-87
256,192,185071,2,8,L|372:192,1,1E-87
156,164,185130,1,0,0:0:0:0:
156,164,185190,1,0,0:0:0:0:
156,164,185250,1,8,0:0:0:0:
156,164,185370,1,0,0:0:0:0:
256,192,185371,2,0,L|372:192,1,1E-87
256,192,185371,2,0,L|372:192,1,1E-87
256,192,185371,2,0,L|372:192,1,1E-87
156,164,185430,1,0,0:0:0:0:
256,192,185431,2,0,L|372:192,1,1E-87
256,192,185431,2,0,L|372:192,1,1E-87
256,192,185431,2,0,L|372:192,1,1E-87
156,164,185490,1,0,0:0:0:0:
256,192,185491,2,0,L|372:192,1,1E-87
256,192,185491,2,0,L|372:192,1,1E-87
256,192,185491,2,0,L|372:192,1,1E-87
156,164,185610,1,8,0:0:0:0:
156,164,185670,1,8,0:0:0:0:
156,164,185730,1,0,0:0:0:0:
256,192,185731,2,0,L|372:192,1,1E-87
256,192,185731,2,0,L|372:192,1,1E-87
256,192,185731,2,0,L|372:192,1,1E-87
156,164,185790,1,0,0:0:0:0:
256,192,185791,2,0,L|372:192,1,1E-87
256,192,185791,2,0,L|372:192,1,1E-87
256,192,185791,2,0,L|372:192,1,1E-87
156,164,185850,1,8,0:0:0:0:
156,164,185910,1,8,0:0:0:0:
156,164,185970,1,8,0:0:0:0:
156,164,186090,1,8,0:0:0:0:
156,164,186150,1,8,0:0:0:0:
156,164,186210,1,0,0:0:0:0:
256,192,186211,2,0,L|372:192,1,1E-87
256,192,186211,2,0,L|372:192,1,1E-87
256,192,186211,2,0,L|372:192,1,1E-87
156,164,186270,1,8,0:0:0:0:
156,164,186330,1,0,0:0:0:0:
256,192,186331,2,0,L|372:192,1,1E-87
256,192,186331,2,0,L|372:192,1,1E-87
256,192,186331,2,0,L|372:192,1,1E-87
156,164,186390,1,0,0:0:0:0:
256,192,186391,2,0,L|372:192,1,1E-87
256,192,186391,2,0,L|372:192,1,1E-87
256,192,186391,2,0,L|372:192,1,1E-87
156,164,186450,1,8,0:0:0:0:
156,164,186570,1,0,0:0:0:0:
256,192,186571,2,0,L|372:192,1,1E-87
256,192,186571,2,0,L|372:192,1,1E-87
256,192,186571,2,0,L|372:192,1,1E-87
156,164,186630,1,0,0:0:0:0:
256,192,186631,2,0,L|372:192,1,1E-87
256,192,186631,2,0,L|372:192,1,1E-87
256,192,186631,2,0,L|372:192,1,1E-87
156,164,186690,1,8,0:0:0:0:
156,164,186750,1,0,0:0:0:0:
256,192,186751,2,0,L|372:192,1,1E-87
256,192,186751,2,0,L|372:192,1,1E-87
256,192,186751,2,0,L|372:192,1,1E-87
156,164,186810,1,8,0:0:0:0:
156,164,186870,1,0,0:0:0:0:
256,192,186871,2,0,L|372:192,1,1E-87
256,192,186871,2,0,L|372:192,1,1E-87
256,192,186871,2,0,L|372:192,1,1E-87
156,164,186930,1,8,0:0:0:0:
156,164,186990,1,8,0:0:0:0:
156,164,187050,1,8,0:0:0:0:
156,164,187110,1,8,0:0:0:0:
156,164,187170,1,0,0:0:0:0:
156,164,187290,1,8,0:0:0:0:
256,192,187291,2,8,L|372:192,1,1E-87
256,192,187291,2,8,L|372:192,1,1E-87
256,192,187291,2,8,L|372:192,1,1E-87
156,164,187350,1,8,0:0:0:0:
256,192,187351,2,8,L|372:192,1,1E-87
256,192,187351,2,8,L|372:192,1,1E-87
256,192,187351,2,8,L|372:192,1,1E-87
156,164,187410,1,8,0:0:0:0:
256,192,187411,2,8,L|372:192,1,1E-87
256,192,187411,2,8,L|372:192,1,1E-87
256,192,187411,2,8,L|372:192,1,1E-87
156,164,187530,1,0,0:0:0:0:
156,164,187590,1,0,0:0:0:0:
156,164,187650,1,8,0:0:0:0:
256,192,187651,2,8,L|372:192,1,1E-87
256,192,187651,2,8,L|372:192,1,1E-87
256,192,187651,2,8,L|372:192,1,1E-87
156,164,187710,1,0,0:0:0:0:
156,164,187770,1,8,0:0:0:0:
256,192,187771,2,8,L|372:192,1,1E-87
256,192,187771,2,8,L|372:192,1,1E-87
256,192,187771,2,8,L|372:192,1,1E-87
156,164,187830,1,8,0:0:0:0:
256,192,187831,2,8,L|372:192,1,1E-87
256,192,187831,2,8,L|372:192,1,1E-87
256,192,187831,2,8,L|372:192,1,1E-87
156,164,187890,1,0,0:0:0:0:
156,164,188010,1,8,0:0:0:0:
256,192,188011,2,8,L|372:192,1,1E-87
256,192,188011,2,8,L|372:192,1,1E-87
256,192,188011,2,8,L|372:192,1,1E-87
156,164,188070,1,8,0:0:0:0:
256,192,188071,2,8,L|372:192,1,1E-87
256,192,188071,2,8,L|372:192,1,1E-87
256,192,188071,2,8,L|372:192,1,1E-87
156,164,188130,1,0,0:0:0:0:
156,164,188190,1,0,0:0:0:0:
156,164,188250,1,8,0:0:0:0:
256,192,188251,2,8,L|372:192,1,1E-87
256,192,188251,2,8,L|372:192,1,1E-87
256,192,188251,2,8,L|372:192,1,1E-87
156,164,188310,1,8,0:0:0:0:
256,192,188311,2,8,L|372:192,1,1E-87
256,192,188311,2,8,L|372:192,1,1E-87
256,192,188311,2,8,L|372:192,1,1E-87
156,164,188370,1,8,0:0:0:0:
256,192,188371,2,8,L|372:192,1,1E-87
256,192,188371,2,8,L|372:192,1,1E-87
256,192,188371,2,8,L|372:192,1,1E-87
156,164,188430,1,0,0:0:0:0:
156,164,188490,1,8,0:0:0:0:
256,192,188491,2,8,L|372:192,1,1E-87
256,192,188491,2,8,L|372:192,1,1E-87
256,192,188491,2,8,L|372:192,1,1E-87
156,164,188550,1,8,0:0:0:0:
256,192,188551,2,8,L|372:192,1,1E-87
256,192,188551,2,8,L|372:192,1,1E-87
256,192,188551,2,8,L|372:192,1,1E-87
156,164,188610,1,0,0:0:0:0:
156,164,188670,1,8,0:0:0:0:
256,192,188671,2,8,L|372:192,1,1E-87
256,192,188671,2,8,L|372:192,1,1E-87
256,192,188671,2,8,L|372:192,1,1E-87
156,164,188730,1,0,0:0:0:0:
156,164,188850,1,8,0:0:0:0:
256,192,188851,2,8,L|372:192,1,1E-87
256,192,188851,2,8,L|372:192,1,1E-87
256,192,188851,2,8,L|372:192,1,1E-87
156,164,188910,1,8,0:0:0:0:
256,192,188911,2,8,L|372:192,1,1E-87
256,192,188911,2,8,L|372:192,1,1E-87
256,192,188911,2,8,L|372:192,1,1E-87
156,164,188970,1,0,0:0:0:0:
156,164,189030,1,0,0:0:0:0:
156,164,189090,1,8,0:0:0:0:
156,164,189210,1,0,0:0:0:0:
256,192,189211,2,0,L|372:192,1,1E-87
256,192,189211,2,0,L|372:192,1,1E-87
256,192,189211,2,0,L|372:192,1,1E-87
156,164,189270,1,0,0:0:0:0:
256,192,189271,2,0,L|372:192,1,1E-87
256,192,189271,2,0,L|372:192,1,1E-87
156,164,189330,1,0,0:0:0:0:
256,192,189331,2,0,L|372:192,1,1E-87
256,192,189331,2,0,L|372:192,1,1E-87
256,192,189331,2,0,L|372:192,1,1E-87
156,164,189450,1,8,0:0:0:0:
156,164,189510,1,0,0:0:0:0:
256,192,189511,2,0,L|372:192,1,1E-87
256,192,189511,2,0,L|372:192,1,1E-87
256,192,189511,2,0,L|372:192,1,1E-87
156,164,189570,1,8,0:0:0:0:
156,164,189630,1,8,0:0:0:0:
156,164,189690,1,8,0:0:0:0:
156,164,189810,1,0,0:0:0:0:
256,192,189811,2,0,L|372:192,1,1E-87
256,192,189811,2,0,L|372:192,1,1E-87
256,192,189811,2,0,L|372:192,1,1E-87
156,164,189870,1,0,0:0:0:0:
256,192,189871,2,0,L|372:192,1,1E-87
256,192,189871,2,0,L|372:192,1,1E-87
256,192,189871,2,0,L|372:192,1,1E-87
156,164,189930,1,8,0:0:0:0:
156,164,189990,1,8,0:0:0:0:
156,164,190050,1,0,0:0:0:0:
256,192,190051,2,0,L|372:192,1,1E-87
256,192,190051,2,0,L|372:192,1,1E-87
256,192,190051,2,0,L|372:192,1,1E-87
156,164,190110,1,8,0:0:0:0:
156,164,190170,1,8,0:0:0:0:
156,164,190230,1,0,0:0:0:0:
256,192,190231,2,0,L|372:192,1,1E-87
256,192,190231,2,0,L|372:192,1,1E-87
256,192,190231,2,0,L|372:192,1,1E-87
156,164,190290,1,8,0:0:0:0:
156,164,190350,1,8,0:0:0:0:
156,164,190410,1,0,0:0:0:0:
256,192,190411,2,0,L|372:192,1,1E-87
256,192,190411,2,0,L|372:192,1,1E-87
256,192,190411,2,0,L|372:192,1,1E-87
156,164,190470,1,0,0:0:0:0:
256,192,190471,2,0,L|372:192,1,1E-87
256,192,190471,2,0,L|372:192,1,1E-87
256,192,190471,2,0,L|372:192,1,1E-87
156,164,190530,1,8,0:0:0:0:
156,164,190590,1,8,0:0:0:0:
156,164,190650,1,0,0:0:0:0:
256,192,190651,2,0,L|372:192,1,1E-87
256,192,190651,2,0,L|372:192,1,1E-87
256,192,190651,2,0,L|372:192,1,1E-87
156,164,190710,1,0,0:0:0:0:
256,192,190711,2,0,L|372:192,1,1E-87
256,192,190711,2,0,L|372:192,1,1E-87
256,192,190711,2,0,L|372:192,1,1E-87
156,164,190770,1,8,0:0:0:0:
156,164,190830,1,8,0:0:0:0:
156,164,190890,1,8,0:0:0:0:
156,164,190950,1,8,0:0:0:0:
156,164,191010,1,0,0:0:0:0:
156,164,191130,1,8,0:0:0:0:
256,192,191131,2,8,L|372:192,1,1E-87
256,192,191131,2,8,L|372:192,1,1E-87
256,192,191131,2,8,L|372:192,1,1E-87
156,164,191190,1,8,0:0:0:0:
256,192,191191,2,8,L|372:192,1,1E-87
256,192,191191,2,8,L|372:192,1,1E-87
256,192,191191,2,8,L|372:192,1,1E-87
156,164,191250,1,8,0:0:0:0:
256,192,191251,2,8,L|372:192,1,1E-87
256,192,191251,2,8,L|372:192,1,1E-87
256,192,191251,2,8,L|372:192,1,1E-87
156,164,191370,1,0,0:0:0:0:
156,164,191430,1,0,0:0:0:0:
156,164,191490,1,8,0:0:0:0:
256,192,191491,2,8,L|372:192,1,1E-87
256,192,191491,2,8,L|372:192,1,1E-87
256,192,191491,2,8,L|372:192,1,1E-87
156,164,191550,1,8,0:0:0:0:
256,192,191551,2,8,L|372:192,1,1E-87
256,192,191551,2,8,L|372:192,1,1E-87
256,192,191551,2,8,L|372:192,1,1E-87
156,164,191610,1,8,0:0:0:0:
256,192,191611,2,8,L|372:192,1,1E-87
256,192,191611,2,8,L|372:192,1,1E-87
256,192,191611,2,8,L|372:192,1,1E-87
156,164,191670,1,8,0:0:0:0:
256,192,191671,2,8,L|372:192,1,1E-87
256,192,191671,2,8,L|372:192,1,1E-87
256,192,191671,2,8,L|372:192,1,1E-87
156,164,191730,1,0,0:0:0:0:
156,164,191850,1,8,0:0:0:0:
256,192,191851,2,8,L|372:192,1,1E-87
256,192,191851,2,8,L|372:192,1,1E-87
256,192,191851,2,8,L|372:192,1,1E-87
156,164,191910,1,0,0:0:0:0:
156,164,191970,1,8,0:0:0:0:
256,192,191971,2,8,L|372:192,1,1E-87
256,192,191971,2,8,L|372:192,1,1E-87
256,192,191971,2,8,L|372:192,1,1E-87
156,164,192030,1,8,0:0:0:0:
256,192,192031,2,8,L|372:192,1,1E-87
256,192,192031,2,8,L|372:192,1,1E-87
256,192,192031,2,8,L|372:192,1,1E-87
156,164,192090,1,0,0:0:0:0:
156,164,192150,1,8,0:0:0:0:
256,192,192151,2,8,L|372:192,1,1E-87
256,192,192151,2,8,L|372:192,1,1E-87
256,192,192151,2,8,L|372:192,1,1E-87
156,164,192210,1,8,0:0:0:0:
256,192,192211,2,8,L|372:192,1,1E-87
256,192,192211,2,8,L|372:192,1,1E-87
256,192,192211,2,8,L|372:192,1,1E-87
156,164,192330,1,0,0:0:0:0:
156,164,192390,1,0,0:0:0:0:
156,164,192450,1,8,0:0:0:0:
256,192,192451,2,8,L|372:192,1,1E-87
256,192,192451,2,8,L|372:192,1,1E-87
256,192,192451,2,8,L|372:192,1,1E-87
156,164,192510,1,0,0:0:0:0:
156,164,192570,1,8,0:0:0:0:
256,192,192571,2,8,L|372:192,1,1E-87
256,192,192571,2,8,L|372:192,1,1E-87
256,192,192571,2,8,L|372:192,1,1E-87
156,164,192630,1,8,0:0:0:0:
256,192,192631,2,8,L|372:192,1,1E-87
256,192,192631,2,8,L|372:192,1,1E-87
256,192,192631,2,8,L|372:192,1,1E-87
156,164,192690,1,0,0:0:0:0:
156,164,192750,1,8,0:0:0:0:
256,192,192751,2,8,L|372:192,1,1E-87
256,192,192751,2,8,L|372:192,1,1E-87
256,192,192751,2,8,L|372:192,1,1E-87
156,164,192810,1,0,0:0:0:0:
156,164,192870,1,0,0:0:0:0:
156,164,192930,1,8,0:0:0:0:
156,164,193050,1,0,0:0:0:0:
256,192,193051,2,0,L|372:192,1,1E-87
256,192,193051,2,0,L|372:192,1,1E-87
256,192,193051,2,0,L|372:192,1,1E-87
156,164,193110,1,0,0:0:0:0:
256,192,193111,2,0,L|372:192,1,1E-87
256,192,193111,2,0,L|372:192,1,1E-87
256,192,193111,2,0,L|372:192,1,1E-87
156,164,193170,1,0,0:0:0:0:
256,192,193171,2,0,L|372:192,1,1E-87
256,192,193171,2,0,L|372:192,1,1E-87
256,192,193171,2,0,L|372:192,1,1E-87
156,164,193290,1,8,0:0:0:0:
156,164,193350,1,0,0:0:0:0:
256,192,193351,2,0,L|372:192,1,1E-87
256,192,193351,2,0,L|372:192,1,1E-87
256,192,193351,2,0,L|372:192,1,1E-87
156,164,193410,1,8,0:0:0:0:
156,164,193470,1,8,0:0:0:0:
156,164,193530,1,8,0:0:0:0:
156,164,193650,1,0,0:0:0:0:
256,192,193651,2,0,L|372:192,1,1E-87
256,192,193651,2,0,L|372:192,1,1E-87
256,192,193651,2,0,L|372:192,1,1E-87
156,164,193710,1,0,0:0:0:0:
256,192,193711,2,0,L|372:192,1,1E-87
256,192,193711,2,0,L|372:192,1,1E-87
256,192,193711,2,0,L|372:192,1,1E-87
156,164,193770,1,8,0:0:0:0:
156,164,193830,1,0,0:0:0:0:
256,192,193831,2,0,L|372:192,1,1E-87
256,192,193831,2,0,L|372:192,1,1E-87
256,192,193831,2,0,L|372:192,1,1E-87
156,164,193890,1,8,0:0:0:0:
156,164,193950,1,8,0:0:0:0:
156,164,194010,1,0,0:0:0:0:
256,192,194011,2,0,L|372:192,1,1E-87
256,192,194011,2,0,L|372:192,1,1E-87
256,192,194011,2,0,L|372:192,1,1E-87
156,164,194070,1,0,0:0:0:0:
256,192,194071,2,0,L|372:192,1,1E-87
256,192,194071,2,0,L|372:192,1,1E-87
256,192,194071,2,0,L|372:192,1,1E-87
156,164,194130,1,8,0:0:0:0:
156,164,194190,1,8,0:0:0:0:
156,164,194250,1,0,0:0:0:0:
256,192,194251,2,0,L|372:192,1,1E-87
256,192,194251,2,0,L|372:192,1,1E-87
256,192,194251,2,0,L|372:192,1,1E-87
156,164,194310,1,0,0:0:0:0:
256,192,194311,2,0,L|372:192,1,1E-87
256,192,194311,2,0,L|372:192,1,1E-87
256,192,194311,2,0,L|372:192,1,1E-87
156,164,194370,1,8,0:0:0:0:
156,164,194430,1,8,0:0:0:0:
156,164,194490,1,8,0:0:0:0:
156,164,194550,1,8,0:0:0:0:
156,164,194610,1,8,0:0:0:0:
156,164,194670,1,8,0:0:0:0:
156,164,194730,1,8,0:0:0:0:
156,164,194790,1,8,0:0:0:0:
156,164,194850,1,4,0:0:0:0:
332,204,197013,5,6,0:0:0:0:
188,204,197014,2,6,L|236:208,1,1E-10
188,204,197015,2,6,L|236:208,1,1E-10
188,204,197016,2,6,L|236:208,1,1E-10
188,204,197017,2,6,L|236:208,1,1E-10
188,204,197018,2,6,L|236:208,1,1E-10
192,240,197155,1,0,0:0:0:0:
192,240,197227,1,0,0:0:0:0:
192,240,197298,1,0,0:0:0:0:
160,192,197405,6,0,L|236:192,1,-70
160,192,197405,6,0,L|236:192,1,-70
332,224,197442,1,6,0:0:0:0:
196,236,197584,1,0,0:0:0:0:
196,236,197655,1,0,0:0:0:0:
196,236,197727,1,0,0:0:0:0:
156,164,197870,1,12,0:0:0:0:
256,192,197871,2,12,L|372:192,1,1E-87
256,192,197871,2,12,L|372:192,1,1E-87
256,192,197871,2,12,L|372:192,1,1E-87
196,236,198013,1,0,0:0:0:0:
196,236,198084,1,0,0:0:0:0:
196,236,198155,1,0,0:0:0:0:
332,204,198298,5,6,0:0:0:0:
188,204,198299,2,6,L|236:208,1,1E-10
188,204,198300,2,6,L|236:208,1,1E-10
188,204,198301,2,6,L|236:208,1,1E-10
188,204,198302,2,6,L|236:208,1,1E-10
188,204,198303,2,6,L|236:208,1,1E-10
196,236,198441,1,0,0:0:0:0:
196,236,198513,1,0,0:0:0:0:
196,236,198584,1,0,0:0:0:0:
160,192,198691,6,0,L|236:192,1,-70
160,192,198691,6,0,L|236:192,1,-70
332,224,198728,1,6,0:0:0:0:
196,236,198870,1,0,0:0:0:0:
196,236,198941,1,0,0:0:0:0:
196,236,199013,1,0,0:0:0:0:
156,164,199155,1,12,0:0:0:0:
256,192,199156,2,12,L|372:192,1,1E-87
256,192,199156,2,12,L|372:192,1,1E-87
256,192,199156,2,12,L|372:192,1,1E-87
196,236,199298,1,0,0:0:0:0:
196,236,199370,1,0,0:0:0:0:
196,236,199441,1,0,0:0:0:0:
332,204,199584,5,6,0:0:0:0:
188,204,199585,2,6,L|236:208,1,1E-10
188,204,199586,2,6,L|236:208,1,1E-10
188,204,199587,2,6,L|236:208,1,1E-10
188,204,199588,2,6,L|236:208,1,1E-10
188,204,199589,2,6,L|236:208,1,1E-10
196,236,199727,1,0,0:0:0:0:
196,236,199798,1,0,0:0:0:0:
196,236,199870,1,0,0:0:0:0:
160,192,199977,6,0,L|236:192,1,-70
160,192,199977,6,0,L|236:192,1,-70
332,224,200014,1,6,0:0:0:0:
196,236,200155,1,0,0:0:0:0:
196,236,200227,1,0,0:0:0:0:
196,236,200298,1,0,0:0:0:0:
156,164,200441,1,12,0:0:0:0:
256,192,200442,2,12,L|372:192,1,1E-87
256,192,200442,2,12,L|372:192,1,1E-87
256,192,200442,2,12,L|372:192,1,1E-87
196,236,200584,1,0,0:0:0:0:
332,204,200727,5,6,0:0:0:0:
188,204,200728,2,6,L|236:208,1,1E-10
188,204,200729,2,6,L|236:208,1,1E-10
188,204,200730,2,6,L|236:208,1,1E-10
188,204,200731,2,6,L|236:208,1,1E-10
188,204,200732,2,6,L|236:208,1,1E-10
196,236,200870,1,0,0:0:0:0:
160,192,200977,6,0,L|236:192,1,-70
160,192,200977,6,0,L|236:192,1,-70
332,224,201014,1,6,0:0:0:0:
196,236,201155,1,0,0:0:0:0:
156,164,201298,1,12,0:0:0:0:
256,192,201299,2,12,L|372:192,1,1E-87
256,192,201299,2,12,L|372:192,1,1E-87
256,192,201299,2,12,L|372:192,1,1E-87
196,236,201441,1,0,0:0:0:0:
332,204,201584,5,6,0:0:0:0:
188,204,201585,2,6,L|236:208,1,1E-10
188,204,201586,2,6,L|236:208,1,1E-10
188,204,201587,2,6,L|236:208,1,1E-10
188,204,201588,2,6,L|236:208,1,1E-10
188,204,201589,2,6,L|236:208,1,1E-10
160,192,201691,6,0,L|236:192,1,-70
160,192,201691,6,0,L|236:192,1,-70
332,224,201728,1,6,0:0:0:0:
156,164,201870,1,12,0:0:0:0:
256,192,201871,2,12,L|372:192,1,1E-87
256,192,201871,2,12,L|372:192,1,1E-87
256,192,201871,2,12,L|372:192,1,1E-87
332,204,202013,5,6,0:0:0:0:
188,204,202014,2,6,L|236:208,1,1E-10
188,204,202015,2,6,L|236:208,1,1E-10
188,204,202016,2,6,L|236:208,1,1E-10
188,204,202017,2,6,L|236:208,1,1E-10
188,204,202018,2,6,L|236:208,1,1E-10
160,192,202120,6,0,L|236:192,1,-70
160,192,202120,6,0,L|236:192,1,-70
332,224,202157,1,6,0:0:0:0:
156,164,202298,1,12,0:0:0:0:
256,192,202299,2,12,L|372:192,1,1E-87
256,192,202299,2,12,L|372:192,1,1E-87
256,192,202299,2,12,L|372:192,1,1E-87
332,204,202441,5,6,0:0:0:0:
188,204,202442,2,6,L|236:208,1,1E-10
188,204,202443,2,6,L|236:208,1,1E-10
188,204,202444,2,6,L|236:208,1,1E-10
188,204,202445,2,6,L|236:208,1,1E-10
188,204,202446,2,6,L|236:208,1,1E-10
160,192,202548,6,0,L|236:192,1,-70
160,192,202548,6,0,L|236:192,1,-70
332,224,202585,1,6,0:0:0:0:
336,248,203870,1,4,0:0:0:0:
336,248,204013,1,4,0:0:0:0:
336,248,204155,1,4,0:0:0:0:
332,204,204441,5,0,0:0:0:0:
188,204,204442,2,0,L|236:208,1,1E-10
188,204,204443,2,0,L|236:208,1,1E-10
332,204,204727,5,0,0:0:0:0:
188,204,204728,2,0,L|236:208,1,1E-10
188,204,204729,2,0,L|236:208,1,1E-10
188,204,204730,2,0,L|236:208,1,1E-10
188,204,204731,2,0,L|236:208,1,1E-10
188,204,204732,2,0,L|236:208,1,1E-10
356,128,205013,1,6,0:0:0:0:
356,128,205155,1,6,0:0:0:0:
356,128,205298,1,6,0:0:0:0:
332,204,205584,5,2,0:0:0:0:
188,204,205585,2,2,L|236:208,1,1E-10
188,204,205586,2,2,L|236:208,1,1E-10
188,204,205587,2,2,L|236:208,1,1E-10
188,204,205588,2,2,L|236:208,1,1E-10
188,204,205589,2,2,L|236:208,1,1E-10
332,204,205870,5,2,0:0:0:0:
188,204,205871,2,2,L|236:208,1,1E-10
188,204,205872,2,2,L|236:208,1,1E-10
188,204,205873,2,2,L|236:208,1,1E-10
188,204,205874,2,2,L|236:208,1,1E-10
188,204,205875,2,2,L|236:208,1,1E-10
332,204,206155,5,4,0:0:0:0:
188,204,206156,2,4,L|236:208,1,1E-10
188,204,206157,2,4,L|236:208,1,1E-10
188,204,206158,2,4,L|236:208,1,1E-10
188,204,206159,2,4,L|236:208,1,1E-10
188,204,206160,2,4,L|236:208,1,1E-10
188,204,206161,2,4,L|236:208,1,1E-10
188,204,206162,2,4,L|236:208,1,1E-10
188,204,206163,2,4,L|236:208,1,1E-10
188,204,206164,2,4,L|236:208,1,1E-10
188,204,206165,2,4,L|236:208,1,1E-10
188,204,206166,2,4,L|236:208,1,1E-10
188,204,206167,2,4,L|236:208,1,1E-10
188,204,206168,2,4,L|236:208,1,1E-10
188,204,206169,2,4,L|236:208,1,1E-10
332,204,206584,5,6,0:0:0:0:
188,204,206585,2,6,L|236:208,1,1E-10
188,204,206586,2,6,L|236:208,1,1E-10
188,204,206587,2,6,L|236:208,1,1E-10
188,204,206588,2,6,L|236:208,1,1E-10
188,204,206589,2,6,L|236:208,1,1E-10
188,204,206590,2,6,L|236:208,1,1E-10
188,204,206591,2,6,L|236:208,1,1E-10
188,204,206592,2,6,L|236:208,1,1E-10
188,204,206593,2,6,L|236:208,1,1E-10
188,204,206594,2,6,L|236:208,1,1E-10
188,204,206595,2,6,L|236:208,1,1E-10
188,204,206596,2,6,L|236:208,1,1E-10
188,204,206597,2,6,L|236:208,1,1E-10
188,204,206598,2,6,L|236:208,1,1E-10
332,204,206870,5,6,0:0:0:0:
188,204,206871,2,6,L|236:208,1,1E-10
188,204,206872,2,6,L|236:208,1,1E-10
188,204,206873,2,6,L|236:208,1,1E-10
188,204,206874,2,6,L|236:208,1,1E-10
188,204,206875,2,6,L|236:208,1,1E-10
188,204,206876,2,6,L|236:208,1,1E-10
188,204,206877,2,6,L|236:208,1,1E-10
188,204,206878,2,6,L|236:208,1,1E-10
188,204,206879,2,6,L|236:208,1,1E-10
188,204,206880,2,6,L|236:208,1,1E-10
188,204,206881,2,6,L|236:208,1,1E-10
188,204,206882,2,6,L|236:208,1,1E-10
188,204,206883,2,6,L|236:208,1,1E-10
188,204,206884,2,6,L|236:208,1,1E-10
332,204,207156,5,4,0:0:0:0:
188,204,207157,2,4,L|236:208,1,1E-10
188,204,207158,2,4,L|236:208,1,1E-10
188,204,207159,2,4,L|236:208,1,1E-10
188,204,207160,2,4,L|236:208,1,1E-10
188,204,207161,2,4,L|236:208,1,1E-10
188,204,207162,2,4,L|236:208,1,1E-10
188,204,207163,2,4,L|236:208,1,1E-10
188,204,207164,2,4,L|236:208,1,1E-10
188,204,207165,2,4,L|236:208,1,1E-10
188,204,207166,2,4,L|236:208,1,1E-10
188,204,207167,2,4,L|236:208,1,1E-10
188,204,207168,2,4,L|236:208,1,1E-10
188,204,207169,2,4,L|236:208,1,1E-10
188,204,207170,2,4,L|236:208,1,1E-10
332,204,207584,5,6,0:0:0:0:
188,204,207585,2,6,L|236:208,1,1E-10
188,204,207586,2,6,L|236:208,1,1E-10
188,204,207587,2,6,L|236:208,1,1E-10
188,204,207588,2,6,L|236:208,1,1E-10
188,204,207589,2,6,L|236:208,1,1E-10
188,204,207590,2,6,L|236:208,1,1E-10
188,204,207591,2,6,L|236:208,1,1E-10
188,204,207592,2,6,L|236:208,1,1E-10
188,204,207593,2,6,L|236:208,1,1E-10
188,204,207594,2,6,L|236:208,1,1E-10
188,204,207595,2,6,L|236:208,1,1E-10
188,204,207596,2,6,L|236:208,1,1E-10
188,204,207597,2,6,L|236:208,1,1E-10
188,204,207598,2,6,L|236:208,1,1E-10
332,204,207870,5,4,0:0:0:0:
188,204,207871,2,4,L|236:208,1,1E-10
188,204,207872,2,4,L|236:208,1,1E-10
188,204,207873,2,4,L|236:208,1,1E-10
188,204,207874,2,4,L|236:208,1,1E-10
188,204,207875,2,4,L|236:208,1,1E-10
188,204,207876,2,4,L|236:208,1,1E-10
188,204,207877,2,4,L|236:208,1,1E-10
188,204,207878,2,4,L|236:208,1,1E-10
188,204,207879,2,4,L|236:208,1,1E-10
188,204,207880,2,4,L|236:208,1,1E-10
188,204,207881,2,4,L|236:208,1,1E-10
188,204,207882,2,4,L|236:208,1,1E-10
188,204,207883,2,4,L|236:208,1,1E-10
188,204,207884,2,4,L|236:208,1,1E-10
332,204,208156,5,6,0:0:0:0:
188,204,208157,2,6,L|236:208,1,1E-10
188,204,208158,2,6,L|236:208,1,1E-10
188,204,208159,2,6,L|236:208,1,1E-10
188,204,208160,2,6,L|236:208,1,1E-10
188,204,208161,2,6,L|236:208,1,1E-10
188,204,208162,2,6,L|236:208,1,1E-10
188,204,208163,2,6,L|236:208,1,1E-10
188,204,208164,2,6,L|236:208,1,1E-10
188,204,208165,2,6,L|236:208,1,1E-10
188,204,208166,2,6,L|236:208,1,1E-10
188,204,208167,2,6,L|236:208,1,1E-10
188,204,208168,2,6,L|236:208,1,1E-10
188,204,208169,2,6,L|236:208,1,1E-10
188,204,208170,2,6,L|236:208,1,1E-10
280,156,208441,1,0,0:0:0:0:
136,220,208513,5,0,0:0:0:0:
300,168,208583,1,0,0:0:0:0:
300,168,208655,1,0,0:0:0:0:
320,152,208726,1,2,0:0:0:0:
336,148,208797,1,2,0:0:0:0:
240,176,208869,1,0,0:0:0:0:
288,232,208941,5,0,0:0:0:0:
284,96,209012,1,2,0:0:0:0:
284,96,209083,1,2,0:0:0:0:
296,168,209156,5,2,0:0:0:0:
240,176,209226,1,2,0:0:0:0:
240,176,209297,1,0,0:0:0:0:
288,204,209370,5,0,0:0:0:0:
396,88,209440,1,2,0:0:0:0:
252,160,209513,5,2,0:0:0:0:
256,164,209584,5,2,0:0:0:0:
336,96,209726,1,0,0:0:0:0:
336,96,209797,1,2,0:0:0:0:
356,104,209869,1,2,0:0:0:0:
280,144,209941,5,2,0:0:0:0:
344,120,210013,1,0,0:0:0:0:
376,104,210155,1,2,0:0:0:0:
312,144,210297,1,0,0:0:0:0:
376,104,210369,1,2,0:0:0:0:
312,144,210440,1,0,0:0:0:0:
208,248,210513,1,0,0:0:0:0:
368,88,210583,1,2,0:0:0:0:
296,168,210656,1,2,0:0:0:0:
320,136,210726,1,0,0:0:0:0:
156,164,211013,5,0,0:0:0:0:
256,192,211014,2,0,L|372:192,1,1E-87
156,164,211084,5,0,0:0:0:0:
256,192,211085,2,0,L|372:192,1,1E-87
156,164,211156,5,0,0:0:0:0:
256,192,211157,2,0,L|372:192,1,1E-87
156,164,211227,5,0,0:0:0:0:
256,192,211228,2,0,L|372:192,1,1E-87
156,164,211298,5,2,0:0:0:0:
256,192,211299,2,2,L|372:192,1,1E-87
156,164,211370,5,2,0:0:0:0:
256,192,211371,2,2,L|372:192,1,1E-87
156,164,211441,5,0,0:0:0:0:
256,192,211442,2,0,L|372:192,1,1E-87
156,164,211513,5,0,0:0:0:0:
256,192,211514,2,0,L|372:192,1,1E-87
156,164,211584,5,2,0:0:0:0:
256,192,211585,2,2,L|372:192,1,1E-87
156,164,211656,5,2,0:0:0:0:
256,192,211657,2,2,L|372:192,1,1E-87
156,164,211727,5,2,0:0:0:0:
256,192,211728,2,2,L|372:192,1,1E-87
156,164,211798,5,2,0:0:0:0:
256,192,211799,2,2,L|372:192,1,1E-87
156,164,211870,5,0,0:0:0:0:
256,192,211871,2,0,L|372:192,1,1E-87
156,164,211941,5,0,0:0:0:0:
256,192,211942,2,0,L|372:192,1,1E-87
156,164,212013,5,2,0:0:0:0:
256,192,212014,2,2,L|372:192,1,1E-87
156,164,212084,5,2,0:0:0:0:
256,192,212085,2,2,L|372:192,1,1E-87
156,164,212156,5,0,0:0:0:0:
256,192,212157,2,0,L|372:192,1,1E-87
156,164,212227,5,0,0:0:0:0:
256,192,212228,2,0,L|372:192,1,1E-87
156,164,212298,5,0,0:0:0:0:
256,192,212299,2,0,L|372:192,1,1E-87
156,164,212370,5,0,0:0:0:0:
256,192,212371,2,0,L|372:192,1,1E-87
156,164,212441,5,2,0:0:0:0:
256,192,212442,2,2,L|372:192,1,1E-87
156,164,212513,5,2,0:0:0:0:
256,192,212514,2,2,L|372:192,1,1E-87
156,164,212584,5,0,0:0:0:0:
256,192,212585,2,0,L|372:192,1,1E-87
156,164,212656,5,0,0:0:0:0:
256,192,212657,2,0,L|372:192,1,1E-87
156,164,212727,5,2,0:0:0:0:
256,192,212728,2,2,L|372:192,1,1E-87
156,164,212798,5,2,0:0:0:0:
256,192,212799,2,2,L|372:192,1,1E-87
156,164,212870,5,2,0:0:0:0:
256,192,212871,2,2,L|372:192,1,1E-87
156,164,212939,5,2,0:0:0:0:
256,192,212940,2,2,L|372:192,1,1E-87
240,200,213013,1,4,0:0:0:0:
352,180,213297,1,4,0:0:0:0:
352,180,213440,1,4,0:0:0:0:
340,104,213583,1,6,0:0:0:0:
340,104,213726,1,6,0:0:0:0:
340,104,213869,1,4,0:0:0:0:
316,180,214012,1,4,0:0:0:0:
340,108,214297,1,6,0:0:0:0:
308,176,214440,1,4,0:0:0:0:
304,180,214583,1,6,0:0:0:0:
392,72,214870,1,2,0:0:0:0:
392,72,215012,1,2,0:0:0:0:
332,204,215298,5,4,0:0:0:0:
188,204,215299,2,4,L|236:208,1,1E-10
188,204,215300,2,4,L|236:208,1,1E-10
188,204,215301,2,4,L|236:208,1,1E-10
188,204,215302,2,4,L|236:208,1,1E-10
188,204,215303,2,4,L|236:208,1,1E-10
188,204,215304,2,4,L|236:208,1,1E-10
188,204,215305,2,4,L|236:208,1,1E-10
188,204,215306,2,4,L|236:208,1,1E-10
188,204,215307,2,4,L|236:208,1,1E-10
188,204,215308,2,4,L|236:208,1,1E-10
188,204,215309,2,4,L|236:208,1,1E-10
188,204,215310,2,4,L|236:208,1,1E-10
188,204,215311,2,4,L|236:208,1,1E-10
188,204,215312,2,4,L|236:208,1,1E-10
332,204,215727,5,6,0:0:0:0:
188,204,215728,2,6,L|236:208,1,1E-10
188,204,215729,2,6,L|236:208,1,1E-10
188,204,215730,2,6,L|236:208,1,1E-10
188,204,215731,2,6,L|236:208,1,1E-10
188,204,215732,2,6,L|236:208,1,1E-10
188,204,215733,2,6,L|236:208,1,1E-10
188,204,215734,2,6,L|236:208,1,1E-10
188,204,215735,2,6,L|236:208,1,1E-10
188,204,215736,2,6,L|236:208,1,1E-10
188,204,215737,2,6,L|236:208,1,1E-10
188,204,215738,2,6,L|236:208,1,1E-10
188,204,215739,2,6,L|236:208,1,1E-10
188,204,215740,2,6,L|236:208,1,1E-10
188,204,215741,2,6,L|236:208,1,1E-10
332,204,216013,5,6,0:0:0:0:
188,204,216014,2,6,L|236:208,1,1E-10
188,204,216015,2,6,L|236:208,1,1E-10
188,204,216016,2,6,L|236:208,1,1E-10
188,204,216017,2,6,L|236:208,1,1E-10
188,204,216018,2,6,L|236:208,1,1E-10
188,204,216019,2,6,L|236:208,1,1E-10
188,204,216020,2,6,L|236:208,1,1E-10
188,204,216021,2,6,L|236:208,1,1E-10
188,204,216022,2,6,L|236:208,1,1E-10
188,204,216023,2,6,L|236:208,1,1E-10
188,204,216024,2,6,L|236:208,1,1E-10
188,204,216025,2,6,L|236:208,1,1E-10
188,204,216026,2,6,L|236:208,1,1E-10
188,204,216027,2,6,L|236:208,1,1E-10
332,204,216298,5,4,0:0:0:0:
188,204,216299,2,4,L|236:208,1,1E-10
188,204,216300,2,4,L|236:208,1,1E-10
188,204,216301,2,4,L|236:208,1,1E-10
188,204,216302,2,4,L|236:208,1,1E-10
188,204,216303,2,4,L|236:208,1,1E-10
188,204,216304,2,4,L|236:208,1,1E-10
188,204,216305,2,4,L|236:208,1,1E-10
188,204,216306,2,4,L|236:208,1,1E-10
188,204,216307,2,4,L|236:208,1,1E-10
188,204,216308,2,4,L|236:208,1,1E-10
188,204,216309,2,4,L|236:208,1,1E-10
188,204,216310,2,4,L|236:208,1,1E-10
188,204,216311,2,4,L|236:208,1,1E-10
188,204,216312,2,4,L|236:208,1,1E-10
332,204,216727,5,6,0:0:0:0:
188,204,216728,2,6,L|236:208,1,1E-10
188,204,216729,2,6,L|236:208,1,1E-10
188,204,216730,2,6,L|236:208,1,1E-10
188,204,216731,2,6,L|236:208,1,1E-10
188,204,216732,2,6,L|236:208,1,1E-10
188,204,216733,2,6,L|236:208,1,1E-10
188,204,216734,2,6,L|236:208,1,1E-10
188,204,216735,2,6,L|236:208,1,1E-10
188,204,216736,2,6,L|236:208,1,1E-10
188,204,216737,2,6,L|236:208,1,1E-10
188,204,216738,2,6,L|236:208,1,1E-10
188,204,216739,2,6,L|236:208,1,1E-10
188,204,216740,2,6,L|236:208,1,1E-10
188,204,216741,2,6,L|236:208,1,1E-10
332,204,217013,5,4,0:0:0:0:
188,204,217014,2,4,L|236:208,1,1E-10
188,204,217015,2,4,L|236:208,1,1E-10
188,204,217016,2,4,L|236:208,1,1E-10
188,204,217017,2,4,L|236:208,1,1E-10
188,204,217018,2,4,L|236:208,1,1E-10
188,204,217019,2,4,L|236:208,1,1E-10
188,204,217020,2,4,L|236:208,1,1E-10
188,204,217021,2,4,L|236:208,1,1E-10
188,204,217022,2,4,L|236:208,1,1E-10
188,204,217023,2,4,L|236:208,1,1E-10
188,204,217024,2,4,L|236:208,1,1E-10
188,204,217025,2,4,L|236:208,1,1E-10
188,204,217026,2,4,L|236:208,1,1E-10
188,204,217027,2,4,L|236:208,1,1E-10
332,204,217298,5,6,0:0:0:0:
188,204,217299,2,6,L|236:208,1,1E-10
188,204,217300,2,6,L|236:208,1,1E-10
188,204,217301,2,6,L|236:208,1,1E-10
188,204,217302,2,6,L|236:208,1,1E-10
188,204,217303,2,6,L|236:208,1,1E-10
188,204,217304,2,6,L|236:208,1,1E-10
188,204,217305,2,6,L|236:208,1,1E-10
188,204,217306,2,6,L|236:208,1,1E-10
188,204,217307,2,6,L|236:208,1,1E-10
188,204,217308,2,6,L|236:208,1,1E-10
188,204,217309,2,6,L|236:208,1,1E-10
188,204,217310,2,6,L|236:208,1,1E-10
188,204,217311,2,6,L|236:208,1,1E-10
188,204,217312,2,6,L|236:208,1,1E-10
352,280,217583,1,0,0:0:0:0:
240,132,217655,5,0,0:0:0:0:
280,160,217726,1,2,0:0:0:0:
280,160,217797,1,2,0:0:0:0:
256,168,217869,1,0,0:0:0:0:
316,120,217941,1,0,0:0:0:0:
320,56,218013,1,2,0:0:0:0:
340,132,218084,5,2,0:0:0:0:
324,48,218155,1,2,0:0:0:0:
324,48,218226,1,2,0:0:0:0:
400,88,218297,1,0,0:0:0:0:
368,80,218370,1,0,0:0:0:0:
292,72,218440,1,2,0:0:0:0:
288,84,218513,5,0,0:0:0:0:
400,88,218583,1,2,0:0:0:0:
284,84,218655,5,2,0:0:0:0:
284,84,218727,5,2,0:0:0:0:
304,184,218870,1,0,0:0:0:0:
304,184,218941,1,0,0:0:0:0:
312,168,219013,1,2,0:0:0:0:
296,172,219084,1,2,0:0:0:0:
336,32,219155,1,0,0:0:0:0:
292,176,219298,1,2,0:0:0:0:
360,92,219440,1,0,0:0:0:0:
344,104,219512,1,0,0:0:0:0:
324,80,219583,1,2,0:0:0:0:
280,100,219655,1,2,0:0:0:0:
392,68,219727,1,0,0:0:0:0:
288,100,219798,1,2,0:0:0:0:
320,156,219869,1,0,0:0:0:0:
156,164,220155,5,0,0:0:0:0:
256,192,220156,2,0,L|372:192,1,1E-87
156,164,220226,5,0,0:0:0:0:
256,192,220227,2,0,L|372:192,1,1E-87
156,164,220298,5,0,0:0:0:0:
256,192,220299,2,0,L|372:192,1,1E-87
156,164,220369,5,0,0:0:0:0:
256,192,220370,2,0,L|372:192,1,1E-87
156,164,220440,5,2,0:0:0:0:
256,192,220441,2,2,L|372:192,1,1E-87
156,164,220512,5,2,0:0:0:0:
256,192,220513,2,2,L|372:192,1,1E-87
156,164,220583,5,2,0:0:0:0:
256,192,220584,2,2,L|372:192,1,1E-87
156,164,220655,5,2,0:0:0:0:
256,192,220656,2,2,L|372:192,1,1E-87
156,164,220726,5,0,0:0:0:0:
256,192,220727,2,0,L|372:192,1,1E-87
156,164,220798,5,0,0:0:0:0:
256,192,220799,2,0,L|372:192,1,1E-87
156,164,220869,5,2,0:0:0:0:
256,192,220870,2,2,L|372:192,1,1E-87
156,164,220940,5,2,0:0:0:0:
256,192,220941,2,2,L|372:192,1,1E-87
156,164,221012,5,0,0:0:0:0:
256,192,221013,2,0,L|372:192,1,1E-87
156,164,221083,5,0,0:0:0:0:
256,192,221084,2,0,L|372:192,1,1E-87
156,164,221155,5,0,0:0:0:0:
256,192,221156,2,0,L|372:192,1,1E-87
156,164,221226,5,0,0:0:0:0:
256,192,221227,2,0,L|372:192,1,1E-87
156,164,221298,5,2,0:0:0:0:
256,192,221299,2,2,L|372:192,1,1E-87
156,164,221369,5,2,0:0:0:0:
256,192,221370,2,2,L|372:192,1,1E-87
156,164,221440,5,0,0:0:0:0:
256,192,221441,2,0,L|372:192,1,1E-87
156,164,221512,5,0,0:0:0:0:
256,192,221513,2,0,L|372:192,1,1E-87
156,164,221583,5,2,0:0:0:0:
256,192,221584,2,2,L|372:192,1,1E-87
156,164,221655,5,2,0:0:0:0:
256,192,221656,2,2,L|372:192,1,1E-87
156,164,221726,5,0,0:0:0:0:
256,192,221727,2,0,L|372:192,1,1E-87
156,164,221798,5,0,0:0:0:0:
256,192,221799,2,0,L|372:192,1,1E-87
156,164,221869,5,2,0:0:0:0:
256,192,221870,2,2,L|372:192,1,1E-87
156,164,221940,5,2,0:0:0:0:
256,192,221941,2,2,L|372:192,1,1E-87
156,164,222012,5,2,0:0:0:0:
256,192,222013,2,2,L|372:192,1,1E-87
156,164,222081,5,2,0:0:0:0:
256,192,222082,2,2,L|372:192,1,1E-87
368,60,222155,1,4,0:0:0:0:
368,72,222440,1,6,0:0:0:0:
360,88,222726,1,6,0:0:0:0:
292,176,223012,1,4,0:0:0:0:
292,176,223155,1,6,0:0:0:0:
292,176,223440,1,6,0:0:0:0:
236,200,223583,1,4,0:0:0:0:
224,200,223726,1,6,0:0:0:0:
248,176,224012,1,2,0:0:0:0:
248,180,224155,1,2,0:0:0:0:
332,204,224440,5,4,0:0:0:0:
188,204,224441,2,4,L|236:208,1,1E-10
188,204,224442,2,4,L|236:208,1,1E-10
188,204,224443,2,4,L|236:208,1,1E-10
188,204,224444,2,4,L|236:208,1,1E-10
188,204,224445,2,4,L|236:208,1,1E-10
188,204,224446,2,4,L|236:208,1,1E-10
188,204,224447,2,4,L|236:208,1,1E-10
188,204,224448,2,4,L|236:208,1,1E-10
188,204,224449,2,4,L|236:208,1,1E-10
188,204,224450,2,4,L|236:208,1,1E-10
188,204,224451,2,4,L|236:208,1,1E-10
188,204,224452,2,4,L|236:208,1,1E-10
188,204,224453,2,4,L|236:208,1,1E-10
188,204,224454,2,4,L|236:208,1,1E-10
332,204,224868,5,6,0:0:0:0:
188,204,224869,2,6,L|236:208,1,1E-10
188,204,224870,2,6,L|236:208,1,1E-10
188,204,224871,2,6,L|236:208,1,1E-10
188,204,224872,2,6,L|236:208,1,1E-10
188,204,224873,2,6,L|236:208,1,1E-10
188,204,224874,2,6,L|236:208,1,1E-10
188,204,224875,2,6,L|236:208,1,1E-10
188,204,224876,2,6,L|236:208,1,1E-10
188,204,224877,2,6,L|236:208,1,1E-10
188,204,224878,2,6,L|236:208,1,1E-10
188,204,224879,2,6,L|236:208,1,1E-10
188,204,224880,2,6,L|236:208,1,1E-10
188,204,224881,2,6,L|236:208,1,1E-10
188,204,224882,2,6,L|236:208,1,1E-10
332,204,225154,5,6,0:0:0:0:
188,204,225155,2,6,L|236:208,1,1E-10
188,204,225156,2,6,L|236:208,1,1E-10
188,204,225157,2,6,L|236:208,1,1E-10
188,204,225158,2,6,L|236:208,1,1E-10
188,204,225159,2,6,L|236:208,1,1E-10
188,204,225160,2,6,L|236:208,1,1E-10
188,204,225161,2,6,L|236:208,1,1E-10
188,204,225162,2,6,L|236:208,1,1E-10
188,204,225163,2,6,L|236:208,1,1E-10
188,204,225164,2,6,L|236:208,1,1E-10
188,204,225165,2,6,L|236:208,1,1E-10
188,204,225166,2,6,L|236:208,1,1E-10
188,204,225167,2,6,L|236:208,1,1E-10
188,204,225168,2,6,L|236:208,1,1E-10
332,204,225440,5,4,0:0:0:0:
188,204,225441,2,4,L|236:208,1,1E-10
188,204,225442,2,4,L|236:208,1,1E-10
188,204,225443,2,4,L|236:208,1,1E-10
188,204,225444,2,4,L|236:208,1,1E-10
188,204,225445,2,4,L|236:208,1,1E-10
188,204,225446,2,4,L|236:208,1,1E-10
188,204,225447,2,4,L|236:208,1,1E-10
188,204,225448,2,4,L|236:208,1,1E-10
188,204,225449,2,4,L|236:208,1,1E-10
188,204,225450,2,4,L|236:208,1,1E-10
188,204,225451,2,4,L|236:208,1,1E-10
188,204,225452,2,4,L|236:208,1,1E-10
188,204,225453,2,4,L|236:208,1,1E-10
188,204,225454,2,4,L|236:208,1,1E-10
332,204,225868,5,4,0:0:0:0:
188,204,225869,2,4,L|236:208,1,1E-10
188,204,225870,2,4,L|236:208,1,1E-10
188,204,225871,2,4,L|236:208,1,1E-10
188,204,225872,2,4,L|236:208,1,1E-10
188,204,225873,2,4,L|236:208,1,1E-10
188,204,225874,2,4,L|236:208,1,1E-10
188,204,225875,2,4,L|236:208,1,1E-10
188,204,225876,2,4,L|236:208,1,1E-10
188,204,225877,2,4,L|236:208,1,1E-10
188,204,225878,2,4,L|236:208,1,1E-10
188,204,225879,2,4,L|236:208,1,1E-10
188,204,225880,2,4,L|236:208,1,1E-10
188,204,225881,2,4,L|236:208,1,1E-10
188,204,225882,2,4,L|236:208,1,1E-10
332,204,226154,5,6,0:0:0:0:
188,204,226155,2,6,L|236:208,1,1E-10
188,204,226156,2,6,L|236:208,1,1E-10
188,204,226157,2,6,L|236:208,1,1E-10
188,204,226158,2,6,L|236:208,1,1E-10
188,204,226159,2,6,L|236:208,1,1E-10
188,204,226160,2,6,L|236:208,1,1E-10
188,204,226161,2,6,L|236:208,1,1E-10
188,204,226162,2,6,L|236:208,1,1E-10
188,204,226163,2,6,L|236:208,1,1E-10
188,204,226164,2,6,L|236:208,1,1E-10
188,204,226165,2,6,L|236:208,1,1E-10
188,204,226166,2,6,L|236:208,1,1E-10
188,204,226167,2,6,L|236:208,1,1E-10
188,204,226168,2,6,L|236:208,1,1E-10
332,204,226440,5,6,0:0:0:0:
188,204,226441,2,6,L|236:208,1,1E-10
188,204,226442,2,6,L|236:208,1,1E-10
188,204,226443,2,6,L|236:208,1,1E-10
188,204,226444,2,6,L|236:208,1,1E-10
188,204,226445,2,6,L|236:208,1,1E-10
188,204,226446,2,6,L|236:208,1,1E-10
188,204,226447,2,6,L|236:208,1,1E-10
188,204,226448,2,6,L|236:208,1,1E-10
188,204,226449,2,6,L|236:208,1,1E-10
188,204,226450,2,6,L|236:208,1,1E-10
188,204,226451,2,6,L|236:208,1,1E-10
188,204,226452,2,6,L|236:208,1,1E-10
188,204,226453,2,6,L|236:208,1,1E-10
188,204,226454,2,6,L|236:208,1,1E-10
152,248,226725,1,0,0:0:0:0:
312,172,226797,5,2,0:0:0:0:
152,248,226868,1,0,0:0:0:0:
152,248,226940,1,0,0:0:0:0:
232,240,227011,1,2,0:0:0:0:
232,240,227082,1,2,0:0:0:0:
232,240,227154,1,0,0:0:0:0:
312,216,227225,5,0,0:0:0:0:
240,120,227297,1,2,0:0:0:0:
320,136,227368,1,0,0:0:0:0:
320,136,227440,1,2,0:0:0:0:
320,136,227511,1,2,0:0:0:0:
320,136,227582,1,0,0:0:0:0:
320,256,227654,5,0,0:0:0:0:
316,208,227725,5,2,0:0:0:0:
188,200,227797,1,0,0:0:0:0:
288,68,227868,1,2,0:0:0:0:
256,112,228011,1,0,0:0:0:0:
256,112,228082,1,2,0:0:0:0:
256,112,228154,1,2,0:0:0:0:
296,200,228225,5,0,0:0:0:0:
384,168,228297,5,2,0:0:0:0:
384,168,228368,5,2,0:0:0:0:
296,184,228440,5,0,0:0:0:0:
280,132,228582,1,0,0:0:0:0:
280,132,228654,1,0,0:0:0:0:
276,56,228725,1,2,0:0:0:0:
376,120,228797,1,0,0:0:0:0:
316,124,228868,1,0,0:0:0:0:
272,144,228940,1,2,0:0:0:0:
252,148,229011,1,0,0:0:0:0:
156,164,229298,5,0,0:0:0:0:
256,192,229299,2,0,L|372:192,1,1E-87
156,164,229369,5,0,0:0:0:0:
256,192,229370,2,0,L|372:192,1,1E-87
156,164,229441,5,0,0:0:0:0:
256,192,229442,2,0,L|372:192,1,1E-87
156,164,229512,5,0,0:0:0:0:
256,192,229513,2,0,L|372:192,1,1E-87
156,164,229583,5,2,0:0:0:0:
256,192,229584,2,2,L|372:192,1,1E-87
156,164,229655,5,2,0:0:0:0:
256,192,229656,2,2,L|372:192,1,1E-87
156,164,229726,5,0,0:0:0:0:
256,192,229727,2,0,L|372:192,1,1E-87
156,164,229798,5,0,0:0:0:0:
256,192,229799,2,0,L|372:192,1,1E-87
156,164,229869,5,2,0:0:0:0:
256,192,229870,2,2,L|372:192,1,1E-87
156,164,229941,5,2,0:0:0:0:
256,192,229942,2,2,L|372:192,1,1E-87
156,164,230012,5,2,0:0:0:0:
256,192,230013,2,2,L|372:192,1,1E-87
156,164,230083,5,2,0:0:0:0:
256,192,230084,2,2,L|372:192,1,1E-87
156,164,230155,5,0,0:0:0:0:
256,192,230156,2,0,L|372:192,1,1E-87
156,164,230226,5,0,0:0:0:0:
256,192,230227,2,0,L|372:192,1,1E-87
156,164,230298,5,2,0:0:0:0:
256,192,230299,2,2,L|372:192,1,1E-87
156,164,230369,5,2,0:0:0:0:
256,192,230370,2,2,L|372:192,1,1E-87
156,164,230441,5,0,0:0:0:0:
256,192,230442,2,0,L|372:192,1,1E-87
156,164,230512,5,0,0:0:0:0:
256,192,230513,2,0,L|372:192,1,1E-87
156,164,230583,5,0,0:0:0:0:
256,192,230584,2,0,L|372:192,1,1E-87
156,164,230655,5,0,0:0:0:0:
256,192,230656,2,0,L|372:192,1,1E-87
156,164,230726,5,2,0:0:0:0:
256,192,230727,2,2,L|372:192,1,1E-87
156,164,230798,5,2,0:0:0:0:
256,192,230799,2,2,L|372:192,1,1E-87
156,164,230869,5,0,0:0:0:0:
256,192,230870,2,0,L|372:192,1,1E-87
156,164,230941,5,0,0:0:0:0:
256,192,230942,2,0,L|372:192,1,1E-87
156,164,231012,5,2,0:0:0:0:
256,192,231013,2,2,L|372:192,1,1E-87
156,164,231083,5,2,0:0:0:0:
256,192,231084,2,2,L|372:192,1,1E-87
156,164,231155,5,2,0:0:0:0:
256,192,231156,2,2,L|372:192,1,1E-87
156,164,231224,5,2,0:0:0:0:
256,192,231225,2,2,L|372:192,1,1E-87
248,148,231298,1,4,0:0:0:0:
272,160,231583,1,4,0:0:0:0:
292,120,231726,1,6,0:0:0:0:
272,140,231869,1,4,0:0:0:0:
272,140,232012,1,4,0:0:0:0:
272,140,232155,1,6,0:0:0:0:
240,168,232298,1,6,0:0:0:0:
396,160,232583,1,6,0:0:0:0:
320,192,232726,1,4,0:0:0:0:
320,192,232869,1,6,0:0:0:0:
412,200,233155,1,2,0:0:0:0:
412,200,233298,1,2,0:0:0:0:
332,204,233583,5,4,0:0:0:0:
188,204,233584,2,4,L|236:208,1,1E-10
188,204,233585,2,4,L|236:208,1,1E-10
188,204,233586,2,4,L|236:208,1,1E-10
188,204,233587,2,4,L|236:208,1,1E-10
188,204,233588,2,4,L|236:208,1,1E-10
188,204,233589,2,4,L|236:208,1,1E-10
188,204,233590,2,4,L|236:208,1,1E-10
188,204,233591,2,4,L|236:208,1,1E-10
188,204,233592,2,4,L|236:208,1,1E-10
188,204,233593,2,4,L|236:208,1,1E-10
188,204,233594,2,4,L|236:208,1,1E-10
188,204,233595,2,4,L|236:208,1,1E-10
188,204,233596,2,4,L|236:208,1,1E-10
188,204,233597,2,4,L|236:208,1,1E-10
332,204,234012,5,6,0:0:0:0:
188,204,234013,2,6,L|236:208,1,1E-10
188,204,234014,2,6,L|236:208,1,1E-10
188,204,234015,2,6,L|236:208,1,1E-10
188,204,234016,2,6,L|236:208,1,1E-10
188,204,234017,2,6,L|236:208,1,1E-10
188,204,234018,2,6,L|236:208,1,1E-10
188,204,234019,2,6,L|236:208,1,1E-10
188,204,234020,2,6,L|236:208,1,1E-10
188,204,234021,2,6,L|236:208,1,1E-10
188,204,234022,2,6,L|236:208,1,1E-10
188,204,234023,2,6,L|236:208,1,1E-10
188,204,234024,2,6,L|236:208,1,1E-10
188,204,234025,2,6,L|236:208,1,1E-10
188,204,234026,2,6,L|236:208,1,1E-10
332,204,234298,5,6,0:0:0:0:
188,204,234299,2,6,L|236:208,1,1E-10
188,204,234300,2,6,L|236:208,1,1E-10
188,204,234301,2,6,L|236:208,1,1E-10
188,204,234302,2,6,L|236:208,1,1E-10
188,204,234303,2,6,L|236:208,1,1E-10
188,204,234304,2,6,L|236:208,1,1E-10
188,204,234305,2,6,L|236:208,1,1E-10
188,204,234306,2,6,L|236:208,1,1E-10
188,204,234307,2,6,L|236:208,1,1E-10
188,204,234308,2,6,L|236:208,1,1E-10
188,204,234309,2,6,L|236:208,1,1E-10
188,204,234310,2,6,L|236:208,1,1E-10
188,204,234311,2,6,L|236:208,1,1E-10
188,204,234312,2,6,L|236:208,1,1E-10
332,204,234583,5,4,0:0:0:0:
188,204,234584,2,4,L|236:208,1,1E-10
188,204,234585,2,4,L|236:208,1,1E-10
188,204,234586,2,4,L|236:208,1,1E-10
188,204,234587,2,4,L|236:208,1,1E-10
188,204,234588,2,4,L|236:208,1,1E-10
188,204,234589,2,4,L|236:208,1,1E-10
188,204,234590,2,4,L|236:208,1,1E-10
188,204,234591,2,4,L|236:208,1,1E-10
188,204,234592,2,4,L|236:208,1,1E-10
188,204,234593,2,4,L|236:208,1,1E-10
188,204,234594,2,4,L|236:208,1,1E-10
188,204,234595,2,4,L|236:208,1,1E-10
188,204,234596,2,4,L|236:208,1,1E-10
188,204,234597,2,4,L|236:208,1,1E-10
332,204,235012,5,6,0:0:0:0:
188,204,235013,2,6,L|236:208,1,1E-10
188,204,235014,2,6,L|236:208,1,1E-10
188,204,235015,2,6,L|236:208,1,1E-10
188,204,235016,2,6,L|236:208,1,1E-10
188,204,235017,2,6,L|236:208,1,1E-10
188,204,235018,2,6,L|236:208,1,1E-10
188,204,235019,2,6,L|236:208,1,1E-10
188,204,235020,2,6,L|236:208,1,1E-10
188,204,235021,2,6,L|236:208,1,1E-10
188,204,235022,2,6,L|236:208,1,1E-10
188,204,235023,2,6,L|236:208,1,1E-10
188,204,235024,2,6,L|236:208,1,1E-10
188,204,235025,2,6,L|236:208,1,1E-10
188,204,235026,2,6,L|236:208,1,1E-10
332,204,235298,5,4,0:0:0:0:
188,204,235299,2,4,L|236:208,1,1E-10
188,204,235300,2,4,L|236:208,1,1E-10
188,204,235301,2,4,L|236:208,1,1E-10
188,204,235302,2,4,L|236:208,1,1E-10
188,204,235303,2,4,L|236:208,1,1E-10
188,204,235304,2,4,L|236:208,1,1E-10
188,204,235305,2,4,L|236:208,1,1E-10
188,204,235306,2,4,L|236:208,1,1E-10
188,204,235307,2,4,L|236:208,1,1E-10
188,204,235308,2,4,L|236:208,1,1E-10
188,204,235309,2,4,L|236:208,1,1E-10
188,204,235310,2,4,L|236:208,1,1E-10
188,204,235311,2,4,L|236:208,1,1E-10
188,204,235312,2,4,L|236:208,1,1E-10
332,204,235583,5,6,0:0:0:0:
188,204,235584,2,6,L|236:208,1,1E-10
188,204,235585,2,6,L|236:208,1,1E-10
188,204,235586,2,6,L|236:208,1,1E-10
188,204,235587,2,6,L|236:208,1,1E-10
188,204,235588,2,6,L|236:208,1,1E-10
188,204,235589,2,6,L|236:208,1,1E-10
188,204,235590,2,6,L|236:208,1,1E-10
188,204,235591,2,6,L|236:208,1,1E-10
188,204,235592,2,6,L|236:208,1,1E-10
188,204,235593,2,6,L|236:208,1,1E-10
188,204,235594,2,6,L|236:208,1,1E-10
188,204,235595,2,6,L|236:208,1,1E-10
188,204,235596,2,6,L|236:208,1,1E-10
188,204,235597,2,6,L|236:208,1,1E-10
352,272,235869,1,0,0:0:0:0:
352,272,235940,1,0,0:0:0:0:
332,116,236012,1,2,0:0:0:0:
352,272,236083,1,0,0:0:0:0:
332,116,236155,1,2,0:0:0:0:
272,60,236226,5,2,0:0:0:0:
320,136,236298,1,0,0:0:0:0:
248,100,236369,5,0,0:0:0:0:
320,136,236440,1,2,0:0:0:0:
332,88,236512,1,2,0:0:0:0:
320,144,236583,1,0,0:0:0:0:
320,144,236655,1,2,0:0:0:0:
320,144,236726,1,2,0:0:0:0:
292,64,236798,5,2,0:0:0:0:
332,96,236869,1,0,0:0:0:0:
280,92,236940,5,0,0:0:0:0:
280,92,237012,5,2,0:0:0:0:
260,112,237155,1,0,0:0:0:0:
324,80,237226,5,0,0:0:0:0:
324,64,237298,1,2,0:0:0:0:
324,84,237369,5,2,0:0:0:0:
260,112,237440,1,0,0:0:0:0:
208,208,237512,5,0,0:0:0:0:
300,56,237583,1,2,0:0:0:0:
276,112,237655,1,0,0:0:0:0:
272,116,237726,1,2,0:0:0:0:
272,116,237798,1,2,0:0:0:0:
276,112,237869,1,0,0:0:0:0:
276,112,237940,1,2,0:0:0:0:
256,124,238012,1,0,0:0:0:0:
256,124,238083,1,0,0:0:0:0:
156,164,238155,5,2,0:0:0:0:
256,192,238156,2,2,L|372:192,1,1E-87
156,164,238226,5,2,0:0:0:0:
256,192,238227,2,2,L|372:192,1,1E-87
156,164,238298,5,2,0:0:0:0:
256,192,238299,2,2,L|372:192,1,1E-87
156,164,238369,5,2,0:0:0:0:
256,192,238370,2,2,L|372:192,1,1E-87
156,164,238440,5,2,0:0:0:0:
256,192,238441,2,2,L|372:192,1,1E-87
156,164,238512,5,2,0:0:0:0:
256,192,238513,2,2,L|372:192,1,1E-87
156,164,238583,5,2,0:0:0:0:
256,192,238584,2,2,L|372:192,1,1E-87
156,164,238655,5,2,0:0:0:0:
256,192,238656,2,2,L|372:192,1,1E-87
156,164,238726,5,0,0:0:0:0:
256,192,238727,2,0,L|372:192,1,1E-87
156,164,238798,5,0,0:0:0:0:
256,192,238799,2,0,L|372:192,1,1E-87
156,164,238869,5,0,0:0:0:0:
256,192,238870,2,0,L|372:192,1,1E-87
156,164,238940,5,0,0:0:0:0:
256,192,238941,2,0,L|372:192,1,1E-87
156,164,239012,5,0,0:0:0:0:
256,192,239013,2,0,L|372:192,1,1E-87
156,164,239083,5,0,0:0:0:0:
256,192,239084,2,0,L|372:192,1,1E-87
156,164,239155,5,0,0:0:0:0:
256,192,239156,2,0,L|372:192,1,1E-87
156,164,239226,5,0,0:0:0:0:
256,192,239227,2,0,L|372:192,1,1E-87
156,164,239298,5,2,0:0:0:0:
256,192,239299,2,2,L|372:192,1,1E-87
156,164,239369,5,2,0:0:0:0:
256,192,239370,2,2,L|372:192,1,1E-87
156,164,239440,5,2,0:0:0:0:
256,192,239441,2,2,L|372:192,1,1E-87
156,164,239512,5,2,0:0:0:0:
256,192,239513,2,2,L|372:192,1,1E-87
156,164,239583,5,2,0:0:0:0:
256,192,239584,2,2,L|372:192,1,1E-87
156,164,239655,5,2,0:0:0:0:
256,192,239656,2,2,L|372:192,1,1E-87
156,164,239726,5,2,0:0:0:0:
256,192,239727,2,2,L|372:192,1,1E-87
156,164,239798,5,2,0:0:0:0:
256,192,239799,2,2,L|372:192,1,1E-87
156,164,239869,5,0,0:0:0:0:
256,192,239870,2,0,L|372:192,1,1E-87
156,164,239940,5,0,0:0:0:0:
256,192,239941,2,0,L|372:192,1,1E-87
156,164,240012,5,0,0:0:0:0:
256,192,240013,2,0,L|372:192,1,1E-87
156,164,240083,5,0,0:0:0:0:
256,192,240084,2,0,L|372:192,1,1E-87
156,164,240155,5,0,0:0:0:0:
256,192,240156,2,0,L|372:192,1,1E-87
156,164,240226,5,0,0:0:0:0:
256,192,240227,2,0,L|372:192,1,1E-87
156,164,240298,5,0,0:0:0:0:
256,192,240299,2,0,L|372:192,1,1E-87
156,164,240369,5,0,0:0:0:0:
256,192,240370,2,0,L|372:192,1,1E-87
324,160,240443,1,6,0:0:0:0:
356,204,240728,1,6,0:0:0:0:
356,204,241014,1,6,0:0:0:0:
424,148,241300,1,4,0:0:0:0:
424,148,241443,1,6,0:0:0:0:
424,148,241728,1,6,0:0:0:0:
396,164,241871,1,4,0:0:0:0:
136,216,241889,2,0,L|496:212,1,350
396,164,242014,1,6,0:0:0:0:
136,216,242032,2,0,L|496:212,1,350
396,164,242300,1,2,0:0:0:0:
396,164,242443,1,2,0:0:0:0:
136,216,242460,2,0,L|496:212,1,350
136,216,242585,2,0,L|496:212,1,350
156,164,242728,1,2,0:0:0:0:
256,192,242729,2,2,L|372:192,1,1E-87
256,192,242729,2,2,L|372:192,1,1E-87
256,192,242729,2,2,L|372:192,1,1E-87
156,164,243156,1,2,0:0:0:0:
256,192,243157,2,2,L|372:192,1,1E-87
256,192,243157,2,2,L|372:192,1,1E-87
256,192,243157,2,2,L|372:192,1,1E-87
156,164,243299,1,4,0:0:0:0:
256,192,243300,2,4,L|372:192,1,1E-87
256,192,243300,2,4,L|372:192,1,1E-87
256,192,243300,2,4,L|372:192,1,1E-87
156,164,243585,1,2,0:0:0:0:
256,192,243586,2,2,L|372:192,1,1E-87
256,192,243586,2,2,L|372:192,1,1E-87
256,192,243586,2,2,L|372:192,1,1E-87
156,164,243870,1,2,0:0:0:0:
256,192,243871,2,2,L|372:192,1,1E-87
256,192,243871,2,2,L|372:192,1,1E-87
256,192,243871,2,2,L|372:192,1,1E-87
156,164,244299,1,2,0:0:0:0:
256,192,244300,2,2,L|372:192,1,1E-87
256,192,244300,2,2,L|372:192,1,1E-87
256,192,244300,2,2,L|372:192,1,1E-87
156,164,244442,1,4,0:0:0:0:
256,192,244443,2,4,L|372:192,1,1E-87
256,192,244443,2,4,L|372:192,1,1E-87
256,192,244443,2,4,L|372:192,1,1E-87
156,164,244728,1,2,0:0:0:0:
256,192,244729,2,2,L|372:192,1,1E-87
256,192,244729,2,2,L|372:192,1,1E-87
256,192,244729,2,2,L|372:192,1,1E-87
156,164,245013,1,2,0:0:0:0:
256,192,245014,2,2,L|372:192,1,1E-87
256,192,245014,2,2,L|372:192,1,1E-87
256,192,245014,2,2,L|372:192,1,1E-87
156,164,245442,1,2,0:0:0:0:
256,192,245443,2,2,L|372:192,1,1E-87
256,192,245443,2,2,L|372:192,1,1E-87
256,192,245443,2,2,L|372:192,1,1E-87
156,164,245585,1,4,0:0:0:0:
256,192,245586,2,4,L|372:192,1,1E-87
256,192,245586,2,4,L|372:192,1,1E-87
256,192,245586,2,4,L|372:192,1,1E-87
156,164,245870,1,2,0:0:0:0:
256,192,245871,2,2,L|372:192,1,1E-87
256,192,245871,2,2,L|372:192,1,1E-87
256,192,245871,2,2,L|372:192,1,1E-87
156,164,246013,1,2,0:0:0:0:
256,192,246014,2,2,L|372:192,1,1E-87
256,192,246014,2,2,L|372:192,1,1E-87
256,192,246014,2,2,L|372:192,1,1E-87
156,164,246156,1,2,0:0:0:0:
256,192,246157,2,2,L|372:192,1,1E-87
256,192,246157,2,2,L|372:192,1,1E-87
256,192,246157,2,2,L|372:192,1,1E-87
156,164,246299,1,2,0:0:0:0:
256,192,246300,2,2,L|372:192,1,1E-87
256,192,246300,2,2,L|372:192,1,1E-87
256,192,246300,2,2,L|372:192,1,1E-87
156,164,246585,1,2,0:0:0:0:
256,192,246586,2,2,L|372:192,1,1E-87
256,192,246586,2,2,L|372:192,1,1E-87
256,192,246586,2,2,L|372:192,1,1E-87
156,164,246728,1,4,0:0:0:0:
256,192,246729,2,4,L|372:192,1,1E-87
256,192,246729,2,4,L|372:192,1,1E-87
256,192,246729,2,4,L|372:192,1,1E-87
156,164,247013,1,2,0:0:0:0:
256,192,247014,2,2,L|372:192,1,1E-87
256,192,247014,2,2,L|372:192,1,1E-87
256,192,247014,2,2,L|372:192,1,1E-87
156,164,247299,1,2,0:0:0:0:
256,192,247300,2,2,L|372:192,1,1E-87
256,192,247300,2,2,L|372:192,1,1E-87
256,192,247300,2,2,L|372:192,1,1E-87
156,164,247585,1,2,0:0:0:0:
256,192,247586,2,2,L|372:192,1,1E-87
256,192,247586,2,2,L|372:192,1,1E-87
256,192,247586,2,2,L|372:192,1,1E-87
156,164,248013,1,2,0:0:0:0:
256,192,248014,2,2,L|372:192,1,1E-87
256,192,248014,2,2,L|372:192,1,1E-87
256,192,248014,2,2,L|372:192,1,1E-87
156,164,248156,1,4,0:0:0:0:
256,192,248157,2,4,L|372:192,1,1E-87
256,192,248157,2,4,L|372:192,1,1E-87
256,192,248157,2,4,L|372:192,1,1E-87
156,164,248442,1,2,0:0:0:0:
256,192,248443,2,2,L|372:192,1,1E-87
256,192,248443,2,2,L|372:192,1,1E-87
256,192,248443,2,2,L|372:192,1,1E-87
156,164,248728,1,2,0:0:0:0:
256,192,248729,2,2,L|372:192,1,1E-87
256,192,248729,2,2,L|372:192,1,1E-87
256,192,248729,2,2,L|372:192,1,1E-87
156,164,249156,1,2,0:0:0:0:
256,192,249157,2,2,L|372:192,1,1E-87
256,192,249157,2,2,L|372:192,1,1E-87
256,192,249157,2,2,L|372:192,1,1E-87
156,164,249299,1,4,0:0:0:0:
256,192,249300,2,4,L|372:192,1,1E-87
256,192,249300,2,4,L|372:192,1,1E-87
256,192,249300,2,4,L|372:192,1,1E-87
156,164,249585,1,2,0:0:0:0:
256,192,249586,2,2,L|372:192,1,1E-87
256,192,249586,2,2,L|372:192,1,1E-87
256,192,249586,2,2,L|372:192,1,1E-87
0,192,249603,6,6,L|288:192,1,-2000
156,164,249728,1,2,0:0:0:0:
256,192,249729,2,2,L|372:192,1,1E-87
256,192,249729,2,2,L|372:192,1,1E-87
256,192,249729,2,2,L|372:192,1,1E-87
156,164,249870,1,4,0:0:0:0:
256,192,249871,2,4,L|372:192,1,1E-87
256,192,249871,2,4,L|372:192,1,1E-87
256,192,249871,2,4,L|372:192,1,1E-87
156,164,250156,1,2,0:0:0:0:
256,192,250157,2,2,L|372:192,1,1E-87
256,192,250157,2,2,L|372:192,1,1E-87
256,192,250157,2,2,L|372:192,1,1E-87
0,192,250174,6,6,L|288:192,1,-2000
156,164,250299,1,2,0:0:0:0:
256,192,250300,2,2,L|372:192,1,1E-87
256,192,250300,2,2,L|372:192,1,1E-87
256,192,250300,2,2,L|372:192,1,1E-87
156,164,250442,1,4,0:0:0:0:
256,192,250443,2,4,L|372:192,1,1E-87
256,192,250443,2,4,L|372:192,1,1E-87
256,192,250443,2,4,L|372:192,1,1E-87
156,164,250585,1,2,0:0:0:0:
256,192,250586,2,2,L|372:192,1,1E-87
256,192,250586,2,2,L|372:192,1,1E-87
256,192,250586,2,2,L|372:192,1,1E-87
156,164,250728,1,4,0:0:0:0:
256,192,250729,2,4,L|372:192,1,1E-87
256,192,250729,2,4,L|372:192,1,1E-87
256,192,250729,2,4,L|372:192,1,1E-87
0,192,250745,6,4,L|288:192,1,-2000
156,164,250870,1,2,0:0:0:0:
256,192,250871,2,2,L|372:192,1,1E-87
256,192,250871,2,2,L|372:192,1,1E-87
256,192,250871,2,2,L|372:192,1,1E-87
156,164,251013,1,4,0:0:0:0:
256,192,251014,2,4,L|372:192,1,1E-87
256,192,251014,2,4,L|372:192,1,1E-87
256,192,251014,2,4,L|372:192,1,1E-87
156,164,251156,1,2,0:0:0:0:
256,192,251157,2,2,L|372:192,1,1E-87
256,192,251157,2,2,L|372:192,1,1E-87
256,192,251157,2,2,L|372:192,1,1E-87
156,164,251299,1,4,0:0:0:0:
256,192,251300,2,4,L|372:192,1,1E-87
256,192,251300,2,4,L|372:192,1,1E-87
256,192,251300,2,4,L|372:192,1,1E-87
0,192,251317,6,4,L|288:192,1,-2000
156,164,251442,1,2,0:0:0:0:
256,192,251443,2,2,L|372:192,1,1E-87
256,192,251443,2,2,L|372:192,1,1E-87
256,192,251443,2,2,L|372:192,1,1E-87
156,164,251585,1,4,0:0:0:0:
256,192,251586,2,4,L|372:192,1,1E-87
256,192,251586,2,4,L|372:192,1,1E-87
256,192,251586,2,4,L|372:192,1,1E-87
156,164,251728,1,2,0:0:0:0:
256,192,251729,2,2,L|372:192,1,1E-87
256,192,251729,2,2,L|372:192,1,1E-87
256,192,251729,2,2,L|372:192,1,1E-87
156,164,251870,1,2,0:0:0:0:
256,192,251871,2,2,L|372:192,1,1E-87
256,192,251871,2,2,L|372:192,1,1E-87
256,192,251871,2,2,L|372:192,1,1E-87
0,192,251888,6,6,L|288:192,1,-2000
156,164,252299,1,2,0:0:0:0:
256,192,252300,2,2,L|372:192,1,1E-87
256,192,252300,2,2,L|372:192,1,1E-87
256,192,252300,2,2,L|372:192,1,1E-87
156,164,252442,1,4,0:0:0:0:
256,192,252443,2,4,L|372:192,1,1E-87
256,192,252443,2,4,L|372:192,1,1E-87
256,192,252443,2,4,L|372:192,1,1E-87
0,192,252460,6,4,L|288:192,1,-2000
156,164,252728,1,2,0:0:0:0:
256,192,252729,2,2,L|372:192,1,1E-87
256,192,252729,2,2,L|372:192,1,1E-87
256,192,252729,2,2,L|372:192,1,1E-87
156,164,253013,1,2,0:0:0:0:
256,192,253014,2,2,L|372:192,1,1E-87
256,192,253014,2,2,L|372:192,1,1E-87
256,192,253014,2,2,L|372:192,1,1E-87
0,192,253031,6,6,L|288:192,1,-2000
156,164,253442,1,2,0:0:0:0:
256,192,253443,2,2,L|372:192,1,1E-87
256,192,253443,2,2,L|372:192,1,1E-87
256,192,253443,2,2,L|372:192,1,1E-87
156,164,253585,1,4,0:0:0:0:
256,192,253586,2,4,L|372:192,1,1E-87
256,192,253586,2,4,L|372:192,1,1E-87
256,192,253586,2,4,L|372:192,1,1E-87
0,192,253603,6,4,L|288:192,1,-2000
156,164,254156,1,2,0:0:0:0:
256,192,254157,2,2,L|372:192,1,1E-87
256,192,254157,2,2,L|372:192,1,1E-87
256,192,254157,2,2,L|372:192,1,1E-87
0,192,254174,6,6,L|288:192,1,-2000
156,164,254585,1,2,0:0:0:0:
256,192,254586,2,2,L|372:192,1,1E-87
256,192,254586,2,2,L|372:192,1,1E-87
256,192,254586,2,2,L|372:192,1,1E-87
156,164,254728,1,4,0:0:0:0:
256,192,254729,2,4,L|372:192,1,1E-87
256,192,254729,2,4,L|372:192,1,1E-87
256,192,254729,2,4,L|372:192,1,1E-87
0,192,254745,6,4,L|288:192,1,-2000
156,164,255156,1,2,0:0:0:0:
256,192,255157,2,2,L|372:192,1,1E-87
256,192,255157,2,2,L|372:192,1,1E-87
256,192,255157,2,2,L|372:192,1,1E-87
156,164,255299,1,2,0:0:0:0:
256,192,255300,2,2,L|372:192,1,1E-87
256,192,255300,2,2,L|372:192,1,1E-87
256,192,255300,2,2,L|372:192,1,1E-87
0,192,255317,6,6,L|288:192,1,-2000
156,164,255442,1,2,0:0:0:0:
256,192,255443,2,2,L|372:192,1,1E-87
256,192,255443,2,2,L|372:192,1,1E-87
256,192,255443,2,2,L|372:192,1,1E-87
156,164,255728,1,2,0:0:0:0:
256,192,255729,2,2,L|372:192,1,1E-87
256,192,255729,2,2,L|372:192,1,1E-87
256,192,255729,2,2,L|372:192,1,1E-87
156,164,255870,1,4,0:0:0:0:
256,192,255871,2,4,L|372:192,1,1E-87
256,192,255871,2,4,L|372:192,1,1E-87
256,192,255871,2,4,L|372:192,1,1E-87
0,192,255888,6,4,L|288:192,1,-2000
156,164,256156,1,2,0:0:0:0:
256,192,256157,2,2,L|372:192,1,1E-87
256,192,256157,2,2,L|372:192,1,1E-87
256,192,256157,2,2,L|372:192,1,1E-87
156,164,256442,1,2,0:0:0:0:
256,192,256443,2,2,L|372:192,1,1E-87
256,192,256443,2,2,L|372:192,1,1E-87
256,192,256443,2,2,L|372:192,1,1E-87
0,192,256460,6,6,L|288:192,1,-2000
156,164,256585,1,2,0:0:0:0:
256,192,256586,2,2,L|372:192,1,1E-87
256,192,256586,2,2,L|372:192,1,1E-87
256,192,256586,2,2,L|372:192,1,1E-87
156,164,256728,1,2,0:0:0:0:
256,192,256729,2,2,L|372:192,1,1E-87
256,192,256729,2,2,L|372:192,1,1E-87
256,192,256729,2,2,L|372:192,1,1E-87
156,164,256870,1,2,0:0:0:0:
256,192,256871,2,2,L|372:192,1,1E-87
256,192,256871,2,2,L|372:192,1,1E-87
256,192,256871,2,2,L|372:192,1,1E-87
156,164,257013,1,2,0:0:0:0:
256,192,257014,2,2,L|372:192,1,1E-87
256,192,257014,2,2,L|372:192,1,1E-87
256,192,257014,2,2,L|372:192,1,1E-87
0,192,257031,6,6,L|288:192,1,-2000
156,164,257156,1,2,0:0:0:0:
256,192,257157,2,2,L|372:192,1,1E-87
256,192,257157,2,2,L|372:192,1,1E-87
256,192,257157,2,2,L|372:192,1,1E-87
156,164,257299,1,2,0:0:0:0:
256,192,257300,2,2,L|372:192,1,1E-87
256,192,257300,2,2,L|372:192,1,1E-87
256,192,257300,2,2,L|372:192,1,1E-87
156,164,257442,1,2,0:0:0:0:
256,192,257443,2,2,L|372:192,1,1E-87
256,192,257443,2,2,L|372:192,1,1E-87
256,192,257443,2,2,L|372:192,1,1E-87
156,164,257585,5,2,0:0:0:0:
256,192,257586,2,2,L|372:192,1,1E-87
256,192,257586,2,2,L|372:192,1,1E-87
256,192,257586,2,2,L|372:192,1,1E-87
0,192,257603,6,6,L|288:192,1,-2000
156,164,257656,1,2,0:0:0:0:
256,192,257657,2,2,L|372:192,1,1E-87
256,192,257657,2,2,L|372:192,1,1E-87
256,192,257657,2,2,L|372:192,1,1E-87
156,164,257727,1,2,0:0:0:0:
256,192,257728,2,2,L|372:192,1,1E-87
256,192,257728,2,2,L|372:192,1,1E-87
256,192,257728,2,2,L|372:192,1,1E-87
156,164,257799,1,2,0:0:0:0:
256,192,257800,2,2,L|372:192,1,1E-87
256,192,257800,2,2,L|372:192,1,1E-87
256,192,257800,2,2,L|372:192,1,1E-87
156,164,257870,1,2,0:0:0:0:
256,192,257871,2,2,L|372:192,1,1E-87
256,192,257871,2,2,L|372:192,1,1E-87
256,192,257871,2,2,L|372:192,1,1E-87
156,164,257942,1,2,0:0:0:0:
256,192,257943,2,2,L|372:192,1,1E-87
256,192,257943,2,2,L|372:192,1,1E-87
256,192,257943,2,2,L|372:192,1,1E-87
156,164,258013,1,2,0:0:0:0:
256,192,258014,2,2,L|372:192,1,1E-87
256,192,258014,2,2,L|372:192,1,1E-87
256,192,258014,2,2,L|372:192,1,1E-87
156,164,258085,1,2,0:0:0:0:
256,192,258086,2,2,L|372:192,1,1E-87
256,192,258086,2,2,L|372:192,1,1E-87
256,192,258086,2,2,L|372:192,1,1E-87
352,212,258157,1,0,0:0:0:0:
312,208,258228,1,0,0:0:0:0:
312,208,258299,1,0,0:0:0:0:
312,208,258370,1,0,0:0:0:0:
312,208,258442,1,0,0:0:0:0:
312,208,258513,1,0,0:0:0:0:
312,208,258585,1,0,0:0:0:0:
312,208,258656,1,0,0:0:0:0:
272,216,258728,5,6,0:0:0:0:
272,216,258870,1,4,0:0:0:0:
272,216,259013,1,6,0:0:0:0:
272,216,259155,1,6,0:0:0:0:
272,216,259298,1,4,0:0:0:0:
264,224,259584,1,4,0:0:0:0:
264,224,259727,1,6,0:0:0:0:
264,224,260013,1,6,0:0:0:0:
352,180,260155,1,4,0:0:0:0:
408,156,260298,1,6,0:0:0:0:
344,80,260441,1,6,0:0:0:0:
256,232,260584,1,4,0:0:0:0:
252,232,260727,1,4,0:0:0:0:
252,236,260870,1,6,0:0:0:0:
296,216,261298,1,6,0:0:0:0:
428,252,262156,1,2,0:0:0:0:
428,252,262229,1,2,0:0:0:0:
428,252,262300,1,2,0:0:0:0:
428,252,262372,1,2,0:0:0:0:
428,252,262443,1,2,0:0:0:0:
428,252,262515,1,2,0:0:0:0:
428,252,262586,1,2,0:0:0:0:
428,252,262657,1,2,0:0:0:0:
428,252,262729,1,2,0:0:0:0:
428,252,262800,1,2,0:0:0:0:
428,252,262872,1,2,0:0:0:0:
428,252,262943,1,2,0:0:0:0:
424,256,263015,1,4,0:0:0:0:
332,204,263299,1,2,0:0:0:0:
188,204,263300,2,2,L|236:208,1,1E-10
188,204,263301,2,2,L|236:208,1,1E-10
332,204,263370,1,2,0:0:0:0:
188,204,263371,2,2,L|236:208,1,1E-10
188,204,263372,2,2,L|236:208,1,1E-10
332,204,263441,1,2,0:0:0:0:
188,204,263442,2,2,L|236:208,1,1E-10
188,204,263443,2,2,L|236:208,1,1E-10
332,204,263513,1,2,0:0:0:0:
188,204,263514,2,2,L|236:208,1,1E-10
188,204,263515,2,2,L|236:208,1,1E-10
332,204,263584,1,2,0:0:0:0:
188,204,263585,2,2,L|236:208,1,1E-10
188,204,263586,2,2,L|236:208,1,1E-10
332,204,263727,1,0,0:0:0:0:
188,204,263728,2,0,L|236:208,1,1E-10
188,204,263729,2,0,L|236:208,1,1E-10
332,204,263799,1,0,0:0:0:0:
188,204,263800,2,0,L|236:208,1,1E-10
188,204,263801,2,0,L|236:208,1,1E-10
332,204,263870,1,0,0:0:0:0:
188,204,263871,2,0,L|236:208,1,1E-10
188,204,263872,2,0,L|236:208,1,1E-10
332,204,263941,1,0,0:0:0:0:
188,204,263942,2,0,L|236:208,1,1E-10
188,204,263943,2,0,L|236:208,1,1E-10
332,204,264013,1,2,0:0:0:0:
188,204,264014,2,2,L|236:208,1,1E-10
188,204,264015,2,2,L|236:208,1,1E-10
332,204,264156,1,0,0:0:0:0:
188,204,264157,2,0,L|236:208,1,1E-10
188,204,264158,2,0,L|236:208,1,1E-10
332,204,264299,1,2,0:0:0:0:
188,204,264300,2,2,L|236:208,1,1E-10
188,204,264301,2,2,L|236:208,1,1E-10
332,204,264370,1,2,0:0:0:0:
188,204,264371,2,2,L|236:208,1,1E-10
188,204,264372,2,2,L|236:208,1,1E-10
332,204,264441,1,2,0:0:0:0:
188,204,264442,2,2,L|236:208,1,1E-10
188,204,264443,2,2,L|236:208,1,1E-10
332,204,264513,1,2,0:0:0:0:
188,204,264514,2,2,L|236:208,1,1E-10
188,204,264515,2,2,L|236:208,1,1E-10
332,204,264584,1,0,0:0:0:0:
188,204,264585,2,0,L|236:208,1,1E-10
188,204,264586,2,0,L|236:208,1,1E-10
332,204,264727,1,2,0:0:0:0:
188,204,264728,2,2,L|236:208,1,1E-10
188,204,264729,2,2,L|236:208,1,1E-10
332,204,264799,5,0,0:0:0:0:
188,204,264800,2,0,L|236:208,1,1E-10
188,204,264801,2,0,L|236:208,1,1E-10
332,204,264870,5,0,0:0:0:0:
188,204,264871,2,0,L|236:208,1,1E-10
188,204,264872,2,0,L|236:208,1,1E-10
332,204,265013,5,2,0:0:0:0:
188,204,265014,2,2,L|236:208,1,1E-10
188,204,265015,2,2,L|236:208,1,1E-10
332,204,265084,5,0,0:0:0:0:
188,204,265085,2,0,L|236:208,1,1E-10
188,204,265086,2,0,L|236:208,1,1E-10
332,204,265156,5,2,0:0:0:0:
188,204,265157,2,2,L|236:208,1,1E-10
188,204,265158,2,2,L|236:208,1,1E-10
332,204,265227,5,2,0:0:0:0:
188,204,265228,2,2,L|236:208,1,1E-10
188,204,265229,2,2,L|236:208,1,1E-10
332,204,265299,5,0,0:0:0:0:
188,204,265300,2,0,L|236:208,1,1E-10
188,204,265301,2,0,L|236:208,1,1E-10
332,204,265370,5,0,0:0:0:0:
188,204,265371,2,0,L|236:208,1,1E-10
188,204,265372,2,0,L|236:208,1,1E-10
332,204,265441,5,2,0:0:0:0:
188,204,265442,2,2,L|236:208,1,1E-10
188,204,265443,2,2,L|236:208,1,1E-10
332,204,265584,1,2,0:0:0:0:
188,204,265585,2,2,L|236:208,1,1E-10
188,204,265586,2,2,L|236:208,1,1E-10
332,204,265655,1,2,0:0:0:0:
188,204,265656,2,2,L|236:208,1,1E-10
188,204,265657,2,2,L|236:208,1,1E-10
332,204,265726,1,2,0:0:0:0:
188,204,265727,2,2,L|236:208,1,1E-10
188,204,265728,2,2,L|236:208,1,1E-10
332,204,265798,1,0,0:0:0:0:
188,204,265799,2,0,L|236:208,1,1E-10
188,204,265800,2,0,L|236:208,1,1E-10
332,204,265869,1,2,0:0:0:0:
188,204,265870,2,2,L|236:208,1,1E-10
188,204,265871,2,2,L|236:208,1,1E-10
332,204,266012,1,0,0:0:0:0:
188,204,266013,2,0,L|236:208,1,1E-10
188,204,266014,2,0,L|236:208,1,1E-10
332,204,266084,1,2,0:0:0:0:
188,204,266085,2,2,L|236:208,1,1E-10
188,204,266086,2,2,L|236:208,1,1E-10
332,204,266155,1,2,0:0:0:0:
188,204,266156,2,2,L|236:208,1,1E-10
188,204,266157,2,2,L|236:208,1,1E-10
332,204,266298,1,2,0:0:0:0:
188,204,266299,2,2,L|236:208,1,1E-10
188,204,266300,2,2,L|236:208,1,1E-10
332,204,266441,1,0,0:0:0:0:
188,204,266442,2,0,L|236:208,1,1E-10
188,204,266443,2,0,L|236:208,1,1E-10
332,204,266584,1,2,0:0:0:0:
188,204,266585,2,2,L|236:208,1,1E-10
188,204,266586,2,2,L|236:208,1,1E-10
332,204,266655,1,2,0:0:0:0:
188,204,266656,2,2,L|236:208,1,1E-10
188,204,266657,2,2,L|236:208,1,1E-10
332,204,266726,1,0,0:0:0:0:
188,204,266727,2,0,L|236:208,1,1E-10
188,204,266728,2,0,L|236:208,1,1E-10
332,204,266798,1,0,0:0:0:0:
188,204,266799,2,0,L|236:208,1,1E-10
188,204,266800,2,0,L|236:208,1,1E-10
332,204,266869,1,2,0:0:0:0:
188,204,266870,2,2,L|236:208,1,1E-10
188,204,266871,2,2,L|236:208,1,1E-10
332,204,267012,1,0,0:0:0:0:
188,204,267013,2,0,L|236:208,1,1E-10
188,204,267014,2,0,L|236:208,1,1E-10
332,204,267084,5,2,0:0:0:0:
188,204,267085,2,2,L|236:208,1,1E-10
188,204,267086,2,2,L|236:208,1,1E-10
332,204,267155,5,2,0:0:0:0:
188,204,267156,2,2,L|236:208,1,1E-10
188,204,267157,2,2,L|236:208,1,1E-10
332,204,267298,5,0,0:0:0:0:
188,204,267299,2,0,L|236:208,1,1E-10
188,204,267300,2,0,L|236:208,1,1E-10
332,204,267369,5,0,0:0:0:0:
188,204,267370,2,0,L|236:208,1,1E-10
188,204,267371,2,0,L|236:208,1,1E-10
332,204,267441,5,2,0:0:0:0:
188,204,267442,2,2,L|236:208,1,1E-10
188,204,267443,2,2,L|236:208,1,1E-10
332,204,267512,5,2,0:0:0:0:
188,204,267513,2,2,L|236:208,1,1E-10
188,204,267514,2,2,L|236:208,1,1E-10
332,204,267584,5,0,0:0:0:0:
188,204,267585,2,0,L|236:208,1,1E-10
188,204,267586,2,0,L|236:208,1,1E-10
332,204,267655,5,0,0:0:0:0:
188,204,267656,2,0,L|236:208,1,1E-10
188,204,267657,2,0,L|236:208,1,1E-10
332,204,267726,5,2,0:0:0:0:
188,204,267727,2,2,L|236:208,1,1E-10
188,204,267728,2,2,L|236:208,1,1E-10
332,204,267870,1,2,0:0:0:0:
188,204,267871,2,2,L|236:208,1,1E-10
188,204,267872,2,2,L|236:208,1,1E-10
332,204,267941,1,0,0:0:0:0:
188,204,267942,2,0,L|236:208,1,1E-10
188,204,267943,2,0,L|236:208,1,1E-10
332,204,268012,1,2,0:0:0:0:
188,204,268013,2,2,L|236:208,1,1E-10
188,204,268014,2,2,L|236:208,1,1E-10
332,204,268084,1,2,0:0:0:0:
188,204,268085,2,2,L|236:208,1,1E-10
188,204,268086,2,2,L|236:208,1,1E-10
332,204,268155,1,2,0:0:0:0:
188,204,268156,2,2,L|236:208,1,1E-10
188,204,268157,2,2,L|236:208,1,1E-10
332,204,268298,1,0,0:0:0:0:
188,204,268299,2,0,L|236:208,1,1E-10
188,204,268300,2,0,L|236:208,1,1E-10
332,204,268370,1,0,0:0:0:0:
188,204,268371,2,0,L|236:208,1,1E-10
188,204,268372,2,0,L|236:208,1,1E-10
332,204,268441,1,2,0:0:0:0:
188,204,268442,2,2,L|236:208,1,1E-10
188,204,268443,2,2,L|236:208,1,1E-10
332,204,268512,1,0,0:0:0:0:
188,204,268513,2,0,L|236:208,1,1E-10
188,204,268514,2,0,L|236:208,1,1E-10
332,204,268584,1,2,0:0:0:0:
188,204,268585,2,2,L|236:208,1,1E-10
188,204,268586,2,2,L|236:208,1,1E-10
332,204,268727,1,0,0:0:0:0:
188,204,268728,2,0,L|236:208,1,1E-10
188,204,268729,2,0,L|236:208,1,1E-10
332,204,268870,1,2,0:0:0:0:
188,204,268871,2,2,L|236:208,1,1E-10
188,204,268872,2,2,L|236:208,1,1E-10
332,204,268941,1,0,0:0:0:0:
188,204,268942,2,0,L|236:208,1,1E-10
188,204,268943,2,0,L|236:208,1,1E-10
332,204,269012,1,2,0:0:0:0:
188,204,269013,2,2,L|236:208,1,1E-10
188,204,269014,2,2,L|236:208,1,1E-10
332,204,269084,1,2,0:0:0:0:
188,204,269085,2,2,L|236:208,1,1E-10
188,204,269086,2,2,L|236:208,1,1E-10
332,204,269155,1,0,0:0:0:0:
188,204,269156,2,0,L|236:208,1,1E-10
188,204,269157,2,0,L|236:208,1,1E-10
332,204,269298,1,2,0:0:0:0:
188,204,269299,2,2,L|236:208,1,1E-10
188,204,269300,2,2,L|236:208,1,1E-10
332,204,269370,5,0,0:0:0:0:
188,204,269371,2,0,L|236:208,1,1E-10
188,204,269372,2,0,L|236:208,1,1E-10
332,204,269441,5,0,0:0:0:0:
188,204,269442,2,0,L|236:208,1,1E-10
188,204,269443,2,0,L|236:208,1,1E-10
332,204,269584,5,2,0:0:0:0:
188,204,269585,2,2,L|236:208,1,1E-10
188,204,269586,2,2,L|236:208,1,1E-10
332,204,269655,5,2,0:0:0:0:
188,204,269656,2,2,L|236:208,1,1E-10
188,204,269657,2,2,L|236:208,1,1E-10
332,204,269727,5,0,0:0:0:0:
188,204,269728,2,0,L|236:208,1,1E-10
188,204,269729,2,0,L|236:208,1,1E-10
332,204,269798,5,2,0:0:0:0:
188,204,269799,2,2,L|236:208,1,1E-10
188,204,269800,2,2,L|236:208,1,1E-10
332,204,269870,5,0,0:0:0:0:
188,204,269871,2,0,L|236:208,1,1E-10
188,204,269872,2,0,L|236:208,1,1E-10
332,204,269941,5,0,0:0:0:0:
188,204,269942,2,0,L|236:208,1,1E-10
188,204,269943,2,0,L|236:208,1,1E-10
332,204,270012,5,2,0:0:0:0:
188,204,270013,2,2,L|236:208,1,1E-10
188,204,270014,2,2,L|236:208,1,1E-10
332,204,270156,1,2,0:0:0:0:
188,204,270157,2,2,L|236:208,1,1E-10
188,204,270158,2,2,L|236:208,1,1E-10
332,204,270227,1,0,0:0:0:0:
188,204,270228,2,0,L|236:208,1,1E-10
188,204,270229,2,0,L|236:208,1,1E-10
332,204,270298,1,2,0:0:0:0:
188,204,270299,2,2,L|236:208,1,1E-10
188,204,270300,2,2,L|236:208,1,1E-10
332,204,270370,1,0,0:0:0:0:
188,204,270371,2,0,L|236:208,1,1E-10
188,204,270372,2,0,L|236:208,1,1E-10
332,204,270441,1,2,0:0:0:0:
188,204,270442,2,2,L|236:208,1,1E-10
188,204,270443,2,2,L|236:208,1,1E-10
332,204,270584,1,0,0:0:0:0:
188,204,270585,2,0,L|236:208,1,1E-10
188,204,270586,2,0,L|236:208,1,1E-10
332,204,270656,1,2,0:0:0:0:
188,204,270657,2,2,L|236:208,1,1E-10
188,204,270658,2,2,L|236:208,1,1E-10
332,204,270727,1,2,0:0:0:0:
188,204,270728,2,2,L|236:208,1,1E-10
188,204,270729,2,2,L|236:208,1,1E-10
332,204,270870,1,2,0:0:0:0:
188,204,270871,2,2,L|236:208,1,1E-10
188,204,270872,2,2,L|236:208,1,1E-10
332,204,271013,1,0,0:0:0:0:
188,204,271014,2,0,L|236:208,1,1E-10
188,204,271015,2,0,L|236:208,1,1E-10
332,204,271156,1,2,0:0:0:0:
188,204,271157,2,2,L|236:208,1,1E-10
188,204,271158,2,2,L|236:208,1,1E-10
332,204,271227,1,2,0:0:0:0:
188,204,271228,2,2,L|236:208,1,1E-10
188,204,271229,2,2,L|236:208,1,1E-10
332,204,271298,1,2,0:0:0:0:
188,204,271299,2,2,L|236:208,1,1E-10
188,204,271300,2,2,L|236:208,1,1E-10
332,204,271370,1,2,0:0:0:0:
188,204,271371,2,2,L|236:208,1,1E-10
188,204,271372,2,2,L|236:208,1,1E-10
332,204,271441,1,0,0:0:0:0:
188,204,271442,2,0,L|236:208,1,1E-10
188,204,271443,2,0,L|236:208,1,1E-10
332,204,271584,1,2,0:0:0:0:
188,204,271585,2,2,L|236:208,1,1E-10
188,204,271586,2,2,L|236:208,1,1E-10
332,204,271656,5,2,0:0:0:0:
188,204,271657,2,2,L|236:208,1,1E-10
188,204,271658,2,2,L|236:208,1,1E-10
332,204,271727,5,0,0:0:0:0:
188,204,271728,2,0,L|236:208,1,1E-10
188,204,271729,2,0,L|236:208,1,1E-10
332,204,271870,5,2,0:0:0:0:
188,204,271871,2,2,L|236:208,1,1E-10
188,204,271872,2,2,L|236:208,1,1E-10
332,204,271941,5,2,0:0:0:0:
188,204,271942,2,2,L|236:208,1,1E-10
188,204,271943,2,2,L|236:208,1,1E-10
332,204,272013,5,2,0:0:0:0:
188,204,272014,2,2,L|236:208,1,1E-10
188,204,272015,2,2,L|236:208,1,1E-10
332,204,272084,5,2,0:0:0:0:
188,204,272085,2,2,L|236:208,1,1E-10
188,204,272086,2,2,L|236:208,1,1E-10
332,204,272156,5,2,0:0:0:0:
188,204,272157,2,2,L|236:208,1,1E-10
188,204,272158,2,2,L|236:208,1,1E-10
160,192,272394,6,0,L|236:192,1,-70
160,192,272394,6,0,L|236:192,1,-70
248,256,272441,1,4,0:0:0:0:
300,144,272584,1,2,0:0:0:0:
300,144,272656,1,2,0:0:0:0:
268,152,272727,1,2,0:0:0:0:
160,192,272822,6,0,L|236:192,1,-70
160,192,272822,6,0,L|236:192,1,-70
204,260,272870,1,4,0:0:0:0:
268,152,273013,1,2,0:0:0:0:
268,152,273084,1,0,0:0:0:0:
268,152,273156,1,2,0:0:0:0:
160,192,273263,6,0,L|236:192,1,-70
160,192,273263,6,0,L|236:192,1,-70
204,260,273299,1,4,0:0:0:0:
268,152,273441,1,2,0:0:0:0:
268,152,273513,1,2,0:0:0:0:
268,152,273584,1,2,0:0:0:0:
160,192,273691,6,0,L|236:192,1,-70
160,192,273691,6,0,L|236:192,1,-70
204,260,273727,1,4,0:0:0:0:
268,152,273870,1,2,0:0:0:0:
268,152,273941,1,0,0:0:0:0:
268,152,274013,1,2,0:0:0:0:
160,192,274120,6,0,L|236:192,1,-70
160,192,274120,6,0,L|236:192,1,-70
204,260,274156,1,4,0:0:0:0:
268,152,274299,1,2,0:0:0:0:
268,152,274370,1,2,0:0:0:0:
188,196,274441,1,2,0:0:0:0:
160,192,274549,6,0,L|236:192,1,-70
160,192,274549,6,0,L|236:192,1,-70
204,260,274584,1,4,0:0:0:0:
256,192,274870,12,0,274893,0:0:0:0:
256,192,274870,12,0,274893,0:0:0:0:
256,192,274870,12,0,274893,0:0:0:0:
256,192,274870,12,0,274893,0:0:0:0:
256,192,274870,12,0,274893,0:0:0:0:
256,192,274965,12,0,274988,0:0:0:0:
256,192,274965,12,0,274988,0:0:0:0:
256,192,274965,12,0,274988,0:0:0:0:
256,192,274965,12,0,274988,0:0:0:0:
256,192,274965,12,0,274988,0:0:0:0:
256,192,275084,12,0,275107,0:0:0:0:
256,192,275084,12,0,275107,0:0:0:0:
256,192,275084,12,0,275107,0:0:0:0:
256,192,275084,12,0,275107,0:0:0:0:
256,192,275084,12,0,275107,0:0:0:0:
256,192,275251,12,0,275274,0:0:0:0:
256,192,275251,12,0,275274,0:0:0:0:
256,192,275251,12,0,275274,0:0:0:0:
256,192,275251,12,0,275274,0:0:0:0:
256,192,275251,12,0,275274,0:0:0:0:
256,192,275417,12,0,275440,0:0:0:0:
256,192,275417,12,0,275440,0:0:0:0:
256,192,275417,12,0,275440,0:0:0:0:
256,192,275417,12,0,275440,0:0:0:0:
256,192,275417,12,0,275440,0:0:0:0:
256,192,275584,12,0,275607,0:0:0:0:
256,192,275584,12,0,275607,0:0:0:0:
256,192,275584,12,0,275607,0:0:0:0:
256,192,275584,12,0,275607,0:0:0:0:
256,192,275584,12,0,275607,0:0:0:0:
256,192,275798,12,0,275821,0:0:0:0:
256,192,275798,12,0,275821,0:0:0:0:
256,192,275798,12,0,275821,0:0:0:0:
256,192,275798,12,0,275821,0:0:0:0:
256,192,275798,12,0,275821,0:0:0:0:
256,192,276036,12,0,276059,0:0:0:0:
256,192,276036,12,0,276059,0:0:0:0:
256,192,276036,12,0,276059,0:0:0:0:
256,192,276036,12,0,276059,0:0:0:0:
256,192,276036,12,0,276059,0:0:0:0:
256,192,276274,12,0,276297,0:0:0:0:
256,192,276274,12,0,276297,0:0:0:0:
256,192,276274,12,0,276297,0:0:0:0:
256,192,276274,12,0,276297,0:0:0:0:
256,192,276274,12,0,276297,0:0:0:0:
256,192,276560,12,0,276583,0:0:0:0:
256,192,276560,12,0,276583,0:0:0:0:
256,192,276560,12,0,276583,0:0:0:0:
256,192,276560,12,0,276583,0:0:0:0:
256,192,276560,12,0,276583,0:0:0:0:
256,192,276893,12,0,276916,0:0:0:0:
256,192,276893,12,0,276916,0:0:0:0:
256,192,276893,12,0,276916,0:0:0:0:
256,192,276893,12,0,276916,0:0:0:0:
256,192,277298,12,0,277321,0:0:0:0:
256,192,277298,12,0,277321,0:0:0:0:
256,192,277298,12,0,277321,0:0:0:0:
256,192,277370,12,0,277393,0:0:0:0:
256,192,277370,12,0,277393,0:0:0:0:
256,192,277370,12,0,277393,0:0:0:0:
256,192,277441,12,0,277464,0:0:0:0:
256,192,277441,12,0,277464,0:0:0:0:
256,192,277513,12,0,277536,0:0:0:0:
256,192,277513,12,0,277536,0:0:0:0:
256,192,277584,12,0,277607,0:0:0:0:
256,192,277584,12,0,277607,0:0:0:0:
256,192,277655,12,0,277678,0:0:0:0:
256,192,277655,12,0,277678,0:0:0:0:
256,192,277727,12,0,277750,0:0:0:0:
256,192,277727,12,0,277750,0:0:0:0:
256,192,277798,12,0,277821,0:0:0:0:
256,192,277798,12,0,277821,0:0:0:0:
256,192,277870,12,0,277893,0:0:0:0:
256,192,277941,12,0,277964,0:0:0:0:
256,192,278013,12,0,278020,0:0:0:0:
248,140,278157,5,6,0:0:0:0:
248,140,278300,1,6,0:0:0:0:
188,160,278585,1,4,0:0:0:0:
188,160,278871,1,4,0:0:0:0:
188,160,279157,5,6,0:0:0:0:
