osu file format v14

[General]
AudioFilename: audio.mp3
AudioLeadIn: 0
PreviewTime: 58488
Countdown: 0
SampleSet: Soft
StackLeniency: 0.2
Mode: 0
LetterboxInBreaks: 0
WidescreenStoryboard: 1

[Editor]
DistanceSpacing: 0.8
BeatDivisor: 4
GridSize: 32
TimelineZoom: 2.3

[Metadata]
Title:Hajimari no Setsuna (TV Size)
TitleUnicode:はじまりのセツナ (TV Size)
Artist:Roubai Gakuen Chuutoubu 1-nen 3-kumi
ArtistUnicode:蠟梅学園中等部1年3組
Creator:Xahlt
Version:Woood's Insane
Source:明日ちゃんのセーラー服
Tags:Akebi-chan Akebi chan Akebi's no Sailor Fuku Uniform Anime Opening op japanese pop jpop j-pop idol female vocal vocalist kuon- asukow Woood13 jp ashita asita CloverWorks 1nenn 3gumi 3kumi 1-3
BeatmapID:3474857
BeatmapSetID:1683459

[Difficulty]
HPDrainRate:5.2
CircleSize:4.2
OverallDifficulty:8
ApproachRate:9
SliderMultiplier:2.1
SliderTickRate:1

[Events]
//Background and Video events
0,0,"bg.jpg",0,0
Video,185,"op.mp4"
//Break Periods
//Storyboard Layer 0 (Background)
//Storyboard Layer 1 (Fail)
//Storyboard Layer 2 (Pass)
//Storyboard Layer 3 (Foreground)
//Storyboard Layer 4 (Overlay)
//Storyboard Sound Samples

[TimingPoints]
1184,468.75,4,2,1,50,1,0
10090,-111.111111111111,4,2,1,50,0,0
10559,-100,4,2,1,50,0,0
11613,-100,4,2,1,5,0,0
11730,-100,4,2,1,50,0,0
13488,-100,4,2,1,5,0,0
13605,-100,4,2,1,50,0,0
13840,-142.857142857143,4,2,1,50,0,0
14191,-142.857142857143,4,2,1,5,0,0
14309,468.75,4,2,1,60,1,0
14309,-76.9230769230769,4,2,1,60,0,0
21809,-76.9230769230769,4,2,1,70,0,0
28137,-166.666666666667,4,2,1,70,0,0
29309,-111.111111111111,4,2,1,55,0,0
44309,-99.9999999999999,4,2,1,65,0,0
44543,-99.9999999999999,4,2,1,5,0,0
44660,-99.9999999999999,4,2,1,65,0,0
44894,-99.9999999999999,4,2,1,5,0,0
45012,-99.9999999999999,4,2,1,65,0,0
46418,-99.9999999999999,4,2,1,5,0,0
46535,-99.9999999999999,4,2,1,65,0,0
46769,-99.9999999999999,4,2,1,5,0,0
46887,-99.9999999999999,4,2,1,65,0,0
48293,-99.9999999999999,4,2,1,5,0,0
48410,-99.9999999999999,4,2,1,65,0,0
48644,-99.9999999999999,4,2,1,5,0,0
48762,-99.9999999999999,4,2,1,65,0,0
49348,-99.9999999999999,4,2,1,5,0,0
49465,-99.9999999999999,4,2,1,65,0,0
49582,-99.9999999999999,4,2,1,5,0,0
49699,-99.9999999999999,4,2,1,65,0,0
49816,-99.9999999999999,4,2,1,5,0,0
49934,-99.9999999999999,4,2,1,65,0,0
50168,-99.9999999999999,4,2,1,5,0,0
50285,-99.9999999999999,4,2,1,65,0,0
50519,-99.9999999999999,4,2,1,5,0,0
50637,-99.9999999999999,4,2,1,65,0,0
51809,-90.9090909090909,4,2,1,70,0,0
57434,-83.3333333333333,4,2,1,70,0,0
58137,-166.666666666667,4,2,1,70,0,0
59309,-71.4285714285714,4,2,1,80,0,1
70559,-71.4285714285714,4,2,1,80,0,1
72434,-71.4285714285714,4,2,1,80,0,1
73371,-71.4285714285714,4,2,1,80,0,0
74309,-71.4285714285714,4,2,1,80,0,1
85441,-71.4285714285714,4,2,1,5,0,1
85559,-71.4285714285714,4,2,1,80,0,1
87434,-71.4285714285714,4,2,1,80,0,1
88371,-200,4,2,1,80,0,0
89309,-200,4,2,1,5,0,0

[Colours]
Combo1 : 201,201,201
Combo2 : 4,91,208
Combo3 : 135,206,235

[HitObjects]
101,342,1184,6,0,P|48:294|85:231,1,105,2|2,0:0|0:0,0:0:0:0:
47,259,1535,1,2,0:0:0:0:
121,171,1769,1,2,0:0:0:0:
121,171,1887,2,0,B|209:183|171:222|265:238,2,157.5,2|2|2,0:0|0:0|0:0,0:0:0:0:
398,256,2824,1,2,0:0:0:0:
398,265,2941,1,2,0:0:0:0:
404,272,3059,6,0,P|420:194|435:141,1,105,2|2,0:0|0:0,0:0:0:0:
424,162,3410,1,2,0:0:0:0:
412,46,3644,1,2,0:0:0:0:
412,46,3762,2,0,P|354:50|316:186,1,210,2|2,0:0|0:0,0:0:0:0:
166,82,4465,1,2,0:0:0:0:
256,3,4699,1,2,0:0:0:0:
163,181,4934,6,0,L|61:206,1,105,2|2,0:0|0:0,0:0:0:0:
54,202,5285,1,2,0:0:0:0:
156,281,5519,1,0,0:0:0:0:
156,281,5637,2,0,B|211:294|211:294|236:324|236:324|309:343,2,157.5,2|2|2,0:0|0:0|0:0,0:0:0:0:
328,135,6574,1,2,0:0:0:0:
328,135,6691,1,2,0:0:0:0:
328,135,6809,6,0,P|293:189|334:243,1,105,2|0,0:0|0:0,0:0:0:0:
309,231,7160,1,2,0:0:0:0:
453,117,7394,1,0,0:0:0:0:
453,117,7512,2,0,B|461:71|461:71|465:68|465:68|477:3,1,105,2|0,0:0|0:0,0:0:0:0:
328,135,7980,1,2,0:0:0:0:
449,222,8215,1,2,0:0:0:0:
306,26,8449,5,2,0:0:0:0:
226,145,8684,2,0,B|167:129|189:108|129:98,1,105,2|2,0:0|0:0,0:0:0:0:
128,91,9035,1,2,0:0:0:0:
8,239,9269,1,2,0:0:0:0:
8,239,9387,2,0,P|-21:183|12:148,1,105,2|0,0:0|0:0,0:0:0:0:
154,283,9855,1,2,0:0:0:0:
92,354,10090,2,0,P|47:361|-5:376,1,94.499997116089,2|2,0:0|0:0,0:0:0:0:
152,192,10559,6,0,P|208:208|266:217,1,105,2|2,0:0|0:0,0:0:0:0:
260,220,10910,1,2,0:0:0:0:
426,343,11144,1,2,0:0:0:0:
426,343,11262,2,0,B|457:296|457:296|408:254,1,105,2|0,0:0|0:0,0:0:0:0:
315,376,11730,1,2,0:0:0:0:
471,210,11965,2,0,L|504:47,1,157.5,2|0,0:0|0:0,0:0:0:0:
496,49,12434,6,0,B|439:62|467:74|401:93,1,105,2|2,0:0|0:0,0:0:0:0:
304,218,12902,1,2,0:0:0:0:
199,93,13137,1,2,0:0:0:0:
199,93,13254,2,0,P|252:76|303:53,1,105,2|0,0:0|0:0,0:0:0:0:
300,45,13605,1,2,0:0:0:0:
161,262,13840,2,0,P|123:225|137:175,1,110.249996635437,2|0,0:0|0:0,0:0:0:0:
143,170,14309,6,0,P|217:187|320:222,1,136.499993751526,6|0,3:2|0:0,0:0:0:0:
327,260,14660,1,2,0:0:0:0:
466,205,14894,1,0,0:0:0:0:
466,205,15012,2,0,P|415:262|437:337,1,136.499993751526,2|0,0:0|3:2,0:0:0:0:
505,320,15363,1,2,0:0:0:0:
505,320,15480,1,2,0:0:0:0:
361,136,15715,1,2,3:2:0:0:
259,300,15949,1,2,0:0:0:0:
259,300,16066,1,0,0:0:0:0:
259,300,16184,6,0,B|200:315|200:315|195:321|195:321|118:340,1,136.499993751526,2|0,3:2|0:0,0:0:0:0:
70,384,16535,1,2,0:0:0:0:
122,262,16769,5,0,0:0:0:0:
122,262,16887,2,0,B|171:219|171:219|104:131,1,136.499993751526,2|0,0:0|3:2,0:0:0:0:
60,200,17238,1,2,0:0:0:0:
60,200,17355,2,0,P|42:130|2:41,1,136.499993751526,2|2,0:0|3:2,0:0:0:0:
109,2,17824,1,2,0:0:0:0:
129,14,17941,1,0,0:0:0:0:
158,12,18059,6,0,P|231:17|251:89,1,136.499993751526,2|0,3:2|0:0,0:0:0:0:
302,128,18410,1,2,0:0:0:0:
411,240,18644,1,0,0:0:0:0:
411,240,18762,2,0,L|387:99,1,136.499993751526,2|0,0:0|3:2,0:0:0:0:
216,226,19113,2,0,P|282:229|342:296,1,136.499993751526,2|0,0:0|0:0,0:0:0:0:
388,329,19465,1,2,3:2:0:0:
410,327,19582,1,0,0:0:0:0:
434,337,19699,1,2,0:0:0:0:
321,289,19934,6,0,P|254:303|153:356,1,136.499993751526,2|0,3:2|0:0,0:0:0:0:
180,325,20285,1,2,0:0:0:0:
51,362,20519,1,0,0:0:0:0:
51,362,20637,2,0,B|12:305|12:305|96:232,1,136.499993751526,2|0,0:0|3:2,0:0:0:0:
170,175,21105,1,10,2:3:0:0:
183,165,21223,1,8,2:3:0:0:
186,145,21340,1,10,2:3:0:0:
177,124,21457,2,0,L|91:91,1,68.2499968757631,6|6,2:3|2:3,0:0:0:0:
60,43,21691,1,6,2:3:0:0:
60,43,21809,6,0,P|136:-2|192:22,1,136.499993751526,6|8,3:2|0:0,0:0:0:0:
244,49,22160,1,10,0:0:0:0:
244,49,22277,2,0,L|388:20,1,136.499993751526,0|10,3:2|0:0,0:0:0:0:
445,57,22629,1,8,0:0:0:0:
445,57,22746,6,0,P|456:90|488:120,1,68.2499968757631,0|2,3:2|0:0,0:0:0:0:
389,186,22980,2,0,P|378:153|346:123,1,68.2499968757631,10|10,0:0|0:0,0:0:0:0:
511,239,23215,1,0,3:2:0:0:
511,239,23332,1,10,0:0:0:0:
511,239,23449,1,8,0:0:0:0:
503,272,23566,1,10,0:0:0:0:
495,305,23684,6,0,L|340:339,1,136.499993751526,6|8,3:2|0:0,0:0:0:0:
300,299,24035,1,10,0:0:0:0:
300,299,24152,2,0,B|248:252|248:252|292:203,1,136.499993751526,0|10,3:2|0:0,0:0:0:0:
247,131,24504,1,8,0:0:0:0:
247,131,24621,6,0,L|171:106,1,68.2499968757631,0|2,3:2|0:0,0:0:0:0:
122,224,24855,2,0,L|186:202,1,68.2499968757631,10|10,0:0|0:0,0:0:0:0:
36,65,25090,1,0,3:2:0:0:
36,65,25207,1,10,0:0:0:0:
36,65,25324,1,10,0:0:0:0:
10,97,25441,1,10,0:0:0:0:
16,137,25559,6,0,L|49:276,1,136.499993751526,6|8,3:2|0:0,0:0:0:0:
29,343,25910,1,10,0:0:0:0:
29,343,26027,2,0,P|102:375|155:348,1,136.499993751526,0|10,3:2|0:0,0:0:0:0:
206,306,26379,1,8,0:0:0:0:
206,306,26496,6,0,P|217:273|223:240,1,68.2499968757631,0|0,3:2|0:0,0:0:0:0:
292,300,26730,2,0,P|297:333|308:365,1,68.2499968757631,10|8,0:0|0:0,0:0:0:0:
428,250,26965,1,2,3:2:0:0:
446,229,27082,1,8,0:0:0:0:
450,202,27199,1,10,0:0:0:0:
439,175,27316,1,8,0:0:0:0:
417,157,27434,6,0,B|342:174|373:202|299:224,1,136.499993751526,6|8,3:2|0:0,0:0:0:0:
247,168,27785,2,0,P|223:91|267:60,1,136.499993751526,6|8,3:2|0:0,0:0:0:0:
122,28,28137,6,0,P|141:124|153:227,1,188.999994232178,6|4,3:2|2:3,0:0:0:0:
33,384,29309,6,0,P|-1:346|21:275,1,94.499997116089,6|2,3:2|0:0,0:0:0:0:
7,292,29660,2,0,L|65:271,1,47.2499985580445,2|8,0:0|0:0,0:0:0:0:
132,325,29894,1,2,0:0:0:0:
139,318,30012,2,0,L|278:351,1,141.749995674133,2|2,0:0|0:0,0:0:0:0:
289,350,30480,2,0,P|325:304|309:267,1,94.499997116089,2|8,0:0|0:0,0:0:0:0:
406,186,30949,1,2,0:0:0:0:
406,186,31066,1,2,0:0:0:0:
406,186,31184,6,0,L|432:86,1,94.499997116089,2|2,3:2|0:0,0:0:0:0:
426,84,31535,2,0,P|390:69|357:43,1,47.2499985580445,2|8,0:0|0:0,0:0:0:0:
317,105,31769,1,2,0:0:0:0:
317,105,31887,6,0,P|281:120|227:207,1,141.749995674133,2|0,0:0|0:0,0:0:0:0:
219,207,32355,1,2,0:0:0:0:
79,125,32590,1,10,0:0:0:0:
181,40,32824,1,2,0:0:0:0:
181,40,32941,1,2,0:0:0:0:
181,40,33059,6,0,P|167:92|161:169,1,94.499997116089,2|2,3:2|0:0,0:0:0:0:
155,141,33410,2,0,P|150:174|139:209,1,47.2499985580445,2|8,0:0|0:0,0:0:0:0:
86,246,33644,1,2,0:0:0:0:
86,246,33762,2,0,B|44:308|44:308|111:369,1,141.749995674133,2|2,0:0|0:0,0:0:0:0:
97,364,34230,2,0,L|193:382,1,94.499997116089,2|8,0:0|0:0,0:0:0:0:
287,316,34699,1,2,0:0:0:0:
287,316,34816,1,2,0:0:0:0:
287,316,34934,6,0,P|316:276|298:220,1,94.499997116089,2|2,3:2|0:0,0:0:0:0:
351,171,35285,2,0,L|422:145,1,47.2499985580445,2|8,0:0|0:0,0:0:0:0:
431,88,35519,1,2,0:0:0:0:
431,88,35637,2,0,L|311:42,1,94.499997116089,2|0,0:0|3:2,0:0:0:0:
337,49,35988,2,0,L|292:65,1,47.2499985580445,10|2,0:0|0:0,0:0:0:0:
238,120,36223,1,2,0:0:0:0:
238,120,36340,2,0,P|198:79|210:22,1,94.499997116089,10|2,0:0|0:0,0:0:0:0:
116,2,36691,1,2,0:0:0:0:
116,2,36809,6,0,P|108:52|84:129,1,94.499997116089,2|2,3:2|0:0,0:0:0:0:
102,104,37160,2,0,P|104:131|116:175,1,47.2499985580445,2|8,0:0|0:0,0:0:0:0:
16,252,37394,1,2,0:0:0:0:
16,252,37512,2,0,P|-25:197|26:136,1,141.749995674133,2|2,0:0|0:0,0:0:0:0:
16,134,37980,1,2,0:0:0:0:
169,255,38215,1,8,0:0:0:0:
72,368,38449,1,2,0:0:0:0:
72,368,38566,1,2,0:0:0:0:
72,368,38684,6,0,P|88:321|98:261,1,94.499997116089,2|2,3:2|0:0,0:0:0:0:
169,255,39035,2,0,P|178:301|193:345,1,94.499997116089,2|2,0:0|0:0,0:0:0:0:
203,354,39387,2,0,P|275:363|315:293,1,141.749995674133,2|2,0:0|0:0,0:0:0:0:
318,305,39855,1,2,0:0:0:0:
414,231,40090,1,8,0:0:0:0:
326,139,40324,1,2,0:0:0:0:
326,139,40441,1,2,0:0:0:0:
326,139,40559,6,0,L|301:37,1,94.499997116089,2|2,3:2|0:0,0:0:0:0:
372,12,40910,2,0,L|397:114,1,94.499997116089,2|2,0:0|0:0,0:0:0:0:
307,215,41262,2,0,P|226:198|223:110,1,141.749995674133,2|2,0:0|0:0,0:0:0:0:
216,143,41730,1,2,0:0:0:0:
146,262,41965,1,8,0:0:0:0:
24,169,42199,1,2,0:0:0:0:
24,169,42316,1,2,0:0:0:0:
24,169,42434,6,0,P|38:126|49:63,1,94.499997116089,2|2,3:2|0:0,0:0:0:0:
101,30,42785,2,0,P|139:73|123:115,1,94.499997116089,2|2,0:0|0:0,0:0:0:0:
136,115,43137,1,2,0:0:0:0:
237,225,43371,1,0,3:2:0:0:
135,298,43605,1,8,0:0:0:0:
144,281,43723,1,8,0:0:0:0:
146,262,43840,2,0,P|139:233|119:198,1,47.2499985580445,8|8,0:0|0:0,0:0:0:0:
236,328,44074,2,0,P|226:349|221:372,1,47.2499985580445,8|4,2:3|2:3,0:0:0:0:
372,270,44309,6,0,L|395:143,1,105,6|0,3:2|0:0,0:0:0:0:
406,155,44660,1,2,0:0:0:0:
406,155,44777,1,8,0:0:0:0:
324,24,45012,2,0,P|247:56|264:131,1,157.5,2|2,0:0|0:0,0:0:0:0:
246,125,45480,1,2,0:0:0:0:
402,2,45715,1,10,0:0:0:0:
258,208,45949,5,2,0:0:0:0:
135,97,46184,2,0,B|89:118|104:134|52:159,1,105,2|0,3:2|0:0,0:0:0:0:
36,182,46535,1,2,0:0:0:0:
36,182,46652,1,8,0:0:0:0:
132,358,46887,2,0,P|165:335|140:217,1,157.5,2|2,0:0|0:0,0:0:0:0:
145,224,47355,1,2,0:0:0:0:
0,325,47590,2,0,P|44:302|100:287,1,105,10|2,0:0|0:0,0:0:0:0:
258,208,48059,6,0,B|305:193|305:193|367:255,1,105,2|0,3:2|0:0,0:0:0:0:
365,250,48410,1,2,0:0:0:0:
365,250,48527,1,8,0:0:0:0:
456,364,48762,2,0,P|469:313|476:261,1,105,2|0,0:0|3:2,0:0:0:0:
487,255,49113,2,0,P|493:202|507:152,1,105,2|0,0:0|0:0,0:0:0:0:
505,144,49465,1,10,0:0:0:0:
421,67,49699,1,2,0:0:0:0:
512,25,49934,6,0,P|449:41|405:105,1,105,2|0,3:2|0:0,0:0:0:0:
409,73,50285,2,0,P|391:135|424:205,1,105,2|0,0:0|0:0,0:0:0:0:
398,187,50637,1,2,0:0:0:0:
293,46,50871,1,0,3:2:0:0:
286,65,50988,1,8,0:0:0:0:
274,76,51105,2,0,P|240:90|199:98,1,52.5,8|8,0:0|0:0,0:0:0:0:
270,159,51340,2,0,P|304:145|345:137,1,52.5,8|8,3:2|2:3,0:0:0:0:
238,228,51574,1,8,2:3:0:0:
15,130,51809,6,0,P|44:82|99:70,1,115.50000352478,4|10,3:2|0:0,0:0:0:0:
139,102,52160,1,10,0:0:0:0:
139,102,52277,2,0,P|145:136|173:209,1,57.7500017623902,2|0,3:2|0:0,0:0:0:0:
91,241,52512,1,10,0:0:0:0:
91,241,52629,2,0,P|85:207|57:134,1,57.7500017623902,10|0,0:0|3:2,0:0:0:0:
238,228,52863,5,10,0:0:0:0:
199,261,52980,1,8,0:0:0:0:
199,313,53098,1,10,0:0:0:0:
237,347,53215,2,0,P|290:326|347:317,1,115.50000352478,2|10,3:2|0:0,0:0:0:0:
419,352,53566,1,8,0:0:0:0:
419,352,53684,6,0,P|459:305|418:238,1,115.50000352478,4|10,3:2|0:0,0:0:0:0:
456,181,54035,1,8,0:0:0:0:
456,181,54152,2,0,L|519:168,1,57.7500017623902,2|0,3:2|0:0,0:0:0:0:
490,101,54387,1,8,0:0:0:0:
490,101,54504,2,0,L|427:88,1,57.7500017623902,8|0,0:0|3:2,0:0:0:0:
361,19,54738,5,10,0:0:0:0:
310,32,54855,1,8,0:0:0:0:
258,43,54973,1,10,0:0:0:0:
207,52,55090,2,0,P|201:88|182:122,1,57.7500017623902,0|8,3:2|0:0,0:0:0:0:
297,195,55324,2,0,P|303:159|322:125,1,57.7500017623902,10|8,0:0|0:0,0:0:0:0:
141,214,55559,6,0,P|157:278|168:372,1,115.50000352478,4|10,3:2|0:0,0:0:0:0:
229,371,55910,1,10,0:0:0:0:
229,371,56027,2,0,P|259:371|293:325,1,57.7500017623902,2|0,3:2|0:0,0:0:0:0:
328,296,56262,1,10,0:0:0:0:
328,296,56379,2,0,P|358:296|392:342,1,57.7500017623902,10|0,0:0|3:2,0:0:0:0:
504,378,56613,5,10,0:0:0:0:
487,335,56730,1,8,0:0:0:0:
500,290,56848,1,8,0:0:0:0:
476,250,56965,2,0,L|410:225,1,57.7500017623902,2|8,3:2|0:0,0:0:0:0:
511,87,57199,2,0,L|456:107,1,57.7500017623902,10|8,0:0|0:0,0:0:0:0:
311,139,57434,6,0,B|265:120|265:120|250:97|250:97|204:78,1,125.999996154785,6|8,3:2|0:0,0:0:0:0:
154,25,57785,2,0,P|85:59|115:138,1,125.999996154785,4|8,3:2|0:0,0:0:0:0:
0,207,58137,6,0,P|2:112|0:18,1,188.999994232178,4|4,3:2|2:3,0:0:0:0:
320,242,59309,6,0,B|332:274|332:274|301:327,1,73.4999977569581,6|0,3:2|0:0,0:0:0:0:
226,255,59543,1,2,0:0:0:0:
220,248,59660,2,0,L|191:102,1,146.999995513916,2|2,0:0|0:0,0:0:0:0:
230,41,60012,1,2,0:0:0:0:
70,175,60246,1,2,3:2:0:0:
70,175,60363,1,8,0:0:0:0:
70,175,60480,2,0,P|76:138|80:84,1,73.4999977569581
131,6,60715,5,8,0:0:0:0:
293,140,60949,1,2,0:0:0:0:
293,140,61066,1,2,0:0:0:0:
293,140,61184,6,0,B|365:109|329:84|415:56,1,146.999995513916,2|2,3:2|0:0,0:0:0:0:
481,9,61535,2,0,P|483:47|493:97,1,73.4999977569581,2|8,0:0|0:0,0:0:0:0:
458,224,61769,1,2,0:0:0:0:
453,217,61887,2,0,P|452:181|445:145,1,73.4999977569581,2|0,0:0|0:0,0:0:0:0:
503,291,62121,5,0,3:2:0:0:
512,299,62238,1,8,0:0:0:0:
512,299,62355,1,2,0:0:0:0:
371,147,62590,1,2,3:2:0:0:
291,345,62824,2,0,P|327:323|363:318,1,73.4999977569581,2|0,0:0|0:0,0:0:0:0:
289,251,63059,6,0,L|217:232,1,73.4999977569581,6|0,3:2|0:0,0:0:0:0:
152,304,63293,1,2,0:0:0:0:
143,303,63410,2,0,P|101:232|134:153,1,146.999995513916,2|2,0:0|0:0,0:0:0:0:
179,129,63762,1,2,0:0:0:0:
2,43,63996,1,0,3:2:0:0:
2,43,64113,1,8,0:0:0:0:
2,43,64230,2,0,P|31:59|86:74,1,73.4999977569581
116,173,64465,5,8,0:0:0:0:
199,11,64699,1,2,0:0:0:0:
227,15,64816,1,2,0:0:0:0:
244,33,64934,6,0,B|298:44|298:44|328:65|328:65|381:78,1,146.999995513916,2|0,3:2|0:0,0:0:0:0:
485,137,65285,2,0,P|492:189|505:228,1,73.4999977569581,2|10,0:0|0:0,0:0:0:0:
362,279,65519,1,0,0:0:0:0:
356,270,65637,2,0,P|349:218|336:179,1,73.4999977569581,2|0,0:0|0:0,0:0:0:0:
484,355,65871,1,0,3:2:0:0:
484,355,65988,1,8,0:0:0:0:
484,355,66105,1,2,0:0:0:0:
248,234,66340,5,10,0:0:0:0:
336,93,66574,2,0,L|413:73,1,73.4999977569581,2|0,0:0|0:0,0:0:0:0:
240,240,66809,6,0,P|153:284|131:365,1,146.999995513916,6|0,3:2|0:0,0:0:0:0:
60,377,67160,2,0,P|52:339|38:293,1,73.4999977569581,2|8,0:0|0:0,0:0:0:0:
86,248,67394,1,2,0:0:0:0:
84,235,67512,2,0,P|92:164|104:88,1,146.999995513916,2|0,0:0|3:2,0:0:0:0:
59,29,67863,1,8,0:0:0:0:
59,29,67980,1,2,0:0:0:0:
211,192,68215,1,10,0:0:0:0:
141,292,68449,5,2,0:0:0:0:
258,128,68684,2,0,P|334:155|407:168,1,146.999995513916,2|2,3:2|0:0,0:0:0:0:
477,212,69035,1,2,0:0:0:0:
487,208,69152,2,0,P|498:173|455:115,1,73.4999977569581,8|2,0:0|0:0,0:0:0:0:
403,258,69387,2,0,B|331:286|366:312|276:353,1,146.999995513916,2|0,0:0|3:2,0:0:0:0:
215,329,69738,1,8,0:0:0:0:
206,321,69855,2,0,L|175:213,1,73.4999977569581,2|0,0:0|0:0,0:0:0:0:
30,127,70090,1,10,0:0:0:0:
135,65,70324,1,0,0:0:0:0:
135,65,70441,1,0,0:0:0:0:
135,65,70559,6,0,P|119:138|110:233,1,146.999995513916,2|2,3:2|0:0,0:0:0:0:
260,219,71027,2,0,P|264:176|272:135,1,73.4999977569581,10|0,0:0|0:0,0:0:0:0:
239,81,71262,1,2,0:0:0:0:
277,144,71379,6,0,P|349:122|362:50,1,146.999995513916,10|8,0:0|0:2,0:0:0:0:
422,12,71730,1,10,0:0:0:0:
260,219,71965,1,10,0:0:0:0:
471,361,72199,5,0,0:0:0:0:
471,361,72316,1,0,0:0:0:0:
471,361,72434,2,0,P|402:337|312:319,1,146.999995513916,6|0,3:2|0:0,0:0:0:0:
244,352,72785,2,0,B|176:377|176:377|90:323,1,146.999995513916,2|0,0:0|0:0,0:0:0:0:
52,270,73137,2,0,P|39:244|84:191,1,73.4999977569581,2|0,0:0|0:0,0:0:0:0:
134,101,73371,5,0,3:2:0:0:
134,101,73488,1,8,0:0:0:0:
134,101,73605,1,10,0:0:0:0:
199,136,73723,1,8,0:0:0:0:
271,144,73840,1,2,3:2:0:0:
336,110,73957,2,0,L|363:17,1,73.4999977569581,8|6,2:3|2:3,0:0:0:0:
456,149,74191,1,4,2:3:0:0:
464,157,74309,6,0,B|473:239|434:216|445:311,1,146.999995513916,6|2,3:2|0:0,0:0:0:0:
353,370,74660,1,2,0:0:0:0:
341,365,74777,2,0,L|323:289,1,73.4999977569581,8|2,0:0|0:0,0:0:0:0:
222,180,75012,2,0,P|174:242|195:308,1,146.999995513916,2|2,0:0|3:2,0:0:0:0:
179,384,75363,1,8,0:0:0:0:
179,384,75480,2,0,P|213:374|254:365,1,73.4999977569581
364,196,75715,1,8,0:0:0:0:
177,79,75949,5,2,0:0:0:0:
177,79,76066,1,2,0:0:0:0:
177,79,76184,2,0,P|119:60|86:38,1,73.4999977569581,2|0,3:2|0:0,0:0:0:0:
124,176,76418,1,2,0:0:0:0:
137,173,76535,2,0,P|195:192|228:214,1,73.4999977569581,2|8,0:0|0:0,0:0:0:0:
293,79,76769,1,2,0:0:0:0:
301,73,76887,6,0,B|389:39|348:19|445:-5,1,146.999995513916,2|2,0:0|3:2,0:0:0:0:
495,32,77238,1,8,0:0:0:0:
502,43,77355,1,10,0:0:0:0:
329,262,77590,1,10,0:0:0:0:
282,155,77824,5,2,0:0:0:0:
483,317,78059,2,0,P|529:262|497:180,1,146.999995513916,6|2,3:2|0:0,0:0:0:0:
444,147,78410,2,0,P|435:200|418:253,1,73.4999977569581,2|8,0:0|0:0,0:0:0:0:
273,363,78644,1,2,0:0:0:0:
266,355,78762,2,0,P|257:302|240:249,1,73.4999977569581,2|0,0:0|0:0,0:0:0:0:
185,233,78996,5,2,3:2:0:0:
185,233,79113,1,8,0:0:0:0:
185,233,79230,2,0,L|40:203,1,146.999995513916,0|8,0:0|0:0,0:0:0:0:
222,34,79700,1,2,0:0:0:0:
246,79,79817,1,2,0:0:0:0:
211,116,79934,6,0,P|263:48|344:56,1,146.999995513916,2|2,3:2|0:0,0:0:0:0:
384,7,80285,2,0,P|456:52|455:134,1,146.999995513916,2|2,0:0|0:0,0:0:0:0:
509,173,80637,1,2,0:0:0:0:
506,181,80754,6,0,L|516:286,1,73.4999977569581,0|0,0:0|3:2,0:0:0:0:
458,328,80988,1,8,0:0:0:0:
438,341,81105,2,0,B|358:318|392:286|306:265,1,146.999995513916,2|10,0:0|0:0,0:0:0:0:
150,141,81574,1,2,0:0:0:0:
194,87,81691,1,8,0:0:0:0:
253,126,81809,6,0,L|233:286,1,146.999995513916,6|2,3:2|0:0,0:0:0:0:
153,331,82160,2,0,L|131:232,1,73.4999977569581,2|8,0:0|0:0,0:0:0:0:
36,205,82394,1,2,0:0:0:0:
22,185,82512,2,0,P|32:102|99:71,1,146.999995513916,2|0,0:0|3:2,0:0:0:0:
148,46,82863,1,8,0:0:0:0:
148,46,82980,1,2,0:0:0:0:
295,218,83215,1,10,0:0:0:0:
376,6,83449,5,2,0:0:0:0:
258,149,83684,2,0,P|321:93|426:121,1,146.999995513916,2|2,3:2|0:0,0:0:0:0:
446,122,84035,2,0,P|452:160|465:208,1,73.4999977569581,2|8,0:0|0:0,0:0:0:0:
347,328,84269,1,2,0:0:0:0:
338,319,84387,2,0,P|332:282|323:247,1,73.4999977569581,2|0,0:0|0:0,0:0:0:0:
373,183,84621,1,2,3:2:0:0:
316,242,84738,6,0,B|261:260|261:260|242:281|242:281|150:306,1,146.999995513916,8|0,0:0|0:0,0:0:0:0:
164,307,85090,2,0,B|185:337|185:337|171:370,1,73.4999977569581,10|0,0:0|0:0,0:0:0:0:
26,249,85324,2,0,B|12:216|12:216|55:154,1,73.4999977569581
97,100,85559,6,0,P|111:200|123:255,1,146.999995513916,2|2,3:2|0:0,0:0:0:0:
272,123,86027,1,10,0:0:0:0:
204,39,86262,1,2,0:0:0:0:
191,50,86379,2,0,P|185:99|181:136,1,73.4999977569581,2|0,0:0|3:2,0:0:0:0:
241,245,86613,1,8,0:0:0:0:
253,238,86730,2,0,B|343:210|276:177|419:156,1,146.999995513916,0|10,0:0|0:0,0:0:0:0:
512,42,87199,1,0,0:0:0:0:
512,42,87316,1,0,0:0:0:0:
512,42,87434,6,0,P|503:114|494:187,1,146.999995513916,6|8,3:2|2:3,0:0:0:0:
512,261,87785,1,8,0:0:0:0:
506,319,87902,1,8,2:3:0:0:
458,353,88019,1,4,2:3:0:0:
399,342,88137,2,0,P|393:308|382:261,1,73.4999977569581,4|4,2:3|2:3,0:0:0:0:
219,168,88371,6,0,P|163:245|226:354,1,210,6|0,3:2|0:0,0:0:0:0:
