osu file format v14

[General]
AudioFilename: audio.mp3
AudioLeadIn: 0
PreviewTime: 58331
Countdown: 0
SampleSet: Soft
StackLeniency: 0.7
Mode: 3
LetterboxInBreaks: 0
SpecialStyle: 0
WidescreenStoryboard: 0

[Editor]
Bookmarks: 912,14036,21536,29036,44036,51536,59036,66536,74036,81536
DistanceSpacing: 1.4
BeatDivisor: 4
GridSize: 8
TimelineZoom: 1.4

[Metadata]
Title:Hajimari no Setsuna (TV Size)
TitleUnicode:はじまりのセツナ (TV Size)
Artist:Roubai Gakuen Chuutoubu 1-nen 3-kumi
ArtistUnicode:蠟梅学園中等部1年3組
Creator:Crisper
Version:New Friends
Source:Akebi-chan no Sailor-fuku
Tags:Denyi Akebi chan Akebi's Sailor Uniform 明日ちゃんのセーラー服 Anime anisong Opening op japanese pop jpop j-pop idol female vocal vocalist jp CloverWorks 1nen 3gumi 3kumi 1-3 Sugiyama Katsuhiko 杉山勝彦
BeatmapID:3663061
BeatmapSetID:1787942

[Difficulty]
HPDrainRate:8
CircleSize:4
OverallDifficulty:8
ApproachRate:5
SliderMultiplier:1.4
SliderTickRate:1

[Events]
//Background and Video events
0,0,"bg5.jpg",0,0
Video,-279,"akebi.mp4"
//Break Periods
//Storyboard Layer 0 (Background)
//Storyboard Layer 1 (Fail)
//Storyboard Layer 2 (Pass)
//Storyboard Layer 3 (Foreground)
//Storyboard Layer 4 (Overlay)
//Storyboard Sound Samples

[TimingPoints]
911,468.75,4,2,1,20,1,0
14036,-100,4,2,1,50,0,0
59036,-100,4,2,1,50,0,1
66536,-100,4,2,1,50,0,0
74036,-100,4,2,1,50,0,1
81536,-100,4,2,1,50,0,0

[HitObjects]
448,192,207,128,0,442:0:0:0:0:
64,192,442,128,0,911:0:0:0:0:
192,192,676,128,0,911:0:0:0:0:
320,192,911,1,0,0:0:0:0:
448,192,911,128,0,1262:0:0:0:0:
192,192,1145,128,0,1262:0:0:0:0:
320,192,1262,128,0,1614:0:0:0:0:
448,192,1496,128,0,1614:0:0:0:0:
64,192,1614,128,0,2200:0:0:0:0:
192,192,1614,128,0,1965:0:0:0:0:
448,192,1965,1,0,0:0:0:0:
320,192,2082,1,0,0:0:0:0:
192,192,2200,1,0,0:0:0:0:
320,192,2317,1,0,0:0:0:0:
448,192,2317,1,0,0:0:0:0:
192,192,2551,128,0,2786:0:0:0:0:
320,192,2668,128,0,2786:0:0:0:0:
64,192,2786,128,0,3254:0:0:0:0:
448,192,2786,128,0,3020:0:0:0:0:
192,192,3020,128,0,3254:0:0:0:0:
320,192,3137,128,0,3254:0:0:0:0:
448,192,3254,1,0,0:0:0:0:
64,192,3371,128,0,3489:0:0:0:0:
192,192,3489,128,0,3957:0:0:0:0:
320,192,3489,128,0,3840:0:0:0:0:
448,192,3840,1,0,0:0:0:0:
320,192,3957,128,0,4192:0:0:0:0:
64,192,4075,1,0,0:0:0:0:
192,192,4192,1,0,0:0:0:0:
448,192,4192,128,0,4426:0:0:0:0:
320,192,4426,128,0,4661:0:0:0:0:
448,192,4543,128,0,4661:0:0:0:0:
64,192,4661,128,0,5012:0:0:0:0:
192,192,4661,1,0,0:0:0:0:
320,192,4895,128,0,5012:0:0:0:0:
448,192,5012,128,0,5364:0:0:0:0:
192,192,5129,1,0,0:0:0:0:
320,192,5246,128,0,5364:0:0:0:0:
64,192,5364,128,0,5950:0:0:0:0:
192,192,5364,128,0,5715:0:0:0:0:
448,192,5715,1,0,0:0:0:0:
320,192,5832,1,0,0:0:0:0:
192,192,5950,1,0,0:0:0:0:
320,192,6067,1,0,0:0:0:0:
448,192,6067,1,0,0:0:0:0:
192,192,6301,128,0,6536:0:0:0:0:
320,192,6418,128,0,6536:0:0:0:0:
64,192,6536,1,0,0:0:0:0:
448,192,6536,128,0,6770:0:0:0:0:
192,192,6770,1,0,0:0:0:0:
448,192,6887,128,0,7239:0:0:0:0:
320,192,7004,1,0,0:0:0:0:
64,192,7121,1,0,0:0:0:0:
192,192,7239,128,0,7590:0:0:0:0:
320,192,7239,128,0,7707:0:0:0:0:
448,192,7590,1,0,0:0:0:0:
192,192,7707,128,0,7942:0:0:0:0:
320,192,7825,1,0,0:0:0:0:
64,192,7942,128,0,8176:0:0:0:0:
448,192,7942,1,0,0:0:0:0:
192,192,8176,128,0,8411:0:0:0:0:
64,192,8293,128,0,8411:0:0:0:0:
320,192,8411,128,0,8645:0:0:0:0:
448,192,8411,128,0,8645:0:0:0:0:
192,192,8645,1,0,0:0:0:0:
320,192,8762,128,0,8996:0:0:0:0:
448,192,8762,128,0,8996:0:0:0:0:
64,192,8879,1,0,0:0:0:0:
192,192,8996,128,0,9114:0:0:0:0:
320,192,9114,128,0,9348:0:0:0:0:
448,192,9114,128,0,9348:0:0:0:0:
64,192,9348,1,0,0:0:0:0:
320,192,9465,1,0,0:0:0:0:
192,192,9582,128,0,9817:0:0:0:0:
448,192,9700,1,0,0:0:0:0:
64,192,9817,1,0,0:0:0:0:
320,192,9817,128,0,10286:0:0:0:0:
192,192,9934,1,0,0:0:0:0:
448,192,10051,128,0,10286:0:0:0:0:
64,192,10286,128,0,10520:0:0:0:0:
192,192,10286,128,0,10520:0:0:0:0:
448,192,10520,128,0,10637:0:0:0:0:
64,192,10637,128,0,10871:0:0:0:0:
320,192,10754,1,0,0:0:0:0:
192,192,10871,128,0,10989:0:0:0:0:
64,192,10989,128,0,11340:0:0:0:0:
448,192,10989,128,0,11340:0:0:0:0:
320,192,11340,1,0,0:0:0:0:
192,192,11457,128,0,11575:0:0:0:0:
320,192,11575,1,0,0:0:0:0:
64,192,11692,128,0,11926:0:0:0:0:
448,192,11692,128,0,12161:0:0:0:0:
320,192,11926,128,0,12161:0:0:0:0:
64,192,12161,1,0,0:0:0:0:
192,192,12161,1,0,0:0:0:0:
448,192,12395,128,0,12629:0:0:0:0:
64,192,12512,1,0,0:0:0:0:
192,192,12629,128,0,12864:0:0:0:0:
320,192,12746,128,0,12864:0:0:0:0:
64,192,12864,128,0,13332:0:0:0:0:
448,192,12864,1,0,0:0:0:0:
192,192,12981,128,0,13332:0:0:0:0:
448,192,13332,128,0,13801:0:0:0:0:
192,192,13567,128,0,14036:0:0:0:0:
320,192,13567,128,0,13801:0:0:0:0:
64,192,14036,1,2,0:0:0:0:
320,192,14036,128,4,14153:0:0:0:0:
448,192,14036,128,0,14387:0:0:0:0:
64,192,14387,128,0,14504:0:0:0:0:
192,192,14387,128,0,14739:0:0:0:0:
320,192,14504,1,2,0:0:0:0:
448,192,14504,1,0,0:0:0:0:
64,192,14739,128,0,15442:0:0:0:0:
320,192,14739,128,0,14856:0:0:0:0:
192,192,14973,1,2,0:0:0:0:
448,192,14973,1,0,0:0:0:0:
192,192,15207,1,0,0:0:0:0:
320,192,15442,1,2,0:0:0:0:
448,192,15442,1,0,0:0:0:0:
192,192,15676,1,0,0:0:0:0:
320,192,15793,1,0,0:0:0:0:
64,192,15911,128,2,16145:0:0:0:0:
448,192,15911,128,0,16028:0:0:0:0:
192,192,16145,1,0,0:0:0:0:
320,192,16262,128,0,16379:0:0:0:0:
448,192,16262,128,0,16614:0:0:0:0:
64,192,16379,1,2,0:0:0:0:
192,192,16379,1,0,0:0:0:0:
64,192,16614,128,0,17317:0:0:0:0:
320,192,16614,128,0,16731:0:0:0:0:
192,192,16848,1,2,0:0:0:0:
448,192,16848,1,0,0:0:0:0:
448,192,17082,128,0,17317:0:0:0:0:
192,192,17317,1,2,0:0:0:0:
320,192,17317,1,0,0:0:0:0:
64,192,17434,1,0,0:0:0:0:
448,192,17551,1,0,0:0:0:0:
192,192,17668,1,0,0:0:0:0:
64,192,17786,128,2,17903:0:0:0:0:
320,192,17786,128,0,18020:0:0:0:0:
448,192,18020,1,0,0:0:0:0:
64,192,18137,128,0,18489:0:0:0:0:
192,192,18137,128,0,18254:0:0:0:0:
320,192,18254,1,2,0:0:0:0:
448,192,18254,1,0,0:0:0:0:
192,192,18489,128,0,18606:0:0:0:0:
320,192,18489,128,0,18840:0:0:0:0:
64,192,18723,1,2,0:0:0:0:
448,192,18723,1,0,0:0:0:0:
192,192,18840,128,0,19192:0:0:0:0:
320,192,18957,128,0,19192:0:0:0:0:
64,192,19192,128,2,19426:0:0:0:0:
448,192,19192,1,0,0:0:0:0:
192,192,19426,128,0,19661:0:0:0:0:
448,192,19543,1,0,0:0:0:0:
64,192,19661,128,2,19778:0:0:0:0:
320,192,19661,128,0,19895:0:0:0:0:
448,192,19895,1,0,0:0:0:0:
64,192,20012,128,0,20129:0:0:0:0:
192,192,20012,128,0,20364:0:0:0:0:
320,192,20129,1,2,0:0:0:0:
448,192,20129,1,0,0:0:0:0:
320,192,20364,128,0,20481:0:0:0:0:
448,192,20364,128,0,20832:0:0:0:0:
64,192,20598,1,2,0:0:0:0:
192,192,20598,128,0,20832:0:0:0:50:LR_Hat Finish.wav
320,192,20832,1,0,0:0:0:40:Tom1.wav
64,192,20950,1,8,0:0:0:0:
192,192,20950,1,0,0:0:0:0:
320,192,21067,1,8,0:0:0:0:
448,192,21067,1,2,0:0:0:0:
192,192,21184,1,0,0:0:0:50:Tom2.wav
64,192,21301,1,0,0:0:0:50:Tom3.wav
448,192,21301,1,0,0:0:0:0:
64,192,21536,1,4,0:0:0:0:
192,192,21536,128,2,21653:0:0:0:0:
320,192,21536,128,0,21653:0:0:0:0:
320,192,21770,1,8,0:0:0:0:
448,192,21770,1,0,0:0:0:0:
64,192,21887,128,8,22004:0:0:0:0:
192,192,21887,128,0,22004:0:0:0:0:
448,192,22004,1,10,0:0:0:0:
320,192,22121,1,8,0:0:0:0:
192,192,22239,128,8,22356:0:0:0:0:
448,192,22239,128,0,22356:0:0:0:0:
64,192,22356,1,8,0:0:0:0:
320,192,22356,1,0,0:0:0:0:
192,192,22473,1,10,0:0:0:0:
320,192,22590,1,8,0:0:0:0:
448,192,22590,1,0,0:0:0:0:
64,192,22707,1,8,0:0:0:0:
192,192,22707,1,0,0:0:0:0:
320,192,22825,1,8,0:0:0:0:
448,192,22825,1,0,0:0:0:0:
64,192,22942,1,10,0:0:0:0:
192,192,23059,1,8,0:0:0:0:
448,192,23059,1,0,0:0:0:0:
64,192,23176,1,8,0:0:0:0:
320,192,23176,1,0,0:0:0:0:
192,192,23293,1,8,0:0:0:0:
64,192,23411,1,2,0:0:0:0:
320,192,23411,128,4,23528:0:0:0:0:
448,192,23411,128,0,23528:0:0:0:0:
192,192,23528,1,0,0:0:0:0:
320,192,23645,1,8,0:0:0:0:
448,192,23645,1,0,0:0:0:0:
64,192,23762,128,8,23879:0:0:0:0:
192,192,23762,128,0,23879:0:0:0:0:
448,192,23879,1,10,0:0:0:0:
64,192,23996,1,8,0:0:0:0:
192,192,24114,128,8,24231:0:0:0:0:
320,192,24114,128,0,24231:0:0:0:0:
64,192,24231,1,8,0:0:0:0:
448,192,24231,1,0,0:0:0:0:
320,192,24348,1,10,0:0:0:0:
64,192,24465,1,8,0:0:0:0:
192,192,24465,1,0,0:0:0:0:
320,192,24582,1,8,0:0:0:0:
448,192,24582,1,0,0:0:0:0:
64,192,24700,1,8,0:0:0:0:
192,192,24700,1,0,0:0:0:0:
448,192,24817,1,10,0:0:0:0:
192,192,24934,1,8,0:0:0:0:
320,192,24934,1,0,0:0:0:0:
64,192,25051,1,8,0:0:0:0:
448,192,25051,1,0,0:0:0:0:
320,192,25168,1,8,0:0:0:0:
64,192,25286,128,4,25403:0:0:0:0:
192,192,25286,128,2,25403:0:0:0:0:
448,192,25286,1,0,0:0:0:0:
320,192,25403,1,8,0:0:0:0:
64,192,25520,1,8,0:0:0:0:
192,192,25520,1,0,0:0:0:0:
320,192,25637,128,8,25754:0:0:0:0:
448,192,25637,128,0,25754:0:0:0:0:
64,192,25754,1,10,0:0:0:0:
192,192,25871,1,8,0:0:0:0:
64,192,25989,128,8,26106:0:0:0:0:
448,192,25989,128,0,26106:0:0:0:0:
192,192,26106,1,8,0:0:0:0:
320,192,26106,1,0,0:0:0:0:
448,192,26223,1,10,0:0:0:0:
64,192,26340,1,8,0:0:0:0:
192,192,26340,1,0,0:0:0:0:
320,192,26457,1,8,0:0:0:0:
448,192,26457,1,0,0:0:0:0:
64,192,26575,1,8,0:0:0:0:
192,192,26575,1,0,0:0:0:0:
320,192,26692,1,2,0:0:0:0:
448,192,26692,1,8,0:0:0:0:
64,192,26809,1,8,0:0:0:0:
192,192,26809,1,0,0:0:0:0:
320,192,26926,1,8,0:0:0:0:
448,192,26926,1,0,0:0:0:0:
64,192,27043,1,8,0:0:0:0:
192,192,27161,128,2,27395:0:0:0:0:
320,192,27161,128,4,27278:0:0:0:0:
448,192,27161,1,0,0:0:0:0:
448,192,27395,1,8,0:0:0:0:
64,192,27512,1,2,0:0:0:0:
192,192,27512,128,4,27629:0:0:0:0:
320,192,27512,128,0,27746:0:0:0:0:
64,192,27746,1,8,0:0:0:0:
192,192,27864,128,2,28567:0:0:0:0:
320,192,27864,128,4,28332:0:0:0:0:
448,192,27864,128,0,28332:0:0:0:0:
320,192,28567,1,2,0:0:0:0:
448,192,28567,1,0,0:0:0:50:Tom3.wav
64,192,28801,128,0,28918:0:0:0:0:
448,192,28918,128,0,29036:0:0:0:0:
64,192,29036,1,2,0:0:0:0:
192,192,29036,128,4,29153:0:0:0:0:
320,192,29036,128,0,29270:0:0:0:0:
448,192,29270,128,0,29387:0:0:0:50:LR_Hat Synth.wav
192,192,29387,128,0,29504:0:0:0:0:
64,192,29504,1,8,0:0:0:0:
320,192,29504,1,2,0:0:0:0:
448,192,29504,1,0,0:0:0:0:
192,192,29621,128,0,29739:0:0:0:0:
320,192,29739,128,0,29856:0:0:0:50:LR_Hat Synth.wav
448,192,29739,128,0,29973:0:0:0:0:
64,192,29973,1,2,0:0:0:0:
192,192,29973,1,0,0:0:0:0:
320,192,30090,128,0,30207:0:0:0:30:soft-hitclap.wav
64,192,30207,128,0,30442:0:0:0:50:LR_Hat Synth.wav
192,192,30442,1,8,0:0:0:0:
320,192,30442,1,2,0:0:0:0:
448,192,30442,1,0,0:0:0:0:
192,192,30676,128,0,30793:0:0:0:50:LR_Hat Synth.wav
320,192,30793,128,0,30911:0:0:0:0:
64,192,30911,128,2,31028:0:0:0:0:
448,192,30911,128,0,31145:0:0:0:0:
320,192,31145,128,0,31262:0:0:0:50:LR_Hat Synth.wav
64,192,31262,128,0,31379:0:0:0:0:
320,192,31379,1,8,0:0:0:0:
448,192,31379,1,0,0:0:0:0:
192,192,31379,1,2,0:0:0:0:
64,192,31496,128,0,31614:0:0:0:0:
320,192,31614,128,0,31731:0:0:0:50:LR_Hat Synth.wav
448,192,31614,128,0,32082:0:0:0:0:
64,192,31848,1,2,0:0:0:0:
192,192,31848,1,0,0:0:0:0:
320,192,31965,1,0,0:0:0:0:
192,192,32082,1,0,0:0:0:50:LR_Hat Synth.wav
64,192,32317,1,8,0:0:0:0:
320,192,32317,1,2,0:0:0:0:
448,192,32317,1,0,0:0:0:0:
192,192,32434,1,0,0:0:0:0:
320,192,32551,128,0,32668:0:0:0:50:LR_Hat Synth.wav
448,192,32668,128,0,32786:0:0:0:0:
64,192,32786,128,2,32903:0:0:0:0:
192,192,32786,128,0,33020:0:0:0:0:
320,192,33020,128,0,33137:0:0:0:50:LR_Hat Synth.wav
192,192,33137,128,0,33254:0:0:0:0:
64,192,33254,1,2,0:0:0:0:
320,192,33254,1,8,0:0:0:0:
448,192,33254,1,0,0:0:0:0:
192,192,33371,128,0,33489:0:0:0:0:
320,192,33489,128,0,33606:0:0:0:50:LR_Hat Synth.wav
448,192,33489,128,0,33723:0:0:0:0:
64,192,33723,1,2,0:0:0:0:
192,192,33723,1,0,0:0:0:0:
320,192,33840,128,0,33957:0:0:0:0:
64,192,33957,128,0,34192:0:0:0:50:LR_Hat Synth.wav
192,192,34192,1,8,0:0:0:0:
320,192,34192,1,2,0:0:0:0:
448,192,34192,1,0,0:0:0:0:
192,192,34426,128,0,34543:0:0:0:50:LR_Hat Synth.wav
320,192,34543,128,0,34661:0:0:0:0:
64,192,34661,128,2,34895:0:0:0:0:
448,192,34661,128,0,34778:0:0:0:0:
320,192,34895,128,0,35012:0:0:0:50:LR_Hat Synth.wav
192,192,35012,128,0,35129:0:0:0:0:
64,192,35129,1,2,0:0:0:0:
320,192,35129,1,8,0:0:0:0:
448,192,35129,1,0,0:0:0:0:
192,192,35246,128,0,35364:0:0:0:0:
64,192,35364,128,0,35481:0:0:0:50:LR_Hat Synth.wav
320,192,35364,128,0,35832:0:0:0:0:
64,192,35598,1,2,0:0:0:0:
192,192,35598,1,0,0:0:0:0:
448,192,35715,1,0,0:0:0:30:soft-hitclap.wav
192,192,35832,1,0,0:0:0:50:LR_Hat Finish.wav
64,192,36067,1,8,0:0:0:0:
320,192,36067,1,2,0:0:0:0:
448,192,36067,1,0,0:0:0:0:
320,192,36301,128,0,36418:0:0:0:50:LR_Hat Synth.wav
64,192,36418,128,0,36536:0:0:0:0:
192,192,36536,128,2,36653:0:0:0:0:
448,192,36536,128,0,36770:0:0:0:0:
320,192,36770,128,0,36887:0:0:0:50:LR_Hat Synth.wav
192,192,36887,128,0,37004:0:0:0:0:
64,192,37004,1,2,0:0:0:0:
448,192,37004,1,8,0:0:0:0:
320,192,37121,128,0,37239:0:0:0:0:
64,192,37239,128,0,37473:0:0:0:50:LR_Hat Synth.wav
192,192,37239,128,0,37356:0:0:0:0:
320,192,37473,1,2,0:0:0:0:
448,192,37473,1,0,0:0:0:0:
192,192,37590,128,0,37707:0:0:0:0:
448,192,37707,128,0,37942:0:0:0:50:LR_Hat Synth.wav
64,192,37942,1,8,0:0:0:0:
192,192,37942,1,2,0:0:0:0:
320,192,37942,1,0,0:0:0:0:
448,192,38059,1,0,0:0:0:0:
192,192,38176,128,0,38293:0:0:0:50:LR_Hat Synth.wav
320,192,38293,128,0,38411:0:0:0:0:
64,192,38411,128,2,38645:0:0:0:0:
448,192,38411,128,0,38528:0:0:0:0:
192,192,38645,128,0,38762:0:0:0:50:LR_Hat Synth.wav
320,192,38762,128,0,38879:0:0:0:0:
64,192,38879,1,2,0:0:0:0:
192,192,38879,1,8,0:0:0:0:
448,192,38879,1,0,0:0:0:0:
320,192,38996,128,0,39114:0:0:0:0:
64,192,39114,128,0,39231:0:0:0:50:LR_Hat Synth.wav
192,192,39114,128,0,39348:0:0:0:0:
320,192,39348,1,2,0:0:0:0:
448,192,39348,1,0,0:0:0:0:
64,192,39465,128,0,39582:0:0:0:0:
320,192,39582,128,4,39817:0:0:0:50:LR_Hat Finish.wav
64,192,39817,1,8,0:0:0:0:
192,192,39817,1,2,0:0:0:0:
448,192,39817,1,0,0:0:0:0:
448,192,40051,128,0,40168:0:0:0:50:LR_Hat Synth.wav
192,192,40168,128,0,40286:0:0:0:50:LR_Hat Synth.wav
64,192,40286,128,2,40520:0:0:0:0:
320,192,40286,128,0,40403:0:0:0:0:
192,192,40520,128,0,40637:0:0:0:50:LR_Hat Synth.wav
448,192,40637,128,0,40754:0:0:0:0:
64,192,40754,1,2,0:0:0:0:
192,192,40754,1,8,0:0:0:0:
320,192,40754,1,0,0:0:0:0:
448,192,40871,128,0,40989:0:0:0:0:
64,192,40989,128,0,41223:0:0:0:50:LR_Hat Synth.wav
192,192,40989,128,0,41106:0:0:0:0:
320,192,41223,1,2,0:0:0:0:
448,192,41223,1,0,0:0:0:0:
192,192,41340,128,0,41457:0:0:0:0:
320,192,41457,128,0,41692:0:0:0:50:LR_Hat Synth.wav
64,192,41692,1,8,0:0:0:0:
192,192,41692,1,2,0:0:0:0:
448,192,41692,1,0,0:0:0:0:
64,192,41926,128,0,42043:0:0:0:50:LR_Hat Synth.wav
448,192,42043,128,0,42161:0:0:0:0:
192,192,42161,128,2,42278:0:0:0:0:
320,192,42161,128,0,42395:0:0:0:0:
448,192,42395,128,0,42512:0:0:0:50:LR_Hat Synth.wav
64,192,42512,128,0,42629:0:0:0:0:
192,192,42629,1,2,0:0:0:0:
320,192,42629,1,8,0:0:0:0:
448,192,42629,1,0,0:0:0:0:
64,192,42864,128,0,43332:0:0:0:50:LR_Hat Synth.wav
320,192,42864,128,0,42981:0:0:0:0:
192,192,42981,1,0,0:0:0:0:
320,192,43098,1,2,0:0:0:0:
448,192,43098,1,4,0:0:0:50:LR_Hat Finish.wav
192,192,43215,128,0,43332:0:0:0:0:
320,192,43332,1,8,0:0:0:0:
448,192,43332,128,0,43450:0:0:0:0:
64,192,43450,128,0,43567:0:0:0:0:
192,192,43567,128,8,43684:0:0:0:0:
448,192,43567,1,0,0:0:0:0:
320,192,43684,128,8,43801:0:0:0:0:
64,192,43801,128,0,43918:0:0:0:50:Tom3.wav
320,192,43918,128,0,44036:0:0:0:0:
64,192,44036,128,4,44387:0:0:0:0:
192,192,44036,1,2,0:0:0:0:
448,192,44036,128,0,44153:0:0:0:0:
320,192,44270,1,0,0:0:0:50:LR_Hat Synth.wav
192,192,44387,128,0,44504:0:0:0:0:
64,192,44504,1,8,0:0:0:0:
320,192,44504,1,2,0:0:0:0:
448,192,44504,1,0,0:0:0:0:
192,192,44739,128,0,44973:0:0:0:50:LR_Hat Synth.wav
320,192,44739,128,0,45207:0:0:0:0:
64,192,44973,1,2,0:0:0:0:
448,192,44973,1,0,0:0:0:0:
192,192,45207,1,0,0:0:0:50:LR_Hat Synth.wav
192,192,45442,1,2,0:0:0:0:
320,192,45442,1,8,0:0:0:0:
448,192,45442,1,0,0:0:0:0:
320,192,45676,1,0,0:0:0:50:LR_Hat Synth.wav
64,192,45911,128,2,46028:0:0:0:0:
448,192,45911,128,0,46262:0:0:0:0:
192,192,46145,1,0,0:0:0:50:LR_Hat Synth.wav
320,192,46262,128,0,46379:0:0:0:0:
64,192,46379,1,8,0:0:0:0:
192,192,46379,1,2,0:0:0:0:
448,192,46379,1,0,0:0:0:0:
192,192,46614,128,0,47082:0:0:0:50:LR_Hat Synth.wav
320,192,46614,128,0,46848:0:0:0:0:
64,192,46848,1,2,0:0:0:0:
448,192,46848,1,0,0:0:0:0:
320,192,47082,1,0,0:0:0:50:LR_Hat Synth.wav
64,192,47317,1,2,0:0:0:0:
192,192,47317,1,8,0:0:0:0:
320,192,47317,1,0,0:0:0:0:
192,192,47551,1,0,0:0:0:50:LR_Hat Synth.wav
64,192,47786,128,2,48137:0:0:0:0:
448,192,47786,128,0,47903:0:0:0:0:
320,192,48020,1,0,0:0:0:50:LR_Hat Synth.wav
192,192,48137,128,0,48254:0:0:0:0:
64,192,48254,1,8,0:0:0:0:
320,192,48254,1,2,0:0:0:0:
448,192,48254,1,0,0:0:0:0:
320,192,48489,128,0,48723:0:0:0:50:LR_Hat Synth.wav
448,192,48489,128,0,48840:0:0:0:0:
64,192,48723,1,2,0:0:0:0:
192,192,48723,1,0,0:0:0:0:
320,192,48840,128,0,48957:0:0:0:0:
192,192,48957,128,0,49192:0:0:0:50:LR_Hat Synth.wav
64,192,49192,128,2,49309:0:0:0:0:
320,192,49192,1,8,0:0:0:0:
448,192,49192,1,0,0:0:0:0:
320,192,49426,128,0,49661:0:0:0:50:LR_Hat Synth.wav
64,192,49661,128,2,49778:0:0:0:0:
448,192,49661,128,0,50012:0:0:0:0:
192,192,49895,1,0,0:0:0:50:LR_Hat Synth.wav
320,192,50012,128,0,50129:0:0:0:0:
64,192,50129,1,8,0:0:0:0:
192,192,50129,1,2,0:0:0:0:
448,192,50129,1,0,0:0:0:0:
64,192,50364,128,0,50832:0:0:0:50:LR_Hat Synth.wav
192,192,50364,128,0,50598:0:0:0:0:
320,192,50598,1,2,0:0:0:0:
448,192,50598,1,0,0:0:0:50:LR_Hat Finish.wav
192,192,50715,128,8,50832:0:0:0:0:
320,192,50832,128,8,50950:0:0:0:0:
448,192,50832,1,0,0:0:0:0:
64,192,50950,128,8,51067:0:0:0:0:
192,192,51067,128,8,51184:0:0:0:0:
448,192,51067,1,2,0:0:0:0:
320,192,51184,128,0,51301:0:0:0:50:Tom2.wav
64,192,51301,128,0,51418:0:0:0:50:Tom3.wav
192,192,51418,128,0,51536:0:0:0:0:
64,192,51536,128,4,51653:0:0:0:0:
320,192,51536,1,2,0:0:0:0:
448,192,51536,128,0,51653:0:0:0:0:
64,192,51770,1,8,0:0:0:0:
192,192,51770,1,0,0:0:0:0:
320,192,51887,128,8,52004:0:0:0:0:
448,192,51887,128,0,52004:0:0:0:0:
192,192,52004,1,10,0:0:0:0:
64,192,52121,1,8,0:0:0:0:
192,192,52239,128,8,52356:0:0:0:0:
320,192,52239,128,0,52356:0:0:0:0:
64,192,52356,1,8,0:0:0:0:
448,192,52356,1,0,0:0:0:0:
320,192,52473,1,10,0:0:0:0:
64,192,52590,1,8,0:0:0:0:
192,192,52590,1,0,0:0:0:0:
320,192,52707,1,8,0:0:0:0:
448,192,52707,1,0,0:0:0:0:
64,192,52825,1,8,0:0:0:0:
192,192,52825,1,0,0:0:0:0:
448,192,52942,1,10,0:0:0:0:
320,192,53059,1,0,0:0:0:0:
192,192,53059,1,8,0:0:0:0:
64,192,53176,1,8,0:0:0:0:
448,192,53176,1,0,0:0:0:0:
320,192,53293,1,8,0:0:0:0:
64,192,53411,128,2,53528:0:0:0:0:
192,192,53411,128,4,53528:0:0:0:0:
448,192,53411,1,0,0:0:0:0:
320,192,53528,1,0,0:0:0:0:
64,192,53645,1,8,0:0:0:0:
192,192,53645,1,0,0:0:0:0:
320,192,53762,128,8,53879:0:0:0:0:
448,192,53762,128,0,53879:0:0:0:0:
64,192,53879,1,10,0:0:0:0:
448,192,53996,1,8,0:0:0:0:
192,192,54114,128,8,54231:0:0:0:0:
320,192,54114,128,0,54231:0:0:0:0:
64,192,54231,1,8,0:0:0:0:
448,192,54231,1,0,0:0:0:0:
192,192,54348,1,10,0:0:0:0:
320,192,54465,1,8,0:0:0:0:
448,192,54465,1,0,0:0:0:0:
64,192,54582,1,8,0:0:0:0:
192,192,54582,1,0,0:0:0:0:
320,192,54700,1,8,0:0:0:0:
448,192,54700,1,0,0:0:0:0:
64,192,54817,1,10,0:0:0:0:
192,192,54934,1,8,0:0:0:0:
448,192,54934,1,0,0:0:0:0:
64,192,55051,1,8,0:0:0:0:
320,192,55051,1,0,0:0:0:0:
192,192,55168,1,8,0:0:0:0:
64,192,55286,1,4,0:0:0:0:
320,192,55286,128,2,55403:0:0:0:0:
448,192,55286,128,0,55403:0:0:0:0:
192,192,55403,1,0,0:0:0:0:
320,192,55520,1,8,0:0:0:0:
448,192,55520,1,0,0:0:0:0:
64,192,55637,128,8,55754:0:0:0:0:
192,192,55637,128,0,55754:0:0:0:0:
448,192,55754,1,10,0:0:0:0:
320,192,55871,1,8,0:0:0:0:
64,192,55989,128,8,56106:0:0:0:0:
448,192,55989,128,0,56106:0:0:0:0:
192,192,56106,1,8,0:0:0:0:
320,192,56106,1,0,0:0:0:0:
64,192,56223,1,10,0:0:0:0:
320,192,56340,1,8,0:0:0:0:
448,192,56340,1,0,0:0:0:0:
64,192,56457,1,8,0:0:0:0:
192,192,56457,1,0,0:0:0:0:
320,192,56575,1,8,0:0:0:0:
448,192,56575,1,0,0:0:0:0:
64,192,56692,1,2,0:0:0:0:
192,192,56692,1,8,0:0:0:0:
320,192,56809,1,8,0:0:0:0:
448,192,56809,1,0,0:0:0:0:
64,192,56926,1,8,0:0:0:0:
192,192,56926,1,0,0:0:0:0:
448,192,57043,1,8,0:0:0:0:
64,192,57161,1,2,0:0:0:0:
192,192,57161,128,4,57278:0:0:0:0:
320,192,57161,128,0,57395:0:0:0:0:
64,192,57395,1,8,0:0:0:0:
192,192,57512,128,2,57746:0:0:0:0:
320,192,57512,128,4,57629:0:0:0:0:
448,192,57512,1,0,0:0:0:0:
448,192,57746,1,8,0:0:0:0:
64,192,57864,128,2,58567:0:0:0:0:
192,192,57864,128,4,58332:0:0:0:0:
320,192,57864,128,0,58332:0:0:0:0:
448,192,58332,128,0,58567:0:0:0:0:
192,192,58567,128,2,58801:0:0:0:0:
320,192,58567,128,0,58801:0:0:0:50:Tom3.wav
64,192,58801,128,0,59036:0:0:0:0:
192,192,59036,1,2,0:0:0:0:
320,192,59036,128,4,59270:0:0:0:0:
448,192,59036,128,0,59270:0:0:0:0:
64,192,59270,128,0,59387:0:0:0:50:LR_Hat Synth.wav
192,192,59387,128,0,59504:0:0:0:0:
320,192,59387,128,0,59504:0:0:0:0:
64,192,59504,1,8,0:0:0:0:
448,192,59504,1,2,0:0:0:0:
192,192,59621,128,0,59739:0:0:0:0:
320,192,59739,128,0,59973:0:0:0:50:LR_Hat Synth.wav
448,192,59739,128,0,60442:0:0:0:0:
64,192,59973,1,2,0:0:0:0:
192,192,59973,1,0,0:0:0:0:
320,192,60090,1,8,0:0:0:0:
64,192,60207,128,0,60442:0:0:0:50:LR_Hat Synth.wav
192,192,60442,1,8,0:0:0:0:
320,192,60442,1,2,0:0:0:0:
320,192,60676,128,0,60911:0:0:0:50:LR_Hat Synth.wav
448,192,60793,128,0,60911:0:0:0:0:
64,192,60911,128,2,61145:0:0:0:0:
192,192,60911,128,0,61145:0:0:0:0:
448,192,61145,128,0,61262:0:0:0:50:LR_Hat Synth.wav
192,192,61262,128,0,61379:0:0:0:0:
320,192,61262,128,0,61379:0:0:0:0:
64,192,61379,1,8,0:0:0:0:
448,192,61379,1,2,0:0:0:0:
320,192,61496,128,0,61614:0:0:0:0:
64,192,61614,128,0,61965:0:0:0:50:LR_Hat Synth.wav
192,192,61614,128,0,61848:0:0:0:0:
320,192,61848,1,2,0:0:0:0:
448,192,61848,1,0,0:0:0:0:
192,192,61965,1,8,0:0:0:0:
448,192,62082,128,0,62551:0:0:0:50:LR_Hat Synth.wav
192,192,62317,128,8,62786:0:0:0:0:
320,192,62317,128,2,62551:0:0:0:0:
64,192,62551,128,0,62786:0:0:0:50:LR_Hat Synth.wav
320,192,62786,128,2,63020:0:0:0:0:
448,192,62786,128,0,63020:0:0:0:0:
64,192,63020,128,0,63137:0:0:0:50:LR_Hat Synth.wav
192,192,63137,128,0,63254:0:0:0:0:
320,192,63137,128,0,63254:0:0:0:0:
64,192,63254,1,2,0:0:0:0:
448,192,63254,1,8,0:0:0:0:
192,192,63371,128,0,63489:0:0:0:0:
320,192,63489,128,0,63723:0:0:0:50:LR_Hat Synth.wav
448,192,63489,128,0,64192:0:0:0:0:
64,192,63723,1,2,0:0:0:0:
192,192,63723,1,0,0:0:0:0:
320,192,63840,1,8,0:0:0:0:
64,192,63957,128,0,64192:0:0:0:50:LR_Hat Synth.wav
192,192,64192,1,2,0:0:0:0:
320,192,64192,1,8,0:0:0:0:
320,192,64426,128,0,64661:0:0:0:50:LR_Hat Synth.wav
448,192,64543,128,0,64661:0:0:0:0:
64,192,64661,128,2,64895:0:0:0:0:
192,192,64661,128,0,64895:0:0:0:0:
448,192,64895,128,0,65012:0:0:0:50:LR_Hat Synth.wav
192,192,65012,128,0,65129:0:0:0:0:
320,192,65012,128,0,65129:0:0:0:0:
64,192,65129,1,8,0:0:0:0:
448,192,65129,1,2,0:0:0:0:
320,192,65246,1,0,0:0:0:0:
64,192,65364,128,0,65598:0:0:0:50:LR_Hat Synth.wav
192,192,65364,128,0,65715:0:0:0:0:
320,192,65598,1,2,0:0:0:0:
448,192,65598,1,0,0:0:0:0:
64,192,65715,1,8,0:0:0:0:
448,192,65832,128,0,66301:0:0:0:50:LR_Hat Synth.wav
64,192,66067,128,8,66536:0:0:0:0:
320,192,66067,128,2,66301:0:0:0:0:
192,192,66301,128,0,66536:0:0:0:50:LR_Hat Synth.wav
320,192,66536,128,2,66770:0:0:0:0:
448,192,66536,128,4,66770:0:0:0:0:
192,192,66770,128,0,66887:0:0:0:50:LR_Hat Synth.wav
320,192,66887,128,0,67004:0:0:0:0:
448,192,66887,128,0,67004:0:0:0:0:
64,192,67004,1,2,0:0:0:0:
192,192,67004,1,8,0:0:0:0:
320,192,67121,128,0,67239:0:0:0:0:
64,192,67239,128,0,67473:0:0:0:50:LR_Hat Synth.wav
192,192,67239,128,0,67473:0:0:0:0:
320,192,67473,1,2,0:0:0:0:
448,192,67473,1,0,0:0:0:0:
64,192,67590,1,8,0:0:0:0:
448,192,67707,128,0,68176:0:0:0:50:LR_Hat Synth.wav
192,192,67942,128,2,68411:0:0:0:0:
320,192,67942,128,8,68176:0:0:0:0:
64,192,68176,128,0,68411:0:0:0:50:LR_Hat Synth.wav
320,192,68411,128,2,68645:0:0:0:0:
448,192,68411,128,0,68645:0:0:0:0:
64,192,68645,128,0,68762:0:0:0:50:LR_Hat Synth.wav
192,192,68762,128,0,68879:0:0:0:0:
320,192,68762,128,0,68879:0:0:0:0:
64,192,68879,1,8,0:0:0:0:
448,192,68879,1,2,0:0:0:0:
192,192,68996,128,0,69114:0:0:0:0:
320,192,69114,128,0,69348:0:0:0:50:LR_Hat Synth.wav
448,192,69114,128,0,69465:0:0:0:0:
64,192,69348,1,2,0:0:0:0:
192,192,69348,1,0,0:0:0:0:
320,192,69465,1,8,0:0:0:0:
64,192,69582,128,0,70051:0:0:0:50:LR_Hat Synth.wav
192,192,69817,128,8,70051:0:0:0:0:
320,192,69817,128,2,70051:0:0:0:0:
448,192,70051,1,0,0:0:0:50:LR_Hat Synth.wav
64,192,70286,128,2,70403:0:0:0:0:
320,192,70286,1,0,0:0:0:0:
320,192,70520,128,0,70871:0:0:0:50:LR_Hat Synth.wav
192,192,70754,1,2,0:0:0:0:
448,192,70754,128,8,70989:0:0:0:0:
320,192,70989,128,0,71223:0:0:0:50:LR_Hat Synth.wav
448,192,71106,128,0,71340:0:0:0:0:
64,192,71223,1,2,0:0:0:0:
192,192,71223,1,0,0:0:0:0:
320,192,71340,1,8,0:0:0:0:
64,192,71457,128,0,71692:0:0:0:50:LR_Hat Synth.wav
192,192,71692,128,2,71926:0:0:0:0:
320,192,71692,128,8,72161:0:0:0:0:
64,192,71926,1,0,0:0:0:50:LR_Hat Synth.wav
448,192,72043,128,0,72161:0:0:0:0:
64,192,72161,128,2,72512:0:0:0:0:
192,192,72161,128,0,72395:0:0:0:0:
320,192,72395,128,0,72512:0:0:0:50:LR_Hat Synth.wav
192,192,72512,128,0,72629:0:0:0:0:
64,192,72629,128,8,72746:0:0:0:0:
320,192,72629,1,4,0:0:0:0:
448,192,72629,1,0,0:0:0:0:
192,192,72864,128,0,73098:0:0:0:0:
448,192,72981,1,0,0:0:0:0:
64,192,73098,1,2,0:0:0:0:
320,192,73098,1,0,0:0:0:0:
192,192,73215,1,8,0:0:0:0:
320,192,73332,1,8,0:0:0:0:
448,192,73332,1,0,0:0:0:0:
64,192,73450,1,8,0:0:0:0:
192,192,73450,1,0,0:0:0:0:
320,192,73567,1,8,0:0:0:0:
448,192,73567,1,2,0:0:0:0:
64,192,73684,1,0,0:0:0:50:Tom2.wav
448,192,73801,1,0,0:0:0:50:Tom3.wav
64,192,74036,128,2,74270:0:0:0:0:
192,192,74036,128,4,74270:0:0:0:0:
320,192,74036,1,0,0:0:0:0:
448,192,74270,128,0,74387:0:0:0:50:LR_Hat Synth.wav
192,192,74387,128,0,74504:0:0:0:0:
320,192,74387,128,0,74504:0:0:0:0:
64,192,74504,1,8,0:0:0:0:
448,192,74504,1,2,0:0:0:0:
320,192,74621,128,0,74739:0:0:0:0:
64,192,74739,128,0,75442:0:0:0:50:LR_Hat Synth.wav
192,192,74739,128,0,74973:0:0:0:0:
320,192,74973,1,2,0:0:0:0:
448,192,74973,1,0,0:0:0:0:
192,192,75090,1,8,0:0:0:0:
320,192,75207,128,0,75442:0:0:0:50:LR_Hat Synth.wav
192,192,75442,1,8,0:0:0:0:
448,192,75442,1,2,0:0:0:0:
192,192,75676,128,0,75911:0:0:0:50:LR_Hat Synth.wav
64,192,75793,128,0,75911:0:0:0:0:
320,192,75911,128,2,76145:0:0:0:0:
448,192,75911,128,0,76145:0:0:0:0:
64,192,76145,128,0,76262:0:0:0:50:LR_Hat Synth.wav
192,192,76262,128,0,76379:0:0:0:0:
320,192,76262,128,0,76379:0:0:0:0:
64,192,76379,1,2,0:0:0:0:
448,192,76379,1,8,0:0:0:0:
192,192,76496,128,0,76614:0:0:0:0:
320,192,76614,128,0,76848:0:0:0:50:LR_Hat Synth.wav
448,192,76614,128,0,76965:0:0:0:0:
64,192,76848,1,2,0:0:0:0:
192,192,76848,1,0,0:0:0:0:
320,192,76965,1,8,0:0:0:0:
64,192,77082,128,0,77551:0:0:0:50:LR_Hat Synth.wav
192,192,77317,128,2,77551:0:0:0:0:
320,192,77317,128,8,77786:0:0:0:0:
448,192,77551,128,0,77786:0:0:0:50:LR_Hat Synth.wav
64,192,77786,128,2,78020:0:0:0:0:
192,192,77786,128,0,78020:0:0:0:0:
448,192,78020,128,0,78137:0:0:0:50:LR_Hat Synth.wav
192,192,78137,128,0,78254:0:0:0:0:
320,192,78137,128,0,78254:0:0:0:0:
64,192,78254,1,8,0:0:0:0:
448,192,78254,1,2,0:0:0:0:
320,192,78371,128,0,78489:0:0:0:0:
64,192,78489,128,0,79192:0:0:0:50:LR_Hat Synth.wav
192,192,78489,128,0,78723:0:0:0:0:
320,192,78723,1,2,0:0:0:0:
448,192,78723,1,0,0:0:0:0:
192,192,78840,1,8,0:0:0:0:
448,192,78957,128,0,79192:0:0:0:50:LR_Hat Synth.wav
192,192,79192,1,8,0:0:0:0:
320,192,79192,1,2,0:0:0:0:
192,192,79426,128,0,79661:0:0:0:50:LR_Hat Synth.wav
64,192,79543,128,0,79661:0:0:0:0:
320,192,79661,128,2,79895:0:0:0:0:
448,192,79661,128,0,79895:0:0:0:0:
64,192,79895,128,0,80012:0:0:0:50:LR_Hat Synth.wav
192,192,80012,128,0,80129:0:0:0:0:
320,192,80012,128,0,80129:0:0:0:0:
64,192,80129,1,2,0:0:0:0:
448,192,80129,1,8,0:0:0:0:
192,192,80246,1,0,0:0:0:0:
320,192,80364,128,0,80715:0:0:0:50:LR_Hat Synth.wav
448,192,80364,128,0,80598:0:0:0:0:
64,192,80598,1,2,0:0:0:0:
192,192,80598,1,0,0:0:0:0:
448,192,80715,1,8,0:0:0:0:
64,192,80832,128,0,81301:0:0:0:50:LR_Hat Synth.wav
192,192,81067,128,2,81301:0:0:0:0:
448,192,81067,128,8,81536:0:0:0:0:
320,192,81301,128,0,81536:0:0:0:50:LR_Hat Synth.wav
64,192,81536,128,2,81770:0:0:0:0:
192,192,81536,128,4,81770:0:0:0:0:
448,192,81770,128,0,81887:0:0:0:50:LR_Hat Synth.wav
64,192,81887,128,0,82004:0:0:0:0:
192,192,81887,128,0,82004:0:0:0:0:
320,192,82004,1,8,0:0:0:0:
448,192,82004,1,2,0:0:0:0:
64,192,82121,128,0,82239:0:0:0:0:
320,192,82239,128,0,82473:0:0:0:50:LR_Hat Synth.wav
448,192,82239,128,0,82473:0:0:0:0:
64,192,82473,1,2,0:0:0:0:
192,192,82473,1,0,0:0:0:0:
320,192,82590,1,8,0:0:0:0:
64,192,82707,128,0,83176:0:0:0:50:LR_Hat Synth.wav
192,192,82942,128,8,83176:0:0:0:0:
320,192,82942,128,2,83411:0:0:0:0:
448,192,83176,128,0,83411:0:0:0:50:LR_Hat Synth.wav
64,192,83411,128,2,83645:0:0:0:0:
192,192,83411,128,0,83645:0:0:0:0:
448,192,83645,128,0,83762:0:0:0:50:LR_Hat Synth.wav
192,192,83762,128,0,83879:0:0:0:0:
320,192,83762,128,0,83879:0:0:0:0:
64,192,83879,1,2,0:0:0:0:
448,192,83879,1,8,0:0:0:0:
320,192,83996,128,0,84114:0:0:0:0:
64,192,84114,128,0,84465:0:0:0:50:LR_Hat Synth.wav
192,192,84114,128,0,84348:0:0:0:0:
320,192,84348,1,2,0:0:0:0:
448,192,84348,1,0,0:0:0:0:
192,192,84465,1,8,0:0:0:0:
448,192,84582,128,0,85051:0:0:0:50:LR_Hat Synth.wav
192,192,84817,128,2,85051:0:0:0:0:
320,192,84817,128,8,85051:0:0:0:0:
64,192,85051,1,0,0:0:0:50:LR_Hat Synth.wav
192,192,85286,1,2,0:0:0:0:
448,192,85286,128,0,85403:0:0:0:0:
192,192,85520,128,0,85871:0:0:0:50:LR_Hat Synth.wav
64,192,85754,128,8,85989:0:0:0:0:
320,192,85754,1,2,0:0:0:0:
192,192,85989,128,0,86223:0:0:0:50:LR_Hat Synth.wav
64,192,86106,128,0,86340:0:0:0:0:
320,192,86223,1,2,0:0:0:0:
448,192,86223,1,0,0:0:0:0:
192,192,86340,1,8,0:0:0:0:
448,192,86457,128,0,86692:0:0:0:50:LR_Hat Synth.wav
64,192,86692,128,8,87043:0:0:0:0:
320,192,86692,128,2,86926:0:0:0:0:
448,192,86926,1,0,0:0:0:50:LR_Hat Synth.wav
192,192,87043,128,0,87161:0:0:0:0:
64,192,87161,1,4,0:0:0:0:
320,192,87161,128,2,87395:0:0:0:0:
448,192,87161,128,0,87395:0:0:0:0:
64,192,87395,1,0,0:0:0:40:Tom3.wav
192,192,87395,1,0,0:0:0:0:
320,192,87512,128,8,87629:0:0:0:0:
448,192,87512,128,0,87629:0:0:0:0:
192,192,87629,1,10,0:0:0:0:
320,192,87746,1,0,0:0:0:50:Tom2.wav
64,192,87864,128,2,87981:0:0:0:0:
192,192,87864,128,0,87981:0:0:0:50:Tom3.wav
448,192,87864,128,0,87981:0:0:0:0:
64,192,88098,128,2,89036:0:0:0:0:
320,192,88098,128,4,89036:0:0:0:0:
448,192,88098,128,0,89036:0:0:0:0:
