osu file format v14

[General]
AudioFilename: audio.mp3
AudioLeadIn: 0
PreviewTime: 58331
Countdown: 0
SampleSet: Soft
StackLeniency: 0.7
Mode: 3
LetterboxInBreaks: 0
SpecialStyle: 0
WidescreenStoryboard: 1

[Editor]
Bookmarks: 912,14036,21536,29036,44036,51536,59036,66536,74036,81536
DistanceSpacing: 1.4
BeatDivisor: 4
GridSize: 8
TimelineZoom: 1.4

[Metadata]
Title:Hajimari no Setsuna (TV Size)
TitleUnicode:はじまりのセツナ (TV Size)
Artist:Roubai Gakuen Chuutoubu 1-nen 3-kumi
ArtistUnicode:蠟梅学園中等部1年3組
Creator:Crisper
Version:Hard
Source:Akebi-chan no Sailor-fuku
Tags:Denyi Akebi chan Akebi's Sailor Uniform 明日ちゃんのセーラー服 Anime anisong Opening op japanese pop jpop j-pop idol female vocal vocalist jp CloverWorks 1nen 3gumi 3kumi 1-3 Sugiyama Katsuhiko 杉山勝彦
BeatmapID:3669305
BeatmapSetID:1787942

[Difficulty]
HPDrainRate:7.5
CircleSize:4
OverallDifficulty:7.5
ApproachRate:5
SliderMultiplier:1.4
SliderTickRate:1

[Events]
//Background and Video events
0,0,"bg4.jpg",0,0
Video,-279,"akebi.mp4"
//Break Periods
//Storyboard Layer 0 (Background)
//Storyboard Layer 1 (Fail)
//Storyboard Layer 2 (Pass)
//Storyboard Layer 3 (Foreground)
//Storyboard Layer 4 (Overlay)
//Storyboard Sound Samples

[TimingPoints]
911,468.75,4,2,1,20,1,0
14036,-100,4,2,1,50,0,0
59036,-100,4,2,1,50,0,1
66536,-100,4,2,1,50,0,0
74036,-100,4,2,1,50,0,1
81536,-100,4,2,1,50,0,0

[HitObjects]
64,192,207,128,0,442:0:0:0:0:
448,192,442,128,0,676:0:0:0:0:
320,192,676,128,0,911:0:0:0:0:
64,192,911,1,0,0:0:0:0:
192,192,911,128,0,1145:0:0:0:0:
448,192,1145,1,0,0:0:0:0:
320,192,1262,128,0,1496:0:0:0:0:
192,192,1496,1,0,0:0:0:0:
64,192,1614,128,0,2200:0:0:0:0:
448,192,1614,1,0,0:0:0:0:
320,192,1965,1,0,0:0:0:0:
448,192,2082,1,0,0:0:0:0:
192,192,2200,1,0,0:0:0:0:
320,192,2317,1,0,0:0:0:0:
448,192,2317,1,0,0:0:0:0:
64,192,2551,1,0,0:0:0:0:
320,192,2668,1,0,0:0:0:0:
192,192,2786,128,0,3020:0:0:0:0:
448,192,2786,1,0,0:0:0:0:
64,192,3020,1,0,0:0:0:0:
320,192,3137,1,0,0:0:0:0:
448,192,3254,1,0,0:0:0:0:
64,192,3371,1,0,0:0:0:0:
192,192,3489,128,0,3957:0:0:0:0:
320,192,3489,1,0,0:0:0:0:
448,192,3840,1,0,0:0:0:0:
64,192,3957,1,0,0:0:0:0:
320,192,4075,1,0,0:0:0:0:
64,192,4192,128,0,4661:0:0:0:0:
448,192,4192,1,0,0:0:0:0:
192,192,4426,128,0,4661:0:0:0:0:
320,192,4661,128,0,4895:0:0:0:0:
448,192,4661,1,0,0:0:0:0:
192,192,4895,1,0,0:0:0:0:
64,192,5012,128,0,5246:0:0:0:0:
448,192,5129,1,0,0:0:0:0:
192,192,5246,1,0,0:0:0:0:
320,192,5364,1,0,0:0:0:0:
448,192,5364,128,0,5950:0:0:0:0:
192,192,5715,1,0,0:0:0:0:
64,192,5832,1,0,0:0:0:0:
320,192,5950,1,0,0:0:0:0:
64,192,6067,1,0,0:0:0:0:
192,192,6067,1,0,0:0:0:0:
320,192,6301,1,0,0:0:0:0:
64,192,6418,1,0,0:0:0:0:
192,192,6536,1,0,0:0:0:0:
448,192,6536,128,0,6770:0:0:0:0:
320,192,6770,1,0,0:0:0:0:
192,192,6887,128,0,7121:0:0:0:0:
448,192,7004,1,0,0:0:0:0:
320,192,7121,1,0,0:0:0:0:
64,192,7239,128,0,7707:0:0:0:0:
192,192,7239,1,0,0:0:0:0:
448,192,7590,1,0,0:0:0:0:
192,192,7707,1,0,0:0:0:0:
320,192,7825,1,0,0:0:0:0:
64,192,7942,1,0,0:0:0:0:
448,192,7942,128,0,8411:0:0:0:0:
320,192,8176,128,0,8411:0:0:0:0:
64,192,8411,128,0,8645:0:0:0:0:
192,192,8411,1,0,0:0:0:0:
320,192,8645,1,0,0:0:0:0:
64,192,8762,128,0,8996:0:0:0:0:
320,192,8996,1,0,0:0:0:0:
64,192,9114,128,0,9348:0:0:0:0:
448,192,9114,1,0,0:0:0:0:
192,192,9348,1,0,0:0:0:0:
320,192,9465,1,0,0:0:0:0:
448,192,9582,128,0,9817:0:0:0:0:
64,192,9700,1,0,0:0:0:0:
192,192,9817,1,0,0:0:0:0:
320,192,9817,128,0,10051:0:0:0:0:
192,192,10051,128,0,10286:0:0:0:0:
64,192,10286,128,0,10520:0:0:0:0:
448,192,10286,1,0,0:0:0:0:
320,192,10520,1,0,0:0:0:0:
192,192,10637,1,0,0:0:0:0:
320,192,10754,1,0,0:0:0:0:
64,192,10871,1,0,0:0:0:0:
192,192,10989,1,0,0:0:0:0:
448,192,10989,128,0,11340:0:0:0:0:
320,192,11340,1,0,0:0:0:0:
64,192,11457,1,0,0:0:0:0:
448,192,11575,1,0,0:0:0:0:
64,192,11692,128,0,12161:0:0:0:0:
320,192,11926,1,0,0:0:0:0:
192,192,12161,1,0,0:0:0:0:
448,192,12161,1,0,0:0:0:0:
320,192,12395,128,0,12629:0:0:0:0:
192,192,12629,128,0,12864:0:0:0:0:
64,192,12864,1,0,0:0:0:0:
448,192,12864,1,0,0:0:0:0:
320,192,12981,128,0,13332:0:0:0:0:
192,192,13332,128,0,13567:0:0:0:0:
64,192,13567,128,0,14036:0:0:0:0:
448,192,13567,1,0,0:0:0:0:
192,192,14036,1,2,0:0:0:0:
320,192,14036,128,4,14153:0:0:0:0:
448,192,14036,128,0,14153:0:0:0:0:
64,192,14387,128,0,14504:0:0:0:0:
192,192,14387,128,0,14504:0:0:0:0:
320,192,14504,1,2,0:0:0:0:
448,192,14504,1,0,0:0:0:0:
64,192,14739,128,0,14856:0:0:0:0:
320,192,14739,128,0,15442:0:0:0:0:
192,192,14973,1,2,0:0:0:0:
448,192,14973,1,0,0:0:0:0:
64,192,15207,1,0,0:0:0:0:
64,192,15442,1,2,0:0:0:0:
192,192,15442,1,0,0:0:0:0:
448,192,15676,1,0,0:0:0:0:
320,192,15793,1,0,0:0:0:0:
64,192,15911,128,2,16028:0:0:0:0:
192,192,15911,128,0,16028:0:0:0:0:
320,192,16262,128,0,16379:0:0:0:0:
448,192,16262,128,0,16379:0:0:0:0:
64,192,16379,1,2,0:0:0:0:
192,192,16379,1,0,0:0:0:0:
64,192,16614,128,0,17317:0:0:0:0:
448,192,16614,128,0,16731:0:0:0:0:
192,192,16848,1,2,0:0:0:0:
320,192,16848,1,0,0:0:0:0:
448,192,17082,1,0,0:0:0:0:
320,192,17317,1,2,0:0:0:0:
448,192,17317,1,0,0:0:0:0:
192,192,17434,1,0,0:0:0:0:
320,192,17551,1,0,0:0:0:0:
64,192,17668,1,0,0:0:0:0:
192,192,17786,128,2,17903:0:0:0:0:
448,192,17786,128,0,17903:0:0:0:0:
64,192,18137,128,0,18254:0:0:0:0:
192,192,18137,128,0,18254:0:0:0:0:
320,192,18254,1,2,0:0:0:0:
448,192,18254,1,0,0:0:0:0:
64,192,18489,128,0,18606:0:0:0:0:
448,192,18489,128,0,19192:0:0:0:0:
192,192,18723,1,2,0:0:0:0:
320,192,18723,1,0,0:0:0:0:
64,192,18957,1,0,0:0:0:0:
64,192,19192,1,2,0:0:0:0:
192,192,19192,1,0,0:0:0:0:
320,192,19426,1,0,0:0:0:0:
448,192,19543,1,0,0:0:0:0:
64,192,19661,128,2,19778:0:0:0:0:
192,192,19661,128,0,19778:0:0:0:0:
192,192,20012,128,0,20129:0:0:0:0:
320,192,20012,128,0,20129:0:0:0:0:
64,192,20129,1,2,0:0:0:0:
448,192,20129,1,0,0:0:0:0:
320,192,20364,128,0,20481:0:0:0:0:
448,192,20364,128,0,20832:0:0:0:0:
64,192,20598,1,2,0:0:0:0:
192,192,20598,1,0,0:0:0:50:LR_Hat Finish.wav
320,192,20832,1,0,0:0:0:40:Tom1.wav
192,192,20950,1,8,0:0:0:0:
64,192,21067,1,8,0:0:0:0:
448,192,21067,1,2,0:0:0:0:
320,192,21184,1,0,0:0:0:50:Tom2.wav
192,192,21301,1,0,0:0:0:50:Tom3.wav
64,192,21536,1,4,0:0:0:0:
320,192,21536,1,2,0:0:0:0:
448,192,21536,1,0,0:0:0:0:
192,192,21770,1,8,0:0:0:0:
320,192,21887,1,8,0:0:0:0:
64,192,22004,1,2,0:0:0:0:
192,192,22004,1,8,0:0:0:0:
448,192,22121,1,8,0:0:0:0:
192,192,22239,1,8,0:0:0:0:
320,192,22356,1,8,0:0:0:0:
64,192,22473,1,2,0:0:0:0:
448,192,22473,1,8,0:0:0:0:
192,192,22590,1,8,0:0:0:0:
320,192,22707,1,8,0:0:0:0:
64,192,22825,1,8,0:0:0:0:
320,192,22942,1,2,0:0:0:0:
448,192,22942,1,8,0:0:0:0:
192,192,23059,1,8,0:0:0:0:
448,192,23176,1,8,0:0:0:0:
64,192,23293,1,8,0:0:0:0:
192,192,23411,1,2,0:0:0:0:
320,192,23411,1,4,0:0:0:0:
448,192,23411,1,0,0:0:0:0:
64,192,23645,1,8,0:0:0:0:
320,192,23762,1,8,0:0:0:0:
64,192,23879,1,2,0:0:0:0:
192,192,23879,1,8,0:0:0:0:
448,192,23996,1,8,0:0:0:0:
192,192,24114,1,8,0:0:0:0:
320,192,24231,1,8,0:0:0:0:
64,192,24348,1,2,0:0:0:0:
448,192,24348,1,8,0:0:0:0:
192,192,24465,1,8,0:0:0:0:
320,192,24582,1,8,0:0:0:0:
64,192,24700,1,8,0:0:0:0:
448,192,24817,1,2,0:0:0:0:
320,192,24817,1,8,0:0:0:0:
192,192,24934,1,8,0:0:0:0:
64,192,25051,1,8,0:0:0:0:
320,192,25168,1,8,0:0:0:0:
64,192,25286,1,4,0:0:0:0:
192,192,25286,1,2,0:0:0:0:
448,192,25286,1,0,0:0:0:0:
320,192,25520,1,8,0:0:0:0:
192,192,25637,1,8,0:0:0:0:
320,192,25754,1,2,0:0:0:0:
448,192,25754,1,8,0:0:0:0:
64,192,25871,1,8,0:0:0:0:
448,192,25989,1,8,0:0:0:0:
192,192,26106,1,8,0:0:0:0:
64,192,26223,1,2,0:0:0:0:
320,192,26223,1,8,0:0:0:0:
448,192,26340,1,8,0:0:0:0:
64,192,26457,1,8,0:0:0:0:
320,192,26575,1,8,0:0:0:0:
64,192,26692,1,2,0:0:0:0:
448,192,26692,1,8,0:0:0:0:
192,192,26809,1,8,0:0:0:0:
448,192,26926,1,8,0:0:0:0:
192,192,27043,1,8,0:0:0:0:
64,192,27161,128,2,27395:0:0:0:0:
320,192,27161,1,4,0:0:0:0:
320,192,27395,1,8,0:0:0:0:
192,192,27512,1,2,0:0:0:0:
448,192,27512,128,4,27746:0:0:0:0:
192,192,27746,1,8,0:0:0:0:
64,192,27864,128,2,28567:0:0:0:0:
320,192,27864,1,4,0:0:0:0:
448,192,27864,1,0,0:0:0:0:
320,192,28567,1,2,0:0:0:0:
448,192,28567,1,0,0:0:0:50:Tom3.wav
192,192,28801,1,0,0:0:0:0:
320,192,28918,1,0,0:0:0:0:
64,192,29036,1,2,0:0:0:0:
192,192,29036,1,4,0:0:0:0:
448,192,29036,128,0,29270:0:0:0:0:
320,192,29270,1,0,0:0:0:50:LR_Hat Synth.wav
192,192,29387,1,0,0:0:0:0:
64,192,29504,1,8,0:0:0:0:
448,192,29504,1,2,0:0:0:0:
320,192,29621,1,0,0:0:0:0:
192,192,29739,128,0,29973:0:0:0:50:LR_Hat Synth.wav
320,192,29973,1,2,0:0:0:0:
448,192,29973,1,0,0:0:0:0:
64,192,30090,1,0,0:0:0:30:soft-hitclap.wav
320,192,30207,128,0,30442:0:0:0:50:LR_Hat Synth.wav
64,192,30442,1,8,0:0:0:0:
192,192,30442,1,2,0:0:0:0:
320,192,30676,1,0,0:0:0:50:LR_Hat Synth.wav
192,192,30793,1,0,0:0:0:0:
64,192,30911,128,2,31145:0:0:0:0:
448,192,30911,1,0,0:0:0:0:
192,192,31145,1,0,0:0:0:50:LR_Hat Synth.wav
320,192,31262,1,0,0:0:0:0:
192,192,31379,1,2,0:0:0:0:
64,192,31379,1,8,0:0:0:0:
320,192,31496,1,0,0:0:0:0:
448,192,31614,128,0,32082:0:0:0:50:LR_Hat Synth.wav
64,192,31848,1,2,0:0:0:0:
192,192,31848,1,0,0:0:0:0:
320,192,31965,1,0,0:0:0:0:
192,192,32082,1,0,0:0:0:50:LR_Hat Synth.wav
64,192,32317,1,8,0:0:0:0:
320,192,32317,1,2,0:0:0:0:
192,192,32551,1,0,0:0:0:50:LR_Hat Synth.wav
320,192,32668,1,0,0:0:0:0:
64,192,32786,1,2,0:0:0:0:
448,192,32786,128,0,33020:0:0:0:0:
192,192,33020,1,0,0:0:0:50:LR_Hat Synth.wav
320,192,33137,1,0,0:0:0:0:
64,192,33254,1,2,0:0:0:0:
448,192,33254,1,8,0:0:0:0:
192,192,33371,1,0,0:0:0:0:
320,192,33489,128,0,33723:0:0:0:50:LR_Hat Synth.wav
64,192,33723,1,2,0:0:0:0:
192,192,33723,1,0,0:0:0:0:
448,192,33840,1,0,0:0:0:0:
64,192,33957,128,0,34192:0:0:0:50:LR_Hat Synth.wav
320,192,34192,1,8,0:0:0:0:
448,192,34192,1,2,0:0:0:0:
192,192,34426,1,0,0:0:0:50:LR_Hat Synth.wav
448,192,34543,1,0,0:0:0:0:
64,192,34661,1,2,0:0:0:0:
192,192,34661,128,0,34895:0:0:0:0:
320,192,34895,1,0,0:0:0:50:LR_Hat Synth.wav
64,192,35012,1,0,0:0:0:0:
320,192,35129,1,2,0:0:0:0:
448,192,35129,1,8,0:0:0:0:
192,192,35246,1,0,0:0:0:0:
448,192,35364,128,0,35832:0:0:0:50:LR_Hat Synth.wav
64,192,35598,1,2,0:0:0:0:
192,192,35598,1,0,0:0:0:0:
320,192,35715,1,0,0:0:0:30:soft-hitclap.wav
192,192,35832,1,0,0:0:0:50:LR_Hat Finish.wav
64,192,36067,1,8,0:0:0:0:
320,192,36067,1,2,0:0:0:0:
448,192,36301,1,0,0:0:0:50:LR_Hat Synth.wav
192,192,36418,1,0,0:0:0:0:
64,192,36536,1,2,0:0:0:0:
448,192,36536,128,0,36770:0:0:0:0:
320,192,36770,1,0,0:0:0:50:LR_Hat Synth.wav
192,192,36887,1,0,0:0:0:0:
64,192,37004,1,2,0:0:0:0:
448,192,37004,1,8,0:0:0:0:
320,192,37121,1,0,0:0:0:0:
192,192,37239,128,0,37473:0:0:0:50:LR_Hat Synth.wav
320,192,37473,1,2,0:0:0:0:
448,192,37473,1,0,0:0:0:0:
64,192,37590,1,0,0:0:0:0:
448,192,37707,128,0,37942:0:0:0:50:LR_Hat Synth.wav
320,192,37942,1,8,0:0:0:0:
192,192,37942,1,2,0:0:0:0:
64,192,38176,1,0,0:0:0:50:LR_Hat Synth.wav
320,192,38293,1,0,0:0:0:0:
64,192,38411,128,2,38645:0:0:0:0:
448,192,38411,1,0,0:0:0:0:
192,192,38645,1,0,0:0:0:50:LR_Hat Synth.wav
320,192,38762,1,0,0:0:0:0:
448,192,38879,1,2,0:0:0:0:
64,192,38879,1,8,0:0:0:0:
192,192,38996,1,0,0:0:0:0:
320,192,39114,128,0,39348:0:0:0:50:LR_Hat Synth.wav
192,192,39348,1,2,0:0:0:0:
64,192,39348,1,0,0:0:0:0:
448,192,39465,1,0,0:0:0:0:
64,192,39582,128,4,39817:0:0:0:50:LR_Hat Finish.wav
192,192,39817,1,8,0:0:0:0:
320,192,39817,1,2,0:0:0:0:
448,192,40051,1,0,0:0:0:50:LR_Hat Synth.wav
192,192,40168,1,0,0:0:0:50:LR_Hat Synth.wav
448,192,40286,128,2,40520:0:0:0:0:
64,192,40286,1,0,0:0:0:0:
320,192,40520,1,0,0:0:0:50:LR_Hat Synth.wav
192,192,40637,1,0,0:0:0:0:
64,192,40754,1,2,0:0:0:0:
448,192,40754,1,8,0:0:0:0:
320,192,40871,1,0,0:0:0:0:
192,192,40989,128,0,41223:0:0:0:50:LR_Hat Synth.wav
320,192,41223,1,2,0:0:0:0:
448,192,41223,1,0,0:0:0:0:
64,192,41340,1,0,0:0:0:0:
448,192,41457,128,0,41692:0:0:0:50:LR_Hat Synth.wav
64,192,41692,1,8,0:0:0:0:
192,192,41692,1,2,0:0:0:0:
320,192,41926,1,0,0:0:0:50:LR_Hat Synth.wav
192,192,42043,1,0,0:0:0:0:
320,192,42161,128,2,42395:0:0:0:0:
448,192,42161,1,0,0:0:0:0:
192,192,42395,1,0,0:0:0:50:LR_Hat Synth.wav
64,192,42512,1,0,0:0:0:0:
320,192,42629,1,2,0:0:0:0:
448,192,42629,1,8,0:0:0:0:
448,192,42864,128,0,43332:0:0:0:50:LR_Hat Synth.wav
64,192,43098,1,2,0:0:0:0:
192,192,43098,1,4,0:0:0:50:LR_Hat Finish.wav
320,192,43332,1,8,0:0:0:0:
64,192,43450,1,0,0:0:0:0:
192,192,43567,1,8,0:0:0:0:
448,192,43567,1,0,0:0:0:0:
320,192,43684,1,8,0:0:0:0:
64,192,43801,1,0,0:0:0:50:Tom3.wav
320,192,43918,1,0,0:0:0:0:
64,192,44036,128,4,44270:0:0:0:0:
192,192,44036,1,2,0:0:0:0:
448,192,44036,1,0,0:0:0:0:
320,192,44270,1,0,0:0:0:50:LR_Hat Synth.wav
192,192,44387,1,0,0:0:0:0:
64,192,44504,1,8,0:0:0:0:
320,192,44504,1,2,0:0:0:0:
448,192,44504,1,0,0:0:0:0:
448,192,44739,128,0,45207:0:0:0:50:LR_Hat Synth.wav
64,192,44973,1,2,0:0:0:0:
192,192,44973,1,0,0:0:0:0:
320,192,45207,1,0,0:0:0:50:LR_Hat Synth.wav
64,192,45442,1,2,0:0:0:0:
192,192,45442,1,8,0:0:0:0:
448,192,45442,1,0,0:0:0:0:
320,192,45676,128,0,45911:0:0:0:50:LR_Hat Synth.wav
64,192,45911,1,2,0:0:0:0:
448,192,45911,128,0,46145:0:0:0:0:
192,192,46145,1,0,0:0:0:50:LR_Hat Synth.wav
320,192,46262,1,0,0:0:0:0:
64,192,46379,1,8,0:0:0:0:
192,192,46379,1,2,0:0:0:0:
448,192,46379,1,0,0:0:0:0:
64,192,46614,128,0,47082:0:0:0:50:LR_Hat Synth.wav
320,192,46848,1,2,0:0:0:0:
448,192,46848,1,0,0:0:0:0:
192,192,47082,1,0,0:0:0:50:LR_Hat Synth.wav
64,192,47317,1,2,0:0:0:0:
320,192,47317,1,8,0:0:0:0:
448,192,47317,1,0,0:0:0:0:
192,192,47551,1,0,0:0:0:50:LR_Hat Synth.wav
64,192,47786,128,2,48020:0:0:0:0:
448,192,47786,1,0,0:0:0:0:
320,192,48020,1,0,0:0:0:50:LR_Hat Synth.wav
192,192,48137,1,0,0:0:0:0:
64,192,48254,1,8,0:0:0:0:
320,192,48254,1,2,0:0:0:0:
448,192,48254,1,0,0:0:0:0:
448,192,48489,128,0,48840:0:0:0:50:LR_Hat Synth.wav
64,192,48723,1,2,0:0:0:0:
192,192,48723,1,0,0:0:0:0:
320,192,48840,128,0,49192:0:0:0:0:
64,192,49192,1,2,0:0:0:0:
192,192,49192,1,8,0:0:0:0:
448,192,49192,1,0,0:0:0:0:
320,192,49426,1,0,0:0:0:50:LR_Hat Synth.wav
64,192,49661,1,2,0:0:0:0:
448,192,49661,128,0,49895:0:0:0:0:
192,192,49895,1,0,0:0:0:50:LR_Hat Synth.wav
320,192,50012,1,0,0:0:0:0:
64,192,50129,1,8,0:0:0:0:
192,192,50129,1,2,0:0:0:0:
448,192,50129,1,0,0:0:0:0:
64,192,50364,128,0,51067:0:0:0:50:LR_Hat Synth.wav
192,192,50598,1,2,0:0:0:0:
448,192,50598,1,0,0:0:0:50:LR_Hat Finish.wav
320,192,50715,1,8,0:0:0:0:
448,192,50832,1,8,0:0:0:0:
192,192,50950,1,8,0:0:0:0:
320,192,51067,1,8,0:0:0:0:
448,192,51067,1,2,0:0:0:0:
192,192,51184,1,0,0:0:0:50:Tom2.wav
64,192,51301,1,0,0:0:0:50:Tom3.wav
320,192,51418,1,0,0:0:0:0:
64,192,51536,1,4,0:0:0:0:
192,192,51536,1,2,0:0:0:0:
448,192,51536,1,0,0:0:0:0:
320,192,51770,1,8,0:0:0:0:
192,192,51887,1,8,0:0:0:0:
64,192,52004,1,2,0:0:0:0:
448,192,52004,1,8,0:0:0:0:
320,192,52121,1,8,0:0:0:0:
192,192,52239,1,8,0:0:0:0:
448,192,52356,1,8,0:0:0:0:
64,192,52473,1,2,0:0:0:0:
192,192,52473,1,8,0:0:0:0:
320,192,52590,1,8,0:0:0:0:
64,192,52707,1,8,0:0:0:0:
192,192,52825,1,8,0:0:0:0:
320,192,52942,1,2,0:0:0:0:
448,192,52942,1,8,0:0:0:0:
64,192,53059,1,8,0:0:0:0:
448,192,53176,1,8,0:0:0:0:
192,192,53293,1,8,0:0:0:0:
64,192,53411,1,2,0:0:0:0:
320,192,53411,1,4,0:0:0:0:
448,192,53411,1,0,0:0:0:0:
192,192,53645,1,8,0:0:0:0:
320,192,53762,1,8,0:0:0:0:
64,192,53879,1,2,0:0:0:0:
448,192,53879,1,8,0:0:0:0:
192,192,53996,1,8,0:0:0:0:
320,192,54114,1,8,0:0:0:0:
64,192,54231,1,8,0:0:0:0:
320,192,54348,1,2,0:0:0:0:
448,192,54348,1,8,0:0:0:0:
192,192,54465,1,8,0:0:0:0:
448,192,54582,1,8,0:0:0:0:
320,192,54700,1,8,0:0:0:0:
64,192,54817,1,2,0:0:0:0:
192,192,54817,1,8,0:0:0:0:
448,192,54934,1,8,0:0:0:0:
64,192,55051,1,8,0:0:0:0:
320,192,55168,1,8,0:0:0:0:
64,192,55286,1,4,0:0:0:0:
192,192,55286,1,2,0:0:0:0:
448,192,55286,1,0,0:0:0:0:
320,192,55520,1,8,0:0:0:0:
64,192,55637,1,8,0:0:0:0:
192,192,55754,1,2,0:0:0:0:
448,192,55754,1,8,0:0:0:0:
320,192,55871,1,8,0:0:0:0:
64,192,55989,1,8,0:0:0:0:
448,192,56106,1,8,0:0:0:0:
64,192,56223,1,2,0:0:0:0:
320,192,56223,1,8,0:0:0:0:
192,192,56340,1,8,0:0:0:0:
448,192,56457,1,8,0:0:0:0:
64,192,56575,1,8,0:0:0:0:
320,192,56692,1,2,0:0:0:0:
448,192,56692,1,8,0:0:0:0:
192,192,56809,1,8,0:0:0:0:
320,192,56926,1,8,0:0:0:0:
64,192,57043,1,8,0:0:0:0:
192,192,57161,1,2,0:0:0:0:
448,192,57161,128,4,57395:0:0:0:0:
192,192,57395,1,8,0:0:0:0:
64,192,57512,128,2,57746:0:0:0:0:
320,192,57512,1,4,0:0:0:0:
320,192,57746,1,8,0:0:0:0:
64,192,57864,1,2,0:0:0:0:
192,192,57864,1,4,0:0:0:0:
448,192,57864,128,0,58567:0:0:0:0:
192,192,58332,128,0,58567:0:0:0:0:
64,192,58567,1,2,0:0:0:0:
320,192,58567,128,0,58801:0:0:0:50:Tom3.wav
192,192,58801,128,0,59036:0:0:0:0:
64,192,59036,1,2,0:0:0:0:
320,192,59036,128,4,59270:0:0:0:0:
448,192,59036,1,0,0:0:0:0:
192,192,59270,128,0,59387:0:0:0:50:LR_Hat Synth.wav
64,192,59387,128,0,59504:0:0:0:0:
320,192,59504,1,8,0:0:0:0:
448,192,59504,1,2,0:0:0:0:
192,192,59621,128,0,59739:0:0:0:0:
448,192,59739,128,0,60442:0:0:0:50:LR_Hat Synth.wav
64,192,59973,1,2,0:0:0:0:
192,192,59973,1,0,0:0:0:0:
320,192,60090,1,8,0:0:0:0:
64,192,60207,1,0,0:0:0:50:LR_Hat Synth.wav
192,192,60442,1,8,0:0:0:0:
320,192,60442,1,2,0:0:0:0:
448,192,60676,128,0,60793:0:0:0:50:LR_Hat Synth.wav
320,192,60793,128,0,60911:0:0:0:0:
64,192,60911,1,2,0:0:0:0:
192,192,60911,128,0,61145:0:0:0:0:
320,192,61145,128,0,61262:0:0:0:50:LR_Hat Synth.wav
448,192,61262,128,0,61379:0:0:0:0:
64,192,61379,1,8,0:0:0:0:
192,192,61379,1,2,0:0:0:0:
320,192,61496,128,0,61614:0:0:0:0:
64,192,61614,128,0,62082:0:0:0:50:LR_Hat Synth.wav
320,192,61848,1,2,0:0:0:0:
448,192,61848,1,0,0:0:0:0:
192,192,61965,1,8,0:0:0:0:
448,192,62082,128,0,62317:0:0:0:50:LR_Hat Synth.wav
192,192,62317,128,8,62786:0:0:0:0:
320,192,62317,1,2,0:0:0:0:
64,192,62551,128,0,62786:0:0:0:50:LR_Hat Synth.wav
320,192,62786,128,2,63020:0:0:0:0:
448,192,62786,1,0,0:0:0:0:
192,192,63020,128,0,63137:0:0:0:50:LR_Hat Synth.wav
64,192,63137,128,0,63254:0:0:0:0:
320,192,63254,1,2,0:0:0:0:
448,192,63254,1,8,0:0:0:0:
192,192,63371,128,0,63489:0:0:0:0:
448,192,63489,128,0,64192:0:0:0:50:LR_Hat Synth.wav
64,192,63723,1,2,0:0:0:0:
192,192,63723,1,0,0:0:0:0:
320,192,63840,1,8,0:0:0:0:
64,192,63957,1,0,0:0:0:50:LR_Hat Synth.wav
192,192,64192,1,2,0:0:0:0:
320,192,64192,1,8,0:0:0:0:
448,192,64426,128,0,64543:0:0:0:50:LR_Hat Synth.wav
320,192,64543,128,0,64661:0:0:0:0:
64,192,64661,1,2,0:0:0:0:
192,192,64661,128,0,64895:0:0:0:0:
448,192,64895,1,0,0:0:0:50:LR_Hat Synth.wav
192,192,65012,128,0,65129:0:0:0:0:
320,192,65129,1,8,0:0:0:0:
448,192,65129,1,2,0:0:0:0:
192,192,65364,128,0,65832:0:0:0:50:LR_Hat Synth.wav
320,192,65598,1,2,0:0:0:0:
448,192,65598,1,0,0:0:0:0:
64,192,65715,1,8,0:0:0:0:
448,192,65832,128,0,66067:0:0:0:50:LR_Hat Synth.wav
64,192,66067,128,8,66536:0:0:0:0:
320,192,66067,1,2,0:0:0:0:
192,192,66301,128,0,66536:0:0:0:50:LR_Hat Synth.wav
320,192,66536,1,2,0:0:0:0:
448,192,66536,128,4,66770:0:0:0:0:
192,192,66770,1,0,0:0:0:50:LR_Hat Synth.wav
448,192,66887,128,0,67004:0:0:0:0:
192,192,67004,1,2,0:0:0:0:
64,192,67004,1,8,0:0:0:0:
320,192,67121,128,0,67239:0:0:0:0:
64,192,67239,128,0,67473:0:0:0:50:LR_Hat Synth.wav
320,192,67473,1,2,0:0:0:0:
448,192,67473,1,0,0:0:0:0:
192,192,67590,1,8,0:0:0:0:
448,192,67707,128,0,68176:0:0:0:50:LR_Hat Synth.wav
64,192,67942,1,2,0:0:0:0:
320,192,67942,128,8,68176:0:0:0:0:
192,192,68176,128,0,68411:0:0:0:50:LR_Hat Synth.wav
64,192,68411,128,2,68645:0:0:0:0:
448,192,68411,1,0,0:0:0:0:
320,192,68645,128,0,68762:0:0:0:50:LR_Hat Synth.wav
64,192,68762,128,0,68879:0:0:0:0:
192,192,68879,1,8,0:0:0:0:
448,192,68879,1,2,0:0:0:0:
320,192,68996,128,0,69114:0:0:0:0:
192,192,69114,128,0,69465:0:0:0:50:LR_Hat Synth.wav
320,192,69348,1,2,0:0:0:0:
448,192,69348,1,0,0:0:0:0:
64,192,69465,1,8,0:0:0:0:
448,192,69582,128,0,70051:0:0:0:50:LR_Hat Synth.wav
64,192,69817,1,8,0:0:0:0:
320,192,69817,128,2,70051:0:0:0:0:
192,192,70051,1,0,0:0:0:50:LR_Hat Synth.wav
64,192,70286,1,2,0:0:0:0:
320,192,70286,1,0,0:0:0:0:
192,192,70520,128,0,70754:0:0:0:50:LR_Hat Synth.wav
320,192,70754,1,2,0:0:0:0:
448,192,70754,128,8,70989:0:0:0:0:
64,192,70989,128,0,71106:0:0:0:50:LR_Hat Synth.wav
448,192,71106,128,0,71457:0:0:0:0:
64,192,71223,1,2,0:0:0:0:
192,192,71223,1,0,0:0:0:0:
320,192,71340,1,8,0:0:0:0:
64,192,71457,128,0,71692:0:0:0:50:LR_Hat Synth.wav
320,192,71692,128,2,71926:0:0:0:0:
448,192,71692,1,8,0:0:0:0:
192,192,71926,1,0,0:0:0:50:LR_Hat Synth.wav
64,192,72161,128,2,72395:0:0:0:0:
320,192,72161,1,0,0:0:0:0:
448,192,72395,1,0,0:0:0:50:LR_Hat Synth.wav
64,192,72512,128,0,72629:0:0:0:0:
192,192,72629,1,8,0:0:0:0:
320,192,72629,1,4,0:0:0:0:
448,192,72629,1,0,0:0:0:0:
64,192,72864,128,0,73098:0:0:0:0:
448,192,73098,1,2,0:0:0:0:
320,192,73098,1,0,0:0:0:0:
192,192,73215,1,8,0:0:0:0:
320,192,73332,1,8,0:0:0:0:
192,192,73450,1,8,0:0:0:0:
64,192,73567,1,8,0:0:0:0:
448,192,73567,1,2,0:0:0:0:
320,192,73684,1,0,0:0:0:50:Tom2.wav
192,192,73801,1,0,0:0:0:50:Tom3.wav
64,192,74036,1,2,0:0:0:0:
192,192,74036,128,4,74270:0:0:0:0:
448,192,74036,1,0,0:0:0:0:
320,192,74270,128,0,74387:0:0:0:50:LR_Hat Synth.wav
448,192,74387,128,0,74504:0:0:0:0:
64,192,74504,1,8,0:0:0:0:
192,192,74504,1,2,0:0:0:0:
320,192,74621,128,0,74739:0:0:0:0:
64,192,74739,128,0,75442:0:0:0:50:LR_Hat Synth.wav
320,192,74973,1,2,0:0:0:0:
448,192,74973,1,0,0:0:0:0:
192,192,75090,1,8,0:0:0:0:
448,192,75207,1,0,0:0:0:50:LR_Hat Synth.wav
192,192,75442,1,8,0:0:0:0:
320,192,75442,1,2,0:0:0:0:
64,192,75676,128,0,75793:0:0:0:50:LR_Hat Synth.wav
192,192,75793,128,0,75911:0:0:0:0:
320,192,75911,128,2,76145:0:0:0:0:
448,192,75911,1,0,0:0:0:0:
192,192,76145,128,0,76262:0:0:0:50:LR_Hat Synth.wav
64,192,76262,128,0,76379:0:0:0:0:
320,192,76379,1,2,0:0:0:0:
448,192,76379,1,8,0:0:0:0:
192,192,76496,128,0,76614:0:0:0:0:
448,192,76614,128,0,77082:0:0:0:50:LR_Hat Synth.wav
64,192,76848,1,2,0:0:0:0:
192,192,76848,1,0,0:0:0:0:
320,192,76965,1,8,0:0:0:0:
64,192,77082,128,0,77317:0:0:0:50:LR_Hat Synth.wav
192,192,77317,1,2,0:0:0:0:
320,192,77317,128,8,77786:0:0:0:0:
448,192,77551,128,0,77786:0:0:0:50:LR_Hat Synth.wav
64,192,77786,1,2,0:0:0:0:
192,192,77786,128,0,78020:0:0:0:0:
320,192,78020,128,0,78137:0:0:0:50:LR_Hat Synth.wav
448,192,78137,128,0,78254:0:0:0:0:
64,192,78254,1,8,0:0:0:0:
192,192,78254,1,2,0:0:0:0:
320,192,78371,128,0,78489:0:0:0:0:
64,192,78489,128,0,79192:0:0:0:50:LR_Hat Synth.wav
320,192,78723,1,2,0:0:0:0:
448,192,78723,1,0,0:0:0:0:
192,192,78840,1,8,0:0:0:0:
448,192,78957,1,0,0:0:0:50:LR_Hat Synth.wav
192,192,79192,1,8,0:0:0:0:
320,192,79192,1,2,0:0:0:0:
64,192,79426,128,0,79543:0:0:0:50:LR_Hat Synth.wav
192,192,79543,128,0,79661:0:0:0:0:
320,192,79661,128,2,79895:0:0:0:0:
448,192,79661,1,0,0:0:0:0:
64,192,79895,1,0,0:0:0:50:LR_Hat Synth.wav
320,192,80012,128,0,80129:0:0:0:0:
64,192,80129,1,2,0:0:0:0:
448,192,80129,1,8,0:0:0:0:
192,192,80246,128,0,80364:0:0:0:0:
320,192,80364,128,0,80832:0:0:0:50:LR_Hat Synth.wav
64,192,80598,1,2,0:0:0:0:
192,192,80598,1,0,0:0:0:0:
448,192,80715,1,8,0:0:0:0:
64,192,80832,128,0,81067:0:0:0:50:LR_Hat Synth.wav
192,192,81067,1,2,0:0:0:0:
448,192,81067,128,8,81536:0:0:0:0:
320,192,81301,128,0,81536:0:0:0:50:LR_Hat Synth.wav
64,192,81536,128,2,81770:0:0:0:0:
192,192,81536,1,4,0:0:0:0:
320,192,81770,1,0,0:0:0:50:LR_Hat Synth.wav
64,192,81887,128,0,82004:0:0:0:0:
320,192,82004,1,8,0:0:0:0:
448,192,82004,1,2,0:0:0:0:
192,192,82121,128,0,82239:0:0:0:0:
448,192,82239,128,0,82473:0:0:0:50:LR_Hat Synth.wav
64,192,82473,1,2,0:0:0:0:
192,192,82473,1,0,0:0:0:0:
320,192,82590,1,8,0:0:0:0:
64,192,82707,128,0,83176:0:0:0:50:LR_Hat Synth.wav
192,192,82942,128,8,83176:0:0:0:0:
448,192,82942,1,2,0:0:0:0:
320,192,83176,128,0,83411:0:0:0:50:LR_Hat Synth.wav
64,192,83411,1,2,0:0:0:0:
448,192,83411,128,0,83645:0:0:0:0:
192,192,83645,128,0,83762:0:0:0:50:LR_Hat Synth.wav
448,192,83762,128,0,83879:0:0:0:0:
64,192,83879,1,2,0:0:0:0:
320,192,83879,1,8,0:0:0:0:
192,192,83996,128,0,84114:0:0:0:0:
320,192,84114,128,0,84465:0:0:0:50:LR_Hat Synth.wav
64,192,84348,1,2,0:0:0:0:
192,192,84348,1,0,0:0:0:0:
448,192,84465,1,8,0:0:0:0:
64,192,84582,128,0,85051:0:0:0:50:LR_Hat Synth.wav
192,192,84817,128,2,85051:0:0:0:0:
448,192,84817,1,8,0:0:0:0:
320,192,85051,1,0,0:0:0:50:LR_Hat Synth.wav
192,192,85286,1,2,0:0:0:0:
448,192,85286,1,0,0:0:0:0:
320,192,85520,128,0,85754:0:0:0:50:LR_Hat Synth.wav
64,192,85754,128,8,85989:0:0:0:0:
192,192,85754,1,2,0:0:0:0:
448,192,85989,128,0,86106:0:0:0:50:LR_Hat Synth.wav
64,192,86106,128,0,86457:0:0:0:0:
320,192,86223,1,2,0:0:0:0:
448,192,86223,1,0,0:0:0:0:
192,192,86340,1,8,0:0:0:0:
320,192,86457,128,0,86692:0:0:0:50:LR_Hat Synth.wav
64,192,86692,1,8,0:0:0:0:
192,192,86692,128,2,86926:0:0:0:0:
448,192,86926,1,0,0:0:0:50:LR_Hat Synth.wav
64,192,87161,1,4,0:0:0:0:
192,192,87161,1,2,0:0:0:0:
320,192,87161,1,0,0:0:0:0:
448,192,87395,1,0,0:0:0:40:Tom3.wav
192,192,87512,1,8,0:0:0:0:
64,192,87629,1,8,0:0:0:0:
320,192,87629,1,2,0:0:0:0:
448,192,87746,1,0,0:0:0:50:Tom2.wav
64,192,87864,128,2,87981:0:0:0:0:
192,192,87864,128,0,87981:0:0:0:50:Tom3.wav
64,192,88098,128,2,89036:0:0:0:0:
320,192,88098,128,4,89036:0:0:0:0:
448,192,88098,128,0,89036:0:0:0:0:
