osu file format v14

[General]
AudioFilename: audio.mp3
AudioLeadIn: 0
PreviewTime: 9570
Countdown: 1
SampleSet: Normal
StackLeniency: 0.7
Mode: 0
LetterboxInBreaks: 0
WidescreenStoryboard: 0

[Editor]
Bookmarks: 53895
DistanceSpacing: 0.5
BeatDivisor: 4
GridSize: 4
TimelineZoom: 3.000005

[Metadata]
Title:do you forgive me
TitleUnicode:do you forgive me
Artist:Rotten Blood
ArtistUnicode:Rotten Blood
Creator:Critality
Version:i dont forgive you
Source:
Tags:
BeatmapID:1737659
BeatmapSetID:829387

[Difficulty]
HPDrainRate:4.2
CircleSize:6.3
OverallDifficulty:9.8
ApproachRate:10
SliderMultiplier:3
SliderTickRate:1

[Events]
//Background and Video events
0,0,"cc61dfb980c8b99543122860c46840ec.jpg",0,0
//Break Periods
//Storyboard Layer 0 (Background)
//Storyboard Layer 1 (Fail)
//Storyboard Layer 2 (Pass)
//Storyboard Layer 3 (Foreground)
//Storyboard Sound Samples

[TimingPoints]
-30,600,4,1,0,48,1,0
45570,-90.9090909090909,4,1,0,48,0,0
47970,300,4,1,0,48,1,0
47970,-50,4,1,0,48,0,0
48120,-100,4,1,0,48,0,0
48420,-25,4,1,0,48,0,0
48870,-58.8235294117647,4,1,0,48,0,0
49320,-76.9230769230769,4,1,0,48,0,0
52920,-25,4,1,0,48,0,0
53070,-66.6666666666667,4,1,0,48,0,0
55170,-33.3333333333333,4,1,0,48,0,0
56520,-50,4,1,0,48,0,0
56970,-25,4,1,0,48,0,0
57870,-50,4,1,0,48,0,0
58920,-25,4,1,0,48,0,0
62070,-38.4615384615385,4,1,0,48,0,0
63420,-25,4,1,0,48,0,0
67170,-33.3333333333333,4,1,0,48,0,0
67770,-25,4,1,0,48,0,0

[HitObjects]
164,119,8970,5,0,0:0:0:0:
93,253,9120,1,0,0:0:0:0:
299,290,9270,5,0,0:0:0:0:
165,219,9420,1,0,0:0:0:0:
442,127,9570,6,0,B|486:193|486:193|477:273,1,150
277,340,10170,2,0,B|243:268|243:268|263:189,1,150
385,269,10770,6,0,B|351:290|351:290|302:282,2,75
503,141,11370,1,0,0:0:0:0:
330,29,11970,6,0,B|374:95|374:95|365:175,1,150
165,242,12570,2,0,B|131:170|131:170|151:91,1,150
198,24,13020,1,0,0:0:0:0:
366,165,13170,6,0,B|410:231|410:231|401:311,1,150
218,326,13770,1,0,0:0:0:0:
60,110,14070,2,0,B|84:140|84:140|124:139,1,75
267,47,14370,6,0,B|265:132|265:132|300:203,1,150
411,344,14970,2,0,B|364:274|364:274|278:253,1,150
81,180,15570,2,0,B|151:210|151:210|227:184,1,150
402,94,16170,1,0,0:0:0:0:
240,19,16470,1,0,0:0:0:0:
92,144,16770,6,0,B|91:220|91:220|148:274,1,150
219,89,17370,2,0,B|272:139|272:139|271:215,1,150
92,144,17970,2,0,B|91:220|91:220|148:274,1,150
353,114,18570,5,0,0:0:0:0:
429,258,18720,1,0,0:0:0:0:
209,297,18870,5,0,0:0:0:0:
352,221,19020,1,0,0:0:0:0:
70,127,19170,6,0,B|26:193|26:193|35:273,1,150
235,340,19770,2,0,B|269:268|269:268|249:189,1,150
127,269,20370,6,0,B|161:290|161:290|210:282,2,75
9,141,20970,1,0,0:0:0:0:
215,197,21270,1,0,0:0:0:0:
182,29,21570,6,0,B|138:95|138:95|147:175,1,150
347,242,22170,2,0,B|381:170|381:170|361:91,1,150
314,24,22620,1,0,0:0:0:0:
146,165,22770,6,0,B|102:231|102:231|111:311,1,150
294,326,23370,1,0,0:0:0:0:
452,110,23670,2,0,B|428:140|428:140|388:139,1,75
245,47,23970,6,0,B|247:132|247:132|212:203,1,150
101,344,24570,2,0,B|148:274|148:274|234:253,1,150
431,180,25170,2,0,B|361:210|361:210|285:184,1,150
110,94,25770,1,0,0:0:0:0:
272,19,26070,1,0,0:0:0:0:
420,144,26370,6,0,B|421:220|421:220|364:274,1,150
293,89,26970,2,0,B|239:139|239:139|240:215,1,150
420,144,27570,2,0,B|421:220|421:220|364:274,1,150
132,94,28170,5,0,0:0:0:0:
35,276,28320,1,0,0:0:0:0:
315,326,28470,5,0,0:0:0:0:
133,229,28620,1,0,0:0:0:0:
232,60,28770,5,0,0:0:0:0:
291,180,28920,2,0,B|303:195|328:196|328:196|328:219|328:219|344:228,2,75
429,59,29370,5,0,0:0:0:0:
396,228,29520,2,0,B|383:248|356:262|356:262|373:297,2,75
258,371,29970,5,0,0:0:0:0:
171,190,30120,2,0,B|191:194|210:181|210:181|229:193|273:179,2,75
57,175,30570,5,0,0:0:0:0:
130,39,30720,6,0,B|107:63|107:63|105:77|104:77|95:77|95:77|94:96,2,75
251,133,31170,5,0,0:0:0:0:
330,42,31320,2,0,B|344:36|344:36|337:45|346:49|360:37|360:37|359:44|373:45|383:38|383:38|396:44,2,75
508,0,31770,5,0,0:0:0:0:
464,205,31920,2,0,B|415:205|415:205|431:205|431:205|428:190,2,75
341,255,32370,5,0,0:0:0:0:
402,370,32520,2,0,B|444:360|444:360|429:357|445:343|457:356,2,75
509,214,32970,5,0,0:0:0:0:
228,277,33120,2,0,P|207:274|153:240,2,75
215,348,33570,5,0,0:0:0:0:
185,145,33720,2,0,P|166:94|164:50,2,75
250,285,34170,5,0,0:0:0:0:
394,205,34320,2,0,B|365:215|365:215|350:212|341:226|341:226|324:224,2,75
233,244,34770,5,0,0:0:0:0:
86,69,34920,2,0,B|74:111|90:125|90:125|78:141,2,75
287,43,35370,5,0,0:0:0:0:
414,162,35520,2,0,B|431:188|431:188|416:206|416:206|433:219|433:219|429:228,2,75
307,221,35970,5,0,0:0:0:0:
149,123,36120,2,0,B|237:71|237:71|211:106,2,75
425,91,36570,5,0,0:0:0:0:
313,198,36720,1,0,0:0:0:0:
323,187,36870,1,0,0:0:0:0:
333,176,37020,1,0,0:0:0:0:
461,118,37170,5,0,0:0:0:0:
339,100,37320,1,0,0:0:0:0:
333,105,37395,1,0,0:0:0:0:
327,110,37470,1,0,0:0:0:0:
321,115,37545,1,0,0:0:0:0:
302,133,37620,1,0,0:0:0:0:
282,150,37695,1,0,0:0:0:0:
263,168,37770,5,0,0:0:0:0:
432,35,37920,1,0,0:0:0:0:
482,315,38070,5,0,0:0:0:0:
385,133,38220,1,0,0:0:0:0:
298,285,38370,5,0,0:0:0:0:
76,282,38520,1,0,0:0:0:0:
70,319,38670,1,0,0:0:0:0:
63,355,38820,1,0,0:0:0:0:
214,119,38970,5,0,0:0:0:0:
90,56,39120,1,0,0:0:0:0:
64,83,39270,1,0,0:0:0:0:
41,112,39420,1,0,0:0:0:0:
214,99,39570,5,0,0:0:0:0:
383,76,39720,1,0,0:0:0:0:
419,84,39870,1,0,0:0:0:0:
455,92,40020,1,0,0:0:0:0:
298,265,40170,5,0,0:0:0:0:
121,365,40320,1,0,0:0:0:0:
111,328,40470,1,0,0:0:0:0:
102,291,40620,1,0,0:0:0:0:
276,207,40770,5,0,0:0:0:0:
431,271,40920,1,0,0:0:0:0:
463,289,41070,1,0,0:0:0:0:
494,308,41220,1,0,0:0:0:0:
298,265,41370,5,0,0:0:0:0:
409,48,41520,1,0,0:0:0:0:
410,85,41670,1,0,0:0:0:0:
411,122,41820,1,0,0:0:0:0:
214,99,41970,5,0,0:0:0:0:
65,182,42120,1,0,0:0:0:0:
41,211,42270,1,0,0:0:0:0:
14,237,42420,1,0,0:0:0:0:
214,119,42570,5,0,0:0:0:0:
129,308,42720,1,0,0:0:0:0:
92,300,42870,1,0,0:0:0:0:
55,292,43020,1,0,0:0:0:0:
144,240,43170,5,0,0:0:0:0:
108,129,43320,1,0,0:0:0:0:
101,115,43470,1,0,0:0:0:0:
94,101,43620,1,0,0:0:0:0:
130,272,43770,5,0,0:0:0:0:
166,161,43920,1,0,0:0:0:0:
173,147,44070,1,0,0:0:0:0:
180,133,44220,1,0,0:0:0:0:
236,190,44370,5,0,0:0:0:0:
230,178,44520,1,0,0:0:0:0:
223,164,44670,1,0,0:0:0:0:
216,150,44820,1,0,0:0:0:0:
236,314,44970,5,0,0:0:0:0:
272,203,45120,1,0,0:0:0:0:
279,189,45270,1,0,0:0:0:0:
286,175,45420,1,0,0:0:0:0:
147,184,45570,6,0,B|141:186|141:186|131:180|131:180|106:186|88:214|88:214|86:223|94:226|94:226|94:234|90:237|90:237|102:244|117:247|137:240|138:240|146:271|146:273|112:308|109:305|110:307|110:307|80:300|80:299|68:307|71:307|148:303|148:302|170:273|170:273|201:275|207:280|164:286|163:287|164:329|164:329|183:351|205:341|205:341|213:327|215:321|215:321|216:306|216:306|216:293|216:293|198:278|198:278|243:297|255:277|269:285|269:285|257:277|239:276|239:276|241:291|247:293|244:301|241:348|241:348|282:342|282:342|308:350|303:313|302:300|302:300|330:290|330:290|304:281|304:281|302:276|302:276|302:316|306:339|315:339|315:339|329:337|347:341|347:341|371:296|371:296|346:343|382:353|411:311|411:311|364:375|364:375|387:397|390:387|405:420|400:438|400:438|409:487,1,1320.0000402832
430,359,47970,6,0,B|436:346|392:317|392:317|411:266|423:250|410:240|410:240|423:211,1,150
512,144,48120,2,0,B|469:192|469:192|452:181,1,75
318,108,48270,2,0,B|280:111|254:117|254:117|247:127,1,75
143,195,48420,2,0,P|128:168|173:194,1,150
144,226,48495,2,0,P|117:241|143:196,1,150
177,241,48570,5,0,0:0:0:0:
221,234,48645,1,0,0:0:0:0:
256,204,48720,1,0,0:0:0:0:
269,161,48795,1,0,0:0:0:0:
264,115,48870,6,0,P|266:100|359:59,1,127.50000243187
421,167,49020,6,0,B|421:201|391:220|391:220|358:237|326:223|326:223|327:224|327:224|326:223|326:223|327:224|327:224|326:223|326:223|327:224|327:224|326:223|326:223|327:224|327:224|326:223|326:223|327:224|327:224|326:223|326:223|327:224|327:224|326:223|326:223|327:224|327:224|326:223|326:223|327:224|327:224|326:223|326:223|327:224|327:224|326:223|326:223|327:224|327:224|326:223|326:223|327:224|327:224|326:223|326:223|327:224|327:224|326:223|326:223|327:224|327:224|326:223|326:223|327:224|327:224|326:223|326:223|327:224|327:224|326:223|326:223|327:224|327:224|326:223|326:223|327:224|327:224|326:223|326:223|327:224|327:224|326:223|326:223|327:224|327:224|326:223|326:223|327:224|327:224|326:223|326:223|327:224|327:224|326:223|326:223|327:224|327:224|326:223|326:223|327:224|327:224|326:223|326:223|327:224|327:224|326:223|326:223|327:224|327:224|326:223|326:223|327:224|327:224|326:223|326:223|327:224|327:224|326:223|326:223|327:224|327:224|326:223|326:223|327:224|327:224|326:223|326:223|327:224|327:224|326:223|326:223|327:224|327:224|326:223|326:223|327:224|327:224|326:223|326:223|327:224|327:224|326:223|326:223|327:224|327:224|326:223|326:223|327:224|327:224|326:223|326:223|327:224|327:224|326:223|326:223|327:224|327:224|326:223|326:223|327:224|327:224|326:223|326:223|327:224|327:224|326:223|326:223|327:224|327:224|326:223|326:223|327:224|327:224|326:223|326:223|327:224|327:224|326:223|326:223|327:224|327:224|326:223|326:223|327:224|327:224|326:223|326:223|327:224|327:224|326:223|326:223|327:224|327:224|326:223|326:223|327:224|327:224|326:223|326:223|327:224|327:224|326:223|326:223|327:224|327:224|326:223|326:223|327:224|327:224|326:223|326:223|327:224|327:224|326:223|326:223|327:224|327:224|326:223|326:223|327:224|327:224|326:223|326:223|327:224|327:224|326:223|326:223|327:224|327:224|326:223|326:223|327:224|327:224|326:223|326:223|327:224|327:224|326:223|326:223|327:224|327:224|326:223|326:223|327:224|327:224|326:223|326:223|327:224|327:224|326:223|326:223|327:224|327:224|326:223|326:223|327:224|327:224|326:223|326:223|327:224|327:224|326:223|326:223|327:224|327:224|326:223|326:223|327:224|327:224|326:223|326:223|327:224|327:224|326:223|326:223|327:224|327:224|326:223|326:223|327:224|327:224|326:223|326:223|327:224|327:224|326:223|326:223|327:224|327:224|326:223|326:223|327:224|327:224|326:223|326:223|327:224|327:224|326:223|326:223|327:224|327:224|326:223|326:223|327:224|327:224|326:223|326:223|327:224|327:224|326:223|326:223|327:224|327:224|326:223|326:223|327:224|327:224|326:223|326:223|327:224|327:224|326:223|326:223|327:224|327:224|326:223|326:223|327:224|327:224|326:223|326:223|327:224|327:224|326:223|326:223|327:224|327:224|326:223|326:223|327:224|327:224|326:223|326:223|327:224|327:224|326:223|326:223|327:224|327:224|326:223|326:223|327:224|327:224|326:223|326:223|327:224|327:224|326:223|326:223|327:224|327:224|326:223|326:223|327:224|327:224|326:223|326:223|327:224|327:224|326:223|326:223|327:224|327:224|326:223|326:223|327:224|327:224|326:223|326:223|327:224|327:224|326:223|326:223|327:224|327:224|326:223|326:223|327:224|327:224|326:223|326:223|327:224|327:224|326:223|326:223|327:224|327:224|326:223|326:223|327:224|327:224|326:223|326:223|327:224|327:224|326:223|326:223|327:224|327:224|326:223|326:223|327:224|327:224|326:223|326:223|327:224|327:224|326:223|326:223|327:224|327:224|326:223|326:223|327:224|327:224|326:223|326:223|327:224|327:224|326:223|326:223|327:224|327:224|326:223,1,382.500007295609
357,169,49320,6,0,B|312:141|312:141|302:143|302:143|256:135,1,97.4999955368044
58,222,49470,1,0,0:0:0:0:
105,214,49545,1,0,0:0:0:0:
136,175,49620,1,0,0:0:0:0:
183,170,49695,1,0,0:0:0:0:
236,167,49770,5,0,0:0:0:0:
307,174,49845,1,0,0:0:0:0:
355,234,49920,1,0,0:0:0:0:
427,246,49995,1,0,0:0:0:0:
431,305,50070,5,0,0:0:0:0:
359,317,50145,1,0,0:0:0:0:
311,377,50220,1,0,0:0:0:0:
240,384,50295,1,0,0:0:0:0:
146,348,50370,6,0,B|178:335|193:317|193:317|178:314|178:314|207:277|202:246|202:246|217:241|217:241|215:222|203:206,1,194.999991073609
71,212,50595,1,0,0:0:0:0:
113,80,50670,2,0,B|178:59|178:59|205:84|239:85|239:85|279:162,1,194.999991073609
270,312,50895,1,0,0:0:0:0:
206,210,50970,2,0,B|164:192|164:192|164:196|164:196|132:183|132:183|141:182|141:182|94:173,1,97.4999955368044
165,119,51120,1,0,0:0:0:0:
173,123,51195,1,0,0:0:0:0:
181,128,51270,5,0,0:0:0:0:
221,143,51345,1,0,0:0:0:0:
203,194,51420,1,0,0:0:0:0:
247,245,51495,1,0,0:0:0:0:
299,300,51570,6,0,B|298:260|298:260|312:240|312:240|317:206,1,97.4999955368044
418,77,51720,2,0,B|419:117|419:117|405:137|405:137|400:171,1,97.4999955368044
361,347,51870,2,0,B|354:327|317:306|317:306|316:314|316:314|293:315,1,48.7499977684022
90,341,52020,5,0,0:0:0:0:
171,302,52095,1,0,0:0:0:0:
228,229,52170,2,0,B|239:187|239:187|257:180|250:127,1,97.4999955368044
55,188,52320,2,0,B|86:186|106:167|106:167|117:186|139:162|160:174,1,97.4999955368044
120,319,52470,6,0,B|160:286|160:286|187:304|187:304|234:301|246:266,1,146.249993305207
280,176,52620,1,0,0:0:0:0:
316,303,52695,1,0,0:0:0:0:
280,176,52770,2,0,B|308:194|308:194|327:185|327:185|337:197|369:190|369:190|409:186|440:232,1,146.249993305207
446,243,52920,6,0,B|437:224|437:224|450:211|440:170|397:156|397:156|354:125|354:125|405:131|405:131|396:114|396:114|382:120|382:120|406:118|406:118|384:77|330:131|269:130|286:79|286:79|291:105|291:105|236:57|236:57|223:81|223:81|248:79|248:79,1,450
262,19,53070,6,0,B|233:32|220:74|220:74|217:65|217:65|190:88|190:88,1,112.500004291535
125,251,53220,1,0,0:0:0:0:
41,195,53295,1,0,0:0:0:0:
106,107,53370,2,0,B|134:69|195:84|195:84|198:131|213:136|213:136,1,112.500004291535
183,319,53520,6,0,B|198:247|198:247|200:265|189:259|202:213,1,112.500004291535
204,30,53670,6,0,B|189:102|189:102|187:84|187:84|198:90|198:90|185:136,1,112.500004291535
183,319,53895,6,0,B|202:280|202:280|191:273|191:273|198:260|198:260,1,56.2500021457673
136,277,53970,1,0,0:0:0:0:
283,164,54120,1,0,0:0:0:0:
219,20,54195,1,0,0:0:0:0:
211,174,54270,1,0,0:0:0:0:
329,319,54420,6,0,B|314:247|314:247|312:265|323:259|310:213,1,112.500004291535
234,38,54570,6,0,B|249:110|249:110|251:92|251:92|240:98|240:98|253:144,1,112.500004291535
259,325,54720,1,0,0:0:0:0:
200,347,54795,6,0,B|181:308|181:308|192:301|192:301|185:288|185:288,1,56.2500021457673
39,340,54945,2,0,B|61:321|61:321|69:276|69:276|114:274,2,112.500004291535
39,340,55170,2,0,P|219:105|78:366,1,787.500030040742
142,230,55470,5,0,0:0:0:0:
39,340,55620,5,0,0:0:0:0:
17,315,55695,1,0,0:0:0:0:
57,287,55770,1,0,0:0:0:0:
28,256,55845,1,0,0:0:0:0:
0,221,55920,1,0,0:0:0:0:
47,193,55995,1,0,0:0:0:0:
9,159,56070,1,0,0:0:0:0:
28,132,56145,1,0,0:0:0:0:
52,110,56220,6,0,B|86:84|131:82|131:82|86:84|52:111,7,112.500004291535
109,139,56520,6,0,B|149:136|149:136|155:119|185:125|185:125|168:153|193:171|210:132|210:132|254:123,1,150
304,32,56670,1,0,0:0:0:0:
406,93,56820,6,0,B|384:126|384:126|366:124|357:153|357:153|390:151|394:182|352:178|352:178|323:213,1,150
220,215,56970,6,0,B|193:221|193:221|169:225|169:225|169:198|169:198|139:201|139:201|140:167,15,75
113,211,57270,6,0,P|127:246|158:193,14,75
145,310,57570,6,0,P|10:46|253:313,1,1125
206,311,57870,2,0,B|188:287|188:287|148:279|144:309|144:309|143:263|143:263|180:261|180:261|186:215,1,187.5
265,8,58020,2,0,B|283:32|283:32|323:40|327:10|327:10|328:56|328:56|290:60|290:60|285:104,1,187.5
126,142,58170,5,0,0:0:0:0:
304,249,58320,1,0,0:0:0:0:
126,142,58470,1,0,0:0:0:0:
160,269,58620,6,0,B|168:270|168:270|162:269|162:269|176:271|176:271|165:269|165:269|180:272|180:272|171:270|171:270|185:273|185:273|176:272|176:272|191:274|191:274|178:272|178:272|198:276|198:276|187:274|187:274|207:277|207:277|192:275|192:275|214:280|214:280|201:278|201:278|219:282|219:282|208:279|208:279|225:284|225:284|218:282|218:282|221:300|221:300|221:284|221:284|233:286|233:286|229:286|229:286|237:287|237:287|232:285|232:285|243:289|243:289|234:288|234:288|258:279|258:279|243:291|243:291|253:294|253:294|246:293|246:293|258:295|258:295|251:295|251:295|260:309|260:309|259:295|259:295|272:285|272:285|263:298|263:298|277:300|277:300|270:299|270:299|288:301|288:301|280:301|280:301|307:304,1,525
303,354,58920,6,0,B|316:304|316:304|324:321|324:321|345:336|393:277|383:250|383:250|277:224|277:224|283:207,2,300
303,354,59107,5,0,0:0:0:0:
303,354,59145,1,0,0:0:0:0:
303,354,59220,1,0,0:0:0:0:
271,362,59295,1,0,0:0:0:0:
238,346,59370,5,0,0:0:0:0:
391,206,59482,1,0,0:0:0:0:
222,208,59670,5,0,0:0:0:0:
150,232,59745,1,0,0:0:0:0:
146,295,59820,1,0,0:0:0:0:
146,295,59895,1,0,0:0:0:0:
275,338,59970,6,0,B|231:351|231:351|230:323|230:323|167:313,10,100
328,369,60270,6,0,B|360:379|360:379|356:396|356:396|384:383|376:401|268:410|268:410|324:400|400:442|401:442|478:409|478:409|460:342|460:342|368:321|368:321|347:292|272:262,1,600
204,318,60495,1,0,0:0:0:0:
189,181,60570,5,0,0:0:0:0:
406,248,60720,1,0,0:0:0:0:
353,46,60870,1,0,0:0:0:0:
353,46,61020,1,0,0:0:0:0:
259,82,61170,5,0,0:0:0:0:
184,125,61245,1,0,0:0:0:0:
217,214,61320,1,0,0:0:0:0:
180,304,61395,1,0,0:0:0:0:
87,249,61470,5,0,0:0:0:0:
205,35,61620,5,0,0:0:0:0:
95,25,61695,1,0,0:0:0:0:
61,125,61770,1,0,0:0:0:0:
125,198,61845,1,0,0:0:0:0:
152,291,61920,2,0,B|265:234|265:234|223:226|221:316|252:285|252:285|264:316|301:273|301:273|344:293|352:252,1,300
418,306,62070,6,0,B|370:263|362:202|362:202|357:231|357:231|345:178|345:178|339:196|339:196|329:172|329:172|292:160|292:160|320:183|320:183|282:157|258:163,1,389.999982147218
116,214,62295,1,0,0:0:0:0:
266,22,62370,6,0,P|301:247|387:150,1,389.999982147218
386,118,62595,1,0,0:0:0:0:
263,82,62670,6,0,L|32:112,1,194.999991073609
71,195,62820,2,0,L|297:185,1,194.999991073609
285,262,62970,2,0,L|81:282,1,194.999991073609
115,362,63120,2,0,L|327:313,1,194.999991073609
422,292,63270,1,0,0:0:0:0:
348,65,63345,1,0,0:0:0:0:
470,116,63420,6,0,B|393:141|393:141|426:131|426:131|389:152|389:152|411:135|411:135|368:153|368:153|388:144|388:144|334:156|334:156|361:150|361:150|294:160,1,300
137,168,63570,6,0,B|208:155|208:155|168:157|168:157|107:79|107:79|119:102|119:102|189:27|294:58|294:58|258:45|258:45|274:97|274:97|291:72|291:72|247:215|372:229|372:229|294:210|294:210,1,600
274,220,63795,1,0,0:0:0:0:
430,324,63870,6,0,B|423:301|423:301|357:303|357:303|387:289|387:289|383:312|383:312|355:293,1,150
350,347,63945,2,0,B|345:263|345:263|323:292|323:292|307:281|307:281|270:303,1,150
271,345,64020,2,0,B|287:320|287:320|276:332|276:332|262:318|262:318|256:331|256:331|242:308|242:308|236:321|236:321|220:293|220:293|219:294,1,150
176,350,64095,2,0,B|172:296|172:296|164:310|164:309|183:309|183:309|121:240,1,150
29,163,64170,6,0,P|201:242|383:117,1,300
386,99,64320,2,0,B|334:237|193:243|193:243|190:185,1,300
184,94,64470,6,0,B|210:105|210:105|219:93|219:93|234:101|234:100|243:86,15,75
229,143,64770,2,0,L|257:251,1,75
264,341,65070,6,0,L|247:152,1,150
109,309,65220,2,0,L|194:176,1,150
268,63,65295,1,0,0:0:0:0:
396,26,65370,1,0,0:0:0:0:
403,24,65520,1,0,0:0:0:0:
412,26,65670,1,0,0:0:0:0:
426,29,65820,1,0,0:0:0:0:
445,41,65970,5,0,0:0:0:0:
270,90,66045,1,0,0:0:0:0:
267,283,66120,1,0,0:0:0:0:
395,85,66270,2,0,B|385:108|385:108|408:129|408:129|380:172,8,75
369,327,66570,1,0,0:0:0:0:
347,201,66663,1,0,0:0:0:0:
285,312,66738,1,0,0:0:0:0:
277,42,66870,2,0,B|354:144|354:144|276:122|276:122|308:117|308:117|246:96|246:96|327:148|327:148|289:126|289:126|291:156|291:156|323:138|323:138|306:151|282:202|282:202|278:258|278:258|278:257,1,600
85,45,67170,6,0,B|86:74|86:74|102:89|102:89|105:129|105:129|77:149|78:156|110:199|94:216|94:216|111:257|181:237,1,225.000008583069
239,293,67320,2,0,B|256:312|320:305|298:251|263:266|263:266|232:231|232:231|254:215|254:215|260:162,1,225.000008583069
302,61,67470,6,0,B|291:39|291:39|316:39|316:39|262:34|262:34|375:10|410:113,1,225.000008583069
417,316,67620,2,0,B|412:299|412:299|442:300|442:299|431:314|431:314|380:207|380:207|399:218|399:218|324:232,1,225.000008583069
35,360,67770,2,0,B|52:339|52:339|57:279|57:279|44:263|26:229|26:229|35:234|35:234|33:233|88:235|88:235|40:226|40:226|38:220|21:260|25:207|-106:144|14:239|19:228|22:217|22:217|17:226|17:226|27:218|27:218|20:226|28:223|33:221|33:221|16:222|16:222|44:212|44:212|58:177|58:177|124:196|123:208|114:132|114:132|151:181|151:181|107:219|157:297|157:297|170:219|155:247|188:257|188:324|244:300|244:297|244:293|223:218|223:218|273:239|307:222|307:222|315:320|385:345|385:345,1,1200
