osu file format v14

[General]
AudioFilename: audio.mp3
AudioLeadIn: 0
PreviewTime: 63353
Countdown: 1
SampleSet: Normal
StackLeniency: 0.7
Mode: 1
LetterboxInBreaks: 0
WidescreenStoryboard: 1

[Editor]
Bookmarks: 34115
DistanceSpacing: 0.3
BeatDivisor: 6
GridSize: 16
TimelineZoom: 2.2

[Metadata]
Title:ZX Spectrum
TitleUnicode:ZX Spectrum
Artist:Rotten Blood
ArtistUnicode:Rotten Blood
Creator:Skymin
Version:Muzukashii
Source:
Tags:
BeatmapID:1587377
BeatmapSetID:753465

[Difficulty]
HPDrainRate:5
CircleSize:4
OverallDifficulty:4.5
ApproachRate:8
SliderMultiplier:1.2
SliderTickRate:1

[Events]
//Background and Video events
0,0,"colorful_paint_splatter-wallpaper-3554x1999.jpg",0,0
//Break Periods
2,40178,47228
2,79553,86978
//Storyboard Layer 0 (Background)
//Storyboard Layer 1 (Fail)
//Storyboard Layer 2 (Pass)
//Storyboard Layer 3 (Foreground)
//Storyboard Sound Samples

[TimingPoints]
978,250,4,1,0,100,1,0
63978,-95.2380952380952,4,1,0,100,0,1
65728,-95.2380952380952,4,1,0,100,0,0
65978,-95.2380952380952,4,1,0,100,0,1
67728,-95.2380952380952,4,1,0,100,0,0
67978,-95.2380952380952,4,1,0,100,0,1
69478,-95.2380952380952,4,1,0,100,0,0
69978,-95.2380952380952,4,1,0,100,0,1
70228,-95.2380952380952,4,1,0,100,0,0
70353,-95.2380952380952,4,1,0,100,0,1
70603,-95.2380952380952,4,1,0,100,0,0
70728,-95.2380952380952,4,1,0,100,0,1
70978,-95.2380952380952,4,1,0,100,0,0
71978,-95.2380952380952,4,1,0,100,0,1
73728,-95.2380952380952,4,1,0,100,0,0
73978,-95.2380952380952,4,1,0,100,0,1
75728,-95.2380952380952,4,1,0,100,0,0
75978,-95.2380952380952,4,1,0,100,0,1
77728,-95.2380952380952,4,1,0,100,0,0
77978,-95.2380952380952,4,1,0,100,0,1
78228,-95.2380952380952,4,1,0,100,0,0
78353,-95.2380952380952,4,1,0,100,0,1
78603,-95.2380952380952,4,1,0,100,0,0
78728,-95.2380952380952,4,1,0,100,0,1
78978,-95.2380952380952,4,1,0,100,0,0
87728,-769.230769230769,4,1,0,100,0,1
87978,-100,4,1,0,100,0,0
103103,-100,4,1,0,100,0,0
103228,-100,4,1,0,100,0,0
111728,-100,4,1,0,100,0,0
111978,-100,4,1,0,100,0,0
113978,-100,4,1,0,100,0,0
119978,-100,4,1,0,100,0,0
121978,-100,4,1,0,100,0,0
135978,-100,4,1,0,100,0,0

[HitObjects]
112,143,23978,5,0,0:0:0:0:
112,143,24228,1,2,0:0:0:0:
112,143,24353,1,2,0:0:0:0:
112,143,24603,1,0,0:0:0:0:
112,143,24728,1,0,0:0:0:0:
112,143,24853,1,0,0:0:0:0:
112,143,24978,1,0,0:0:0:0:
112,143,25728,1,0,0:0:0:0:
112,143,25853,1,0,0:0:0:0:
112,143,25978,1,2,0:0:0:0:
106,141,26228,1,0,0:0:0:0:
106,141,26478,1,2,0:0:0:0:
112,143,26603,1,0,0:0:0:0:
112,143,26728,1,2,0:0:0:0:
112,143,26978,1,2,0:0:0:0:
115,134,27228,1,0,0:0:0:0:
115,134,27353,1,0,0:0:0:0:
116,134,27478,1,0,0:0:0:0:
116,134,27728,1,2,0:0:0:0:
113,132,27978,1,4,0:0:0:0:
115,134,28228,1,4,0:0:0:0:
116,134,28478,1,0,0:0:0:0:
116,134,28728,1,0,0:0:0:0:
113,132,28853,1,0,0:0:0:0:
113,132,28978,1,0,0:0:0:0:
115,134,29228,1,2,0:0:0:0:
116,134,29353,1,2,0:0:0:0:
116,134,29478,1,2,0:0:0:0:
116,134,29728,1,2,0:0:0:0:
113,132,29978,1,0,0:0:0:0:
115,134,30228,1,2,0:0:0:0:
116,134,30728,1,2,0:0:0:0:
116,134,31728,1,0,0:0:0:0:
116,134,31978,1,2,0:0:0:0:
116,134,32228,1,2,0:0:0:0:
116,134,32478,1,0,0:0:0:0:
116,134,32603,1,0,0:0:0:0:
116,134,32728,1,0,0:0:0:0:
116,134,32978,1,0,0:0:0:0:
116,134,33228,1,0,0:0:0:0:
136,137,33728,1,2,0:0:0:0:
93,160,33978,1,2,0:0:0:0:
144,144,34103,1,2,0:0:0:0:
144,160,34228,1,2,0:0:0:0:
144,160,34478,1,0,0:0:0:0:
144,160,34728,1,0,0:0:0:0:
128,160,34978,1,2,0:0:0:0:
144,144,35228,1,2,0:0:0:0:
144,144,35478,1,2,0:0:0:0:
144,144,35728,1,6,0:0:0:0:
148,145,35978,1,0,0:0:0:0:
144,144,36228,1,0,0:0:0:0:
144,144,36478,1,2,0:0:0:0:
149,148,36603,1,2,0:0:0:0:
144,144,36728,1,2,0:0:0:0:
148,145,36978,1,2,0:0:0:0:
149,146,37103,1,2,0:0:0:0:
149,146,37228,1,2,0:0:0:0:
149,146,37478,1,2,0:0:0:0:
149,146,37728,1,0,0:0:0:0:
256,192,37978,12,0,39228,0:0:0:0:
258,191,39478,5,0,0:0:0:0:
258,191,39603,5,2,0:0:0:0:
258,191,39728,1,2,0:0:0:0:
258,191,39853,1,0,0:0:0:0:
258,191,39978,1,2,0:0:0:0:
69,90,47978,5,0,0:0:0:0:
69,90,48228,1,2,0:0:0:0:
69,90,48353,1,2,0:0:0:0:
69,90,48478,1,0,0:0:0:0:
69,90,48728,1,0,0:0:0:0:
69,90,48853,1,0,0:0:0:0:
69,90,48978,1,0,0:0:0:0:
69,90,49228,1,0,0:0:0:0:
69,90,49478,1,2,0:0:0:0:
69,90,49728,1,0,0:0:0:0:
69,90,49978,1,2,0:0:0:0:
69,90,50228,1,0,0:0:0:0:
69,90,50353,1,0,0:0:0:0:
69,90,50478,1,0,0:0:0:0:
69,90,50728,1,2,0:0:0:0:
69,90,50853,1,2,0:0:0:0:
69,90,50978,1,0,0:0:0:0:
69,90,51228,1,0,0:0:0:0:
69,90,51478,1,2,0:0:0:0:
69,90,51728,1,2,0:0:0:0:
69,90,51978,1,0,0:0:0:0:
69,90,52228,1,2,0:0:0:0:
69,90,52353,1,2,0:0:0:0:
69,90,52478,1,2,0:0:0:0:
69,90,52728,1,0,0:0:0:0:
69,90,52853,1,0,0:0:0:0:
69,90,52978,1,0,0:0:0:0:
75,92,53228,1,2,0:0:0:0:
75,92,53478,1,0,0:0:0:0:
75,92,53728,1,2,0:0:0:0:
75,92,53978,1,2,0:0:0:0:
75,92,54103,1,2,0:0:0:0:
75,92,54353,1,2,0:0:0:0:
75,92,54603,1,2,0:0:0:0:
75,92,54853,1,2,0:0:0:0:
75,92,54978,1,2,0:0:0:0:
75,92,55103,1,0,0:0:0:0:
75,92,55228,1,0,0:0:0:0:
75,92,55478,1,0,0:0:0:0:
75,92,55603,1,0,0:0:0:0:
75,92,55728,1,0,0:0:0:0:
75,92,55978,1,0,0:0:0:0:
81,91,56228,1,2,0:0:0:0:
75,92,56353,1,2,0:0:0:0:
80,88,56478,1,2,0:0:0:0:
81,89,56728,1,0,0:0:0:0:
81,89,56853,1,0,0:0:0:0:
81,89,56978,1,0,0:0:0:0:
81,91,57228,1,0,0:0:0:0:
80,88,57478,1,2,0:0:0:0:
81,89,57728,1,2,0:0:0:0:
81,89,57978,1,0,0:0:0:0:
81,91,58228,1,2,0:0:0:0:
80,88,58353,1,2,0:0:0:0:
80,88,58478,1,2,0:0:0:0:
81,89,58728,1,0,0:0:0:0:
81,89,58853,1,0,0:0:0:0:
81,89,58978,1,0,0:0:0:0:
81,91,59228,1,2,0:0:0:0:
83,92,59478,1,2,0:0:0:0:
81,89,59728,1,2,0:0:0:0:
81,89,59978,1,2,0:0:0:0:
74,81,60228,1,0,0:0:0:0:
74,81,60353,1,0,0:0:0:0:
74,81,60478,1,2,0:0:0:0:
74,81,60728,1,2,0:0:0:0:
74,81,60853,1,2,0:0:0:0:
74,81,60978,1,0,0:0:0:0:
74,81,61228,1,0,0:0:0:0:
81,84,61478,1,2,0:0:0:0:
81,86,61728,1,0,0:0:0:0:
85,87,61853,1,0,0:0:0:0:
86,90,61978,1,0,0:0:0:0:
86,90,62103,1,0,0:0:0:0:
95,109,62353,1,0,0:0:0:0:
87,88,62603,1,2,0:0:0:0:
90,95,62853,1,0,0:0:0:0:
86,90,62978,1,0,0:0:0:0:
100,91,63165,1,2,0:0:0:0:
90,94,63353,1,2,0:0:0:0:
90,94,63478,1,2,0:0:0:0:
90,94,63603,1,2,0:0:0:0:
90,95,63728,1,2,0:0:0:0:
90,95,63853,1,2,0:0:0:0:
90,96,63978,1,6,0:0:0:0:
90,94,64353,1,0,0:0:0:0:
90,94,64478,1,2,0:0:0:0:
90,94,64603,1,2,0:0:0:0:
96,98,64728,1,2,0:0:0:0:
96,98,64853,1,2,0:0:0:0:
97,98,64978,1,4,0:0:0:0:
98,95,65353,1,2,0:0:0:0:
97,95,65478,1,2,0:0:0:0:
97,95,65603,1,2,0:0:0:0:
96,98,65728,1,0,0:0:0:0:
96,98,65853,1,0,0:0:0:0:
100,93,65978,1,6,0:0:0:0:
97,95,66478,1,2,0:0:0:0:
97,95,66603,1,2,0:0:0:0:
96,98,66728,1,2,0:0:0:0:
96,98,66853,1,6,0:0:0:0:
97,95,67103,1,6,0:0:0:0:
97,95,67353,1,6,0:0:0:0:
97,95,67603,1,6,0:0:0:0:
96,98,67853,1,0,0:0:0:0:
97,95,67978,1,4,0:0:0:0:
96,98,68728,1,0,0:0:0:0:
96,98,68853,1,0,0:0:0:0:
96,98,69228,1,2,0:0:0:0:
96,98,69353,1,2,0:0:0:0:
96,98,69478,1,2,0:0:0:0:
96,98,69728,1,0,0:0:0:0:
96,98,69853,1,0,0:0:0:0:
96,98,69978,1,4,0:0:0:0:
96,98,70353,1,4,0:0:0:0:
94,103,70728,1,4,0:0:0:0:
96,98,70978,1,2,0:0:0:0:
96,98,71103,1,2,0:0:0:0:
81,89,71353,2,0,L|345:98,1,251.999992309571
64,110,71978,1,6,0:0:0:0:
64,110,72228,1,0,0:0:0:0:
64,110,72353,1,0,0:0:0:0:
64,110,72478,1,0,0:0:0:0:
64,110,72665,1,0,0:0:0:0:
67,104,72853,1,0,0:0:0:0:
75,104,72978,1,2,0:0:0:0:
76,104,73228,1,2,0:0:0:0:
76,104,73353,1,2,0:0:0:0:
76,104,73478,1,2,0:0:0:0:
81,103,73603,1,2,0:0:0:0:
82,106,73853,1,0,0:0:0:0:
81,107,73978,1,4,0:0:0:0:
77,109,74228,1,2,0:0:0:0:
76,104,74353,1,2,0:0:0:0:
76,104,74478,1,0,0:0:0:0:
81,103,74603,1,0,0:0:0:0:
82,106,74728,1,2,0:0:0:0:
82,106,74853,1,2,0:0:0:0:
81,107,74978,1,0,0:0:0:0:
77,109,75228,1,2,0:0:0:0:
81,106,75353,1,2,0:0:0:0:
81,106,75478,1,0,0:0:0:0:
81,103,75603,1,0,0:0:0:0:
82,106,75728,1,2,0:0:0:0:
82,106,75853,1,2,0:0:0:0:
81,107,75978,1,6,0:0:0:0:
81,106,76478,1,2,0:0:0:0:
78,111,76728,1,2,0:0:0:0:
78,113,76978,1,2,0:0:0:0:
78,111,77103,1,2,0:0:0:0:
77,112,77228,1,2,0:0:0:0:
77,112,77353,1,2,0:0:0:0:
77,112,77478,1,2,0:0:0:0:
78,111,77603,1,2,0:0:0:0:
78,111,77728,1,0,0:0:0:0:
78,113,77853,1,0,0:0:0:0:
78,113,77978,1,4,0:0:0:0:
71,109,78353,1,4,0:0:0:0:
84,118,78728,1,4,0:0:0:0:
85,118,78978,1,0,0:0:0:0:
80,118,79103,1,0,0:0:0:0:
86,118,79228,1,0,0:0:0:0:
84,118,79353,1,0,0:0:0:0:
169,140,87728,5,0,0:0:0:0:
169,140,87978,1,4,0:0:0:0:
169,140,88228,1,0,0:0:0:0:
169,140,88353,1,0,0:0:0:0:
169,140,88478,1,0,0:0:0:0:
169,140,88728,1,2,0:0:0:0:
169,140,88978,1,0,0:0:0:0:
169,140,89228,1,2,0:0:0:0:
162,137,89415,1,0,0:0:0:0:
161,137,89603,1,0,0:0:0:0:
169,140,89728,1,0,0:0:0:0:
169,140,89853,1,0,0:0:0:0:
171,145,89978,1,0,0:0:0:0:
169,147,90228,1,2,0:0:0:0:
168,148,90353,1,2,0:0:0:0:
168,147,90478,1,2,0:0:0:0:
169,147,90603,1,2,0:0:0:0:
171,147,90790,1,0,0:0:0:0:
169,147,91040,1,0,0:0:0:0:
175,151,91228,1,0,0:0:0:0:
168,148,91353,1,0,0:0:0:0:
168,147,91478,1,0,0:0:0:0:
171,147,91728,5,2,0:0:0:0:
169,147,91853,1,2,0:0:0:0:
169,147,91978,1,2,0:0:0:0:
169,147,92103,1,2,0:0:0:0:
175,151,92228,1,2,0:0:0:0:
168,147,92478,1,0,0:0:0:0:
171,147,92603,1,2,0:0:0:0:
171,147,92728,1,0,0:0:0:0:
169,147,92853,1,2,0:0:0:0:
169,147,93103,1,0,0:0:0:0:
175,151,93228,1,0,0:0:0:0:
173,147,93478,1,2,0:0:0:0:
171,147,93665,1,2,0:0:0:0:
169,147,93853,1,2,0:0:0:0:
169,147,93978,1,0,0:0:0:0:
169,151,94228,1,0,0:0:0:0:
168,152,94353,1,0,0:0:0:0:
167,150,94478,1,0,0:0:0:0:
171,147,94603,1,2,0:0:0:0:
169,147,94728,1,0,0:0:0:0:
169,147,94978,1,2,0:0:0:0:
169,151,95103,1,2,0:0:0:0:
169,151,95228,1,0,0:0:0:0:
168,152,95353,1,0,0:0:0:0:
172,153,95478,2,0,L|372:152,1,180
179,158,95978,1,0,0:0:0:0:
179,158,96228,1,2,0:0:0:0:
179,158,96353,1,0,0:0:0:0:
179,158,96603,1,2,0:0:0:0:
179,158,96728,1,0,0:0:0:0:
175,152,96978,1,0,0:0:0:0:
175,152,97103,1,0,0:0:0:0:
175,152,97228,1,2,0:0:0:0:
175,152,97353,1,2,0:0:0:0:
179,158,97478,1,0,0:0:0:0:
183,150,97728,1,2,0:0:0:0:
183,151,97853,1,2,0:0:0:0:
183,151,97978,1,0,0:0:0:0:
165,162,98228,5,2,0:0:0:0:
158,156,98478,1,0,0:0:0:0:
158,156,98728,1,0,0:0:0:0:
155,156,98978,1,2,0:0:0:0:
155,156,99103,1,2,0:0:0:0:
155,156,99228,1,2,0:0:0:0:
158,156,99478,1,0,0:0:0:0:
158,156,99665,1,0,0:0:0:0:
155,156,99853,1,0,0:0:0:0:
160,160,99978,1,2,0:0:0:0:
161,159,100228,1,2,0:0:0:0:
158,156,100353,1,2,0:0:0:0:
158,156,100478,1,2,0:0:0:0:
160,158,100728,1,0,0:0:0:0:
160,160,100978,1,0,0:0:0:0:
161,159,101103,1,0,0:0:0:0:
156,161,101228,1,0,0:0:0:0:
156,161,101353,1,0,0:0:0:0:
158,156,101478,1,0,0:0:0:0:
160,158,101665,1,2,0:0:0:0:
160,158,101853,1,2,0:0:0:0:
143,158,102103,1,2,0:0:0:0:
156,161,102353,1,0,0:0:0:0:
151,154,102853,1,2,0:0:0:0:
151,156,102978,1,0,0:0:0:0:
151,156,103103,1,2,0:0:0:0:
148,155,103353,1,0,0:0:0:0:
151,154,103478,1,2,0:0:0:0:
154,148,103728,1,0,0:0:0:0:
137,154,103978,1,0,0:0:0:0:
140,153,104103,1,0,0:0:0:0:
140,153,104228,1,2,0:0:0:0:
103,162,104478,1,2,0:0:0:0:
103,162,104603,1,2,0:0:0:0:
103,162,104728,1,2,0:0:0:0:
122,162,104978,1,0,0:0:0:0:
119,162,105228,1,0,0:0:0:0:
119,162,105478,1,2,0:0:0:0:
119,162,105665,1,2,0:0:0:0:
122,162,105853,1,2,0:0:0:0:
122,162,105978,1,0,0:0:0:0:
132,178,106228,1,0,0:0:0:0:
134,177,106478,1,2,0:0:0:0:
134,177,106603,1,2,0:0:0:0:
134,177,106728,1,0,0:0:0:0:
134,177,106853,1,0,0:0:0:0:
134,177,106978,1,2,0:0:0:0:
132,178,107228,1,0,0:0:0:0:
134,177,107353,1,0,0:0:0:0:
134,177,107478,1,2,0:0:0:0:
134,177,107978,1,0,0:0:0:0:
132,178,108103,1,0,0:0:0:0:
132,178,108228,1,2,0:0:0:0:
134,177,108478,1,2,0:0:0:0:
134,177,108603,1,2,0:0:0:0:
134,177,108728,1,0,0:0:0:0:
134,177,108978,1,0,0:0:0:0:
132,178,109103,1,0,0:0:0:0:
132,178,109228,1,2,0:0:0:0:
134,177,109353,1,2,0:0:0:0:
134,177,109478,1,0,0:0:0:0:
134,177,109603,1,0,0:0:0:0:
134,177,109728,1,2,0:0:0:0:
134,177,109978,1,0,0:0:0:0:
132,178,110103,1,0,0:0:0:0:
132,178,110228,1,0,0:0:0:0:
134,177,110353,1,0,0:0:0:0:
134,177,110478,1,0,0:0:0:0:
134,177,110728,2,0,L|392:179,1,240
144,167,111478,1,0,0:0:0:0:
144,167,111728,1,2,0:0:0:0:
154,168,111978,1,0,0:0:0:0:
154,173,112394,1,2,0:0:0:0:
154,168,112478,1,2,0:0:0:0:
159,171,112894,1,2,0:0:0:0:
154,168,112978,1,2,0:0:0:0:
160,170,113478,1,0,0:0:0:0:
159,171,113728,1,2,0:0:0:0:
160,171,113978,1,0,0:0:0:0:
160,170,114103,1,0,0:0:0:0:
160,170,114228,1,2,0:0:0:0:
167,167,114478,1,2,0:0:0:0:
167,167,114603,1,2,0:0:0:0:
167,167,114728,1,2,0:0:0:0:
167,167,114978,1,0,0:0:0:0:
167,167,115103,1,0,0:0:0:0:
167,167,115228,1,0,0:0:0:0:
167,167,115353,1,0,0:0:0:0:
164,172,115478,2,0,L|417:184,1,240
221,234,117978,1,0,0:0:0:0:
224,229,118228,1,0,0:0:0:0:
224,229,118478,1,2,0:0:0:0:
224,229,118603,1,2,0:0:0:0:
224,229,118728,1,0,0:0:0:0:
221,234,118978,1,2,0:0:0:0:
218,236,119103,1,2,0:0:0:0:
218,236,119228,1,0,0:0:0:0:
216,241,119353,1,0,0:0:0:0:
216,239,119728,1,2,0:0:0:0:
221,234,119978,1,0,0:0:0:0:
151,204,120394,1,2,0:0:0:0:
216,239,120478,1,2,0:0:0:0:
156,216,120894,1,2,0:0:0:0:
221,234,120978,2,0,L|478:233,1,240
188,228,121728,1,2,0:0:0:0:
192,224,121978,1,0,0:0:0:0:
192,224,122228,1,0,0:0:0:0:
192,224,122353,1,2,0:0:0:0:
188,228,122603,1,0,0:0:0:0:
188,228,122728,1,2,0:0:0:0:
192,224,122978,1,0,0:0:0:0:
192,224,123103,1,0,0:0:0:0:
192,224,123228,1,0,0:0:0:0:
192,224,123353,1,0,0:0:0:0:
194,228,123478,2,0,L|448:233,1,240
143,177,124228,1,2,0:0:0:0:
143,177,124478,1,2,0:0:0:0:
143,177,124603,1,2,0:0:0:0:
143,177,124728,1,2,0:0:0:0:
143,177,124978,1,0,0:0:0:0:
143,177,125228,1,0,0:0:0:0:
133,180,125415,2,0,L|416:184,1,270
168,111,126228,1,2,0:0:0:0:
168,111,126478,1,0,0:0:0:0:
168,111,126603,1,0,0:0:0:0:
168,111,126728,1,2,0:0:0:0:
168,111,126978,1,2,0:0:0:0:
168,111,127103,1,2,0:0:0:0:
168,111,127228,1,0,0:0:0:0:
166,105,127478,1,2,0:0:0:0:
166,105,127603,1,0,0:0:0:0:
166,105,127728,1,2,0:0:0:0:
170,101,127978,1,0,0:0:0:0:
256,192,129602,12,0,131144,0:0:0:0:
256,192,131228,12,0,134978,0:0:0:0:
165,190,135978,5,0,0:0:0:0:
165,190,136978,1,2,0:0:0:0:
154,189,137478,1,0,0:0:0:0:
155,188,137978,1,0,0:0:0:0:
154,189,138478,1,0,0:0:0:0:
155,188,138728,1,0,0:0:0:0:
148,187,138978,1,2,0:0:0:0:
154,189,139478,1,0,0:0:0:0:
148,187,139978,1,0,0:0:0:0:
148,187,140978,1,2,0:0:0:0:
148,187,141978,1,0,0:0:0:0:
155,189,142978,1,2,0:0:0:0:
155,189,143228,1,0,0:0:0:0:
155,189,143603,1,2,0:0:0:0:
155,189,143978,1,0,0:0:0:0:
155,189,144478,1,2,0:0:0:0:
149,189,144728,1,2,0:0:0:0:
149,189,144978,1,0,0:0:0:0:
149,189,145478,1,2,0:0:0:0:
149,189,145728,1,2,0:0:0:0:
149,189,145978,1,0,0:0:0:0:
149,189,146478,1,2,0:0:0:0:
149,189,146978,1,0,0:0:0:0:
149,189,147228,1,0,0:0:0:0:
149,189,147478,1,2,0:0:0:0:
149,189,147728,1,2,0:0:0:0:
149,189,147978,1,0,0:0:0:0:
149,189,148478,1,2,0:0:0:0:
149,189,148978,1,0,0:0:0:0:
149,189,149478,1,2,0:0:0:0:
149,189,149728,1,2,0:0:0:0:
149,189,149978,1,0,0:0:0:0:
151,194,150478,1,2,0:0:0:0:
151,194,150978,1,0,0:0:0:0:
151,194,151103,1,0,0:0:0:0:
151,194,151228,1,0,0:0:0:0:
151,194,151353,1,0,0:0:0:0:
151,194,151478,1,0,0:0:0:0:
151,194,151603,1,0,0:0:0:0:
151,194,151728,1,0,0:0:0:0:
151,194,151853,1,0,0:0:0:0:
