osu file format v14

[General]
AudioFilename: audio.mp3
AudioLeadIn: 0
PreviewTime: 118587
Countdown: 0
SampleSet: Soft
StackLeniency: 0.7
Mode: 0
LetterboxInBreaks: 0
WidescreenStoryboard: 1

[Editor]
Bookmarks: 1985,52909,106950,118678,142136,153865
DistanceSpacing: 0.8
BeatDivisor: 4
GridSize: 32
TimelineZoom: 2.599999

[Metadata]
Title:Huh
TitleUnicode:Huh
Artist:Rotisserie Chicken
ArtistUnicode:Rotisserie Chicken
Creator:hehe
Version:Hard
Source:
Tags:breakcore hardstyle electronic instrumental experimental handsome
BeatmapID:3887889
BeatmapSetID:1876615

[Difficulty]
HPDrainRate:4
CircleSize:3.8
OverallDifficulty:6.5
ApproachRate:8
SliderMultiplier:1.2
SliderTickRate:1

[Events]
//Background and Video events
0,0,"huh.jpg",0,0
//Break Periods
2,153697,160445
//Storyboard Layer 0 (Background)
//Storyboard Layer 1 (Fail)
//Storyboard Layer 2 (Pass)
//Storyboard Layer 3 (Foreground)
//Storyboard Layer 4 (Overlay)
//Storyboard Sound Samples

[TimingPoints]
1985,261.437908496732,4,2,1,80,1,0
20408,294.117647058824,4,2,2,60,1,0
24795,261.437908496732,4,2,1,100,1,0
26896,261.437908496732,4,2,1,100,1,0
52909,-100,4,2,1,80,0,0
57393,534.75935828877,4,2,2,40,1,0
57393,-53.1914893617021,4,2,2,40,0,0
65949,-25.3164556962025,4,2,2,40,0,0
70227,524.017467248908,4,2,2,40,1,0
70227,-100,4,2,2,40,0,0
71275,488.997555012225,4,2,2,40,1,0
98169,-100,4,2,2,43,0,0
99147,-100,4,2,2,46,0,0
100125,-100,4,2,2,49,0,0
101103,-100,4,2,2,52,0,0
102081,-100,4,2,2,55,0,0
103059,-100,4,2,2,58,0,0
104037,-100,4,2,2,61,0,0
105015,-100,4,2,2,64,0,0
105993,-100,4,2,2,67,0,0
106950,366.524129505192,4,2,1,70,1,0
106950,-100,4,2,1,70,0,0
118312,-100,4,2,1,60,0,0
118678,-83.3333333333333,4,2,1,90,0,1
129674,-100,4,2,1,70,0,0
130407,-83.3333333333333,4,2,1,90,0,1
142136,-100,4,2,1,70,0,0
143602,-100,4,2,1,67,0,0
145068,-100,4,2,1,64,0,0
146534,-100,4,2,1,61,0,0
148000,-100,4,2,1,58,0,0
149466,-100,4,2,1,55,0,0
150932,-100,4,2,1,50,0,0
152398,-100,4,2,1,50,0,0
153498,-100,4,2,1,50,0,0
161195,-100,4,2,1,30,0,0
162661,-100,4,2,2,40,0,0
164127,-100,4,2,1,50,0,0
164860,-100,4,2,2,60,0,0
165593,-100,4,2,1,100,0,0

[Colours]
Combo1 : 239,239,239
Combo2 : 163,163,163
Combo3 : 64,198,255
Combo4 : 20,116,255
Combo5 : 255,182,67
Combo6 : 255,129,33

[HitObjects]
235,274,1985,86,0,L|217:142,1,120,0|2,3:0|0:3,0:0:0:0:
284,85,2507,2,0,P|352:82|399:127,1,120,0|2,3:0|0:0,0:0:0:0:
439,113,2900,2,0,L|425:240,1,120,0|8,3:0|0:0,0:0:0:0:
459,266,3292,6,0,B|312:273|381:308|211:322,1,240,2|0,0:0|3:0,0:0:0:0:
179,322,3945,1,0,3:0:0:0:
103,381,4207,70,0,P|97:325|70:248,1,120,8|0,0:0|0:0,0:0:0:0:
30,272,4599,2,0,L|43:137,1,120,0|0,3:0|0:0,0:0:0:0:
42,104,4991,1,0,3:0:0:0:
6,15,5252,6,0,P|75:6|118:43,1,120,8|2,0:0|0:3,0:0:0:0:
159,24,5645,1,8,0:0:0:0:
189,60,5775,2,0,L|179:184,1,120,0|0,3:0|3:0,0:0:0:0:
173,227,6168,69,0,3:0:0:0:
204,263,6298,2,0,P|266:235|385:231,1,180,2|2,0:0|0:3,0:0:0:0:
479,127,7083,2,0,L|321:101,1,150,0|2,3:0|3:2,0:0:0:0:
253,45,7671,6,0,P|232:87|229:116,1,60,0|12,3:0|0:0,0:0:0:0:
184,117,7932,2,0,P|203:158|211:191,1,60,0|2,3:0|3:0,0:0:0:0:
253,186,8194,2,0,L|242:290,1,90,2|0,3:0|3:0,0:0:0:0:
227,370,8651,1,0,3:0:0:0:
125,305,8978,70,0,P|70:312|30:349,2,90,0|0|0,3:0|3:0|3:0,0:0:0:0:
125,305,9435,2,0,L|107:174,1,120,8|0,0:0|3:0,0:0:0:0:
98,138,9828,1,12,0:0:0:0:
192,155,10089,5,2,0:3:0:0:
228,124,10220,1,2,0:0:0:0:
223,76,10351,2,0,P|286:69|346:48,1,120,0|8,3:0|0:0,0:0:0:0:
424,13,10808,2,0,L|413:85,2,60,0|8|8,3:0|0:0|0:0,0:0:0:0:
495,65,11266,70,0,L|510:197,1,120,0|2,3:0|0:3,0:0:0:0:
451,261,11788,2,0,P|388:234|314:234,1,120,0|2,3:0|0:0,0:0:0:0:
300,262,12181,1,2,0:3:0:0:
256,241,12311,2,0,L|248:197,4,30,0|0|0|0|0,3:0|3:0|3:0|3:0|3:0,0:0:0:0:
167,355,12965,5,0,3:0:0:0:
123,376,13096,2,0,L|104:276,1,90,8|0,0:0|3:0,0:0:0:0:
59,278,13422,2,0,L|62:204,2,60,0|2|2,3:0|0:0|0:3,0:0:0:0:
154,204,14011,69,2,0:3:0:0:
199,190,14141,2,0,L|316:212,1,120,2|0,0:3|3:0,0:0:0:0:
434,240,14664,2,0,L|441:289,2,30,0|0|0,3:0|3:0|3:0,0:0:0:0:
498,168,15056,2,0,P|497:101|436:63,1,120,2|2,0:3|0:3,0:0:0:0:
412,57,15449,1,2,0:0:0:0:
335,114,15710,5,2,3:2:0:0:
288,125,15841,2,0,L|278:264,1,120,2|0,0:0|3:0,0:0:0:0:
269,340,16364,1,2,0:0:0:0:
305,370,16494,2,0,P|342:346|382:337,1,60,2|0,0:3|3:0,0:0:0:0:
369,294,16756,2,0,L|444:309,1,60,0|2,3:0|0:0,0:0:0:0:
475,312,17017,70,0,L|451:170,1,120,0|2,3:0|0:3,0:0:0:0:
428,101,17540,1,0,3:0:0:0:
381,87,17671,1,2,0:0:0:0:
348,121,17801,2,0,B|271:137|304:144|214:167,1,120,2|0,0:3|3:0,0:0:0:0:
192,137,18194,1,0,3:0:0:0:
157,169,18324,5,2,0:3:0:0:
61,156,18586,1,0,3:0:0:0:
42,62,18847,2,0,L|140:40,1,90,2|0,0:0|0:0,0:0:0:0:
162,7,19174,2,0,P|186:42|197:82,1,60,2|2,3:0|3:0,0:0:0:0:
239,63,19435,2,0,L|227:130,1,60,2|2,3:0|0:0,0:0:0:0:
218,169,19697,1,2,0:0:0:0:
419,348,20408,38,0,P|399:306|395:221,1,120,2|2,0:0|0:0,0:0:0:0:
464,189,20849,1,2,0:0:0:0:
419,117,20996,2,0,L|347:132,1,60,2|0,0:0|0:0,0:0:0:0:
278,148,21290,2,0,P|234:127|172:123,1,90,2|0,0:0|0:0,0:0:0:0:
193,121,21584,5,2,0:0:0:0:
129,175,21731,2,0,L|99:54,1,120,2|0,0:0|0:0,0:0:0:0:
100,58,22172,2,0,L|40:43,2,60,2|2|2,0:0|0:0|0:0,0:0:0:0:
165,5,22613,1,2,0:0:0:0:
235,51,22760,2,0,P|271:70|292:109,1,60,2|2,0:0|0:0,0:0:0:0:
367,78,23055,70,0,L|351:207,1,120,2|0,0:0|0:0,0:0:0:0:
428,231,23496,2,0,P|444:269|464:289,2,60,2|2|2,0:0|0:0|0:0,0:0:0:0:
379,317,23937,2,0,P|332:325|284:362,1,90,2|0,0:0|0:0,0:0:0:0:
296,347,24231,5,2,0:0:0:0:
217,374,24378,2,0,L|205:235,1,120,2|0,0:0|0:0,0:0:0:0:
200,171,24795,6,0,L|71:145,1,120,0|0,3:0|3:0,0:0:0:0:
35,135,25187,2,0,L|25:56,1,60,2|0,0:0|0:0,0:0:0:0:
9,31,25448,2,0,P|64:24|115:9,1,90,2|2,0:3|3:3,0:0:0:0:
161,57,25840,6,0,P|211:61|276:103,1,120,0|0,3:0|0:0,0:0:0:0:
278,143,26232,1,0,0:0:0:0:
243,177,26363,2,0,L|261:300,1,120,0|2,0:0|0:3,0:0:0:0:
336,353,26896,70,0,P|374:342|403:352,1,60,0|2,0:0|3:0,0:0:0:0:
424,383,27156,2,0,L|498:359,1,60,8|8,0:0|0:0,0:0:0:0:
504,270,27549,2,0,L|373:252,1,120,2|0,0:0|0:0,0:0:0:0:
337,247,27941,5,0,0:0:0:0:
264,310,28202,2,0,P|242:278|195:235,1,90,0|2,3:0|3:0,0:0:0:0:
160,260,28529,2,0,L|164:157,1,90,2|8,3:0|0:0,0:0:0:0:
172,74,28987,69,8,0:0:0:0:
213,51,29117,1,2,3:0:0:0:
256,70,29248,2,0,P|266:137|279:176,2,90,8|8|0,0:0|0:0|0:0,0:0:0:0:
330,42,29836,2,0,P|353:95|384:133,2,90,2|2|0,3:3|0:0|3:0,0:0:0:0:
213,11,30555,6,0,L|83:36,1,120,8|0,0:0|3:0,0:0:0:0:
48,46,30947,1,0,3:0:0:0:
6,22,31078,2,0,P|18:70|16:153,1,120,0|2,3:0|3:0,0:0:0:0:
1,235,31601,69,2,0:0:0:0:
48,241,31732,2,0,L|157:256,2,90,4|4|0,3:2|3:2|3:0,0:0:0:0:
15,329,32385,2,0,P|57:351|133:338,1,120,0|2,3:0|0:3,0:0:0:0:
169,364,32777,1,0,3:0:0:0:
213,346,32908,6,0,L|202:211,1,120,8|0,0:0|0:0,0:0:0:0:
264,177,33366,2,0,L|274:74,2,90,0|0|2,3:0|3:0|0:0,0:0:0:0:
334,241,34019,2,0,L|408:228,1,60,8|0,0:0|0:0,0:0:0:0:
393,230,34215,70,0,P|426:265|443:321,2,90,0|0|0,3:0|3:0|3:0,0:0:0:0:
421,138,34869,1,0,3:0:0:0:
345,78,35130,2,0,L|269:100,1,60,0|0,3:0|3:0,0:0:0:0:
209,164,35522,6,0,P|135:152|116:98,1,120,8|0,0:0|0:0,0:0:0:0:
155,28,36045,2,0,L|219:45,1,60,2|0,0:3|3:0,0:0:0:0:
253,16,36307,2,0,P|279:50|279:88,1,60,0|2,3:0|0:3,0:0:0:0:
322,92,36568,2,0,L|299:220,1,120,8|2,0:0|0:3,0:0:0:0:
335,243,36960,69,0,3:0:0:0:
264,308,37222,1,2,0:3:0:0:
221,285,37353,2,0,L|101:318,1,120,0|0,3:0|0:0,0:0:0:0:
60,334,37745,1,2,0:0:0:0:
39,240,38006,1,0,3:0:0:0:
18,145,38268,5,8,0:0:0:0:
49,108,38398,2,0,B|118:116|94:130|172:139,1,120,0|0,3:0|3:0,0:0:0:0:
164,138,38725,2,0,L|180:209,2,60,0|0|0,3:0|3:0|3:0,0:0:0:0:
326,282,39248,70,0,L|341:169,1,90,4|2,3:2|0:0,0:0:0:0:
406,159,39640,2,0,P|394:118|391:85,1,60,12|2,0:0|0:0,0:0:0:0:
411,56,39902,1,2,0:0:0:0:
374,25,40032,1,2,0:0:0:0:
326,29,40163,1,2,0:0:0:0:
214,294,40947,5,8,0:0:0:0:
192,250,41078,2,0,L|31:224,1,150,0|8,3:0|0:0,0:0:0:0:
16,186,41536,1,8,0:0:0:0:
37,143,41666,2,0,P|25:89|57:32,1,120,8|2,0:0|0:3,0:0:0:0:
143,71,42189,70,0,L|228:62,1,60,8|2,0:0|0:3,0:0:0:0:
231,25,42451,2,0,L|309:40,1,60,8|0,0:0|3:0,0:0:0:0:
337,45,42712,1,8,0:0:0:0:
406,110,42973,2,0,P|355:135|326:208,1,120,8|8,0:0|0:0,0:0:0:0:
287,217,43366,2,0,P|311:263|315:287,1,60,0|0,3:0|3:0,0:0:0:0:
320,317,43627,5,0,3:0:0:0:
239,368,43888,2,0,L|134:349,1,90,8|0,0:0|0:0,0:0:0:0:
105,369,44215,1,0,3:0:0:0:
81,326,44346,1,8,0:0:0:0:
36,308,44477,2,0,B|25:247|47:264|35:201,1,90,0|0,3:0|3:0,0:0:0:0:
106,180,44869,70,0,P|136:227|205:231,1,120,12|0,0:0|3:0,0:0:0:0:
253,181,45326,2,0,L|354:199,1,90,8|0,0:0|3:0,0:0:0:0:
384,261,45719,6,0,L|514:236,2,120,0|0|0,3:0|3:0|3:0,0:0:0:0:
315,328,46503,1,0,3:0:0:0:
274,302,46634,1,8,0:0:0:0:
235,329,46764,2,0,P|234:277|208:202,1,120,2|0,3:3|0:0,0:0:0:0:
166,220,47156,70,0,L|184:67,1,150,0|2,3:0|0:3,0:0:0:0:
195,23,47614,1,2,0:3:0:0:
242,13,47745,1,0,3:0:0:0:
335,88,48071,6,0,P|349:142|334:212,1,120,0|0,0:0|3:0,0:0:0:0:
290,216,48464,1,0,3:0:0:0:
256,250,48594,1,0,3:0:0:0:
163,274,48856,1,0,3:0:0:0:
121,249,48987,70,0,L|135:117,1,120,0|0,0:0|3:0,0:0:0:0:
172,101,49379,2,0,P|167:63|153:40,1,60,2|8,0:3|0:0,0:0:0:0:
171,1,49640,2,0,L|99:14,1,60,2|8,0:3|0:0,0:0:0:0:
63,12,49902,5,0,3:0:0:0:
29,45,50032,1,8,0:0:0:0:
20,92,50163,1,8,0:0:0:0:
36,136,50294,1,0,3:0:0:0:
76,162,50424,2,0,L|91:231,1,60,0|8,3:0|0:0,0:0:0:0:
135,233,50686,2,0,L|120:302,1,60,0|8,3:0|0:0,0:0:0:0:
88,325,50947,70,0,B|163:329|133:355|232:359,1,150,0|0,3:0|3:0,0:0:0:0:
273,334,51405,1,8,0:0:0:0:
363,364,51666,2,0,L|438:349,1,60,8|8,0:0|0:0,0:0:0:0:
496,373,51993,6,0,P|515:333|501:253,1,120,0|0,3:0|3:0,0:0:0:0:
457,259,52385,1,0,3:0:0:0:
434,216,52516,2,0,L|307:226,1,120,0|0,3:0|3:0,0:0:0:0:
266,231,52908,1,4,0:0:0:0:
256,192,57393,69,0,0:0:0:0:
256,192,57526,12,0,64879,0:0:0:0:
256,192,65949,5,0,0:0:0:0:
256,192,66082,12,0,69157,0:0:0:0:
113,253,70227,70,0,L|306:226,1,180,2|0,0:0|0:0,0:0:0:0:
353,273,71275,2,0,P|422:271|464:173,1,180,2|2,0:0|0:0,0:0:0:0:
283,64,72741,2,0,L|162:84,1,120,2|0,0:0|0:0,0:0:0:0:
107,39,73475,5,2,0:0:0:0:
61,94,73719,2,0,L|71:166,1,60,2|2,0:0|0:0,0:0:0:0:
135,181,74208,2,0,L|129:254,2,60,2|2|2,0:0|0:0|0:0,0:0:0:0:
259,253,75186,69,0,0:0:0:0:
324,223,75431,1,0,0:0:0:0:
393,241,75675,2,0,P|441:203|441:134,1,120
461,76,76409,2,0,L|395:66,1,60,2|0,0:0|0:0,0:0:0:0:
347,19,76898,2,0,L|270:30,1,60
77,79,77876,5,2,0:0:0:0:
77,79,78120,2,0,P|46:128|48:200,1,120,2|0,0:0|0:0,0:0:0:0:
109,219,78854,2,0,L|241:197,1,120
297,184,79587,1,0,0:0:0:0:
500,255,80321,69,0,0:0:0:0:
486,325,80565,1,0,0:0:0:0:
415,310,80810,2,0,P|361:311|296:333,1,120
156,357,81788,1,2,0:0:0:0:
142,286,82032,2,0,L|131:211,1,60,2|0,0:0|0:0,0:0:0:0:
187,178,82521,2,0,L|248:208,1,60
311,188,83010,5,2,0:0:0:0:
375,215,83254,1,2,0:0:0:0:
443,196,83498,1,2,0:0:0:0:
484,138,83743,1,2,0:0:0:0:
478,67,83987,1,2,0:0:0:0:
430,16,84232,1,2,0:0:0:0:
360,7,84476,1,2,0:0:0:0:
293,36,84722,1,2,0:0:0:0:
261,100,84966,70,0,L|273:169,1,60
335,192,85455,2,0,L|323:261,1,60
306,321,85944,2,0,P|240:323|182:346,1,120
141,287,86678,1,0,0:0:0:0:
69,287,86922,6,0,L|55:215,1,60
109,178,87411,2,0,L|117:112,1,60,0|2,0:0|0:0,0:0:0:0:
129,47,87900,1,2,0:0:0:0:
195,22,88144,1,2,0:0:0:0:
262,42,88388,1,2,0:0:0:0:
304,100,88633,1,2,0:0:0:0:
301,170,88878,70,0,L|183:192,1,120,2|0,0:0|0:0,0:0:0:0:
129,143,89612,1,2,0:0:0:0:
72,186,89856,2,0,L|56:247,1,60,2|2,0:0|0:0,0:0:0:0:
8,297,90345,2,0,L|28:362,1,60,2|2,0:0|0:0,0:0:0:0:
169,363,91079,5,0,0:0:0:0:
214,307,91323,1,0,0:0:0:0:
284,320,91568,2,0,P|346:303|408:299,1,120
462,336,92301,2,0,L|499:279,1,60,2|2,0:0|0:0,0:0:0:0:
470,217,92790,1,2,0:0:0:0:
415,169,93035,2,0,L|405:97,1,60,2|0,0:0|0:0,0:0:0:0:
396,38,93524,69,0,0:0:0:0:
325,22,93768,1,0,0:0:0:0:
265,62,94013,1,0,0:0:0:0:
262,133,94257,1,0,0:0:0:0:
298,272,94746,2,0,L|369:264,1,60,2|2,0:0|0:0,0:0:0:0:
251,335,95235,2,0,L|187:325,1,60,2|2,0:0|0:0,0:0:0:0:
123,302,95724,5,2,0:0:0:0:
58,333,95969,1,2,0:0:0:0:
33,265,96213,2,0,P|28:210|18:131,1,120,2|2,0:0|0:0,0:0:0:0:
82,109,96947,1,2,0:0:0:0:
150,80,97192,1,2,0:0:0:0:
224,92,97436,1,2,0:0:0:0:
280,141,97681,1,2,0:0:0:0:
302,213,97925,1,2,0:0:0:0:
283,285,98169,70,0,P|236:280|201:285,1,60,2|2,0:0|0:0,0:0:0:0:
166,219,98658,2,0,P|170:172|165:137,1,60,2|2,0:0|0:0,0:0:0:0:
229,100,99147,2,0,P|276:105|311:100,1,60,2|2,0:0|0:0,0:0:0:0:
346,166,99636,2,0,P|342:213|347:248,1,60,2|2,0:0|0:0,0:0:0:0:
258,288,100125,6,0,P|214:272|178:268,1,60,2|2,0:0|0:0,0:0:0:0:
162,195,100614,2,0,P|178:151|182:115,1,60,2|2,0:0|0:0,0:0:0:0:
254,97,101103,2,0,P|298:113|334:117,1,60,2|2,0:0|0:0,0:0:0:0:
350,190,101592,2,0,P|334:234|330:270,1,60,2|2,0:0|0:0,0:0:0:0:
233,285,102081,70,0,P|195:259|162:245,1,60,2|2,0:0|0:0,0:0:0:0:
164,170,102570,2,0,P|191:132|205:99,1,60,2|2,0:0|0:0,0:0:0:0:
279,100,103059,2,0,P|317:126|350:140,1,60,2|2,0:0|0:0,0:0:0:0:
348,215,103548,2,0,P|321:253|307:286,1,60,2|2,0:0|0:0,0:0:0:0:
210,276,104037,6,0,P|180:241|151:219,1,60,2|2,0:0|0:0,0:0:0:0:
173,147,104526,2,0,P|209:117|231:89,1,60,2|2,0:0|0:0,0:0:0:0:
302,109,105015,2,0,P|332:144|361:166,1,60,2|2,0:0|0:0,0:0:0:0:
339,238,105504,2,0,P|303:268|281:296,1,60,2|2,0:0|0:0,0:0:0:0:
190,262,105993,70,0,P|170:219|148:191,1,60,2|2,0:0|0:0,0:0:0:0:
188,127,106482,2,0,P|230:108|258:86,1,60,2|2,0:0|0:0,0:0:0:0:
268,17,106950,22,0,L|395:45,1,120,0|2,3:0|3:0,0:0:0:0:
479,27,107560,1,0,0:0:0:0:
479,27,107683,2,0,P|503:76|499:145,1,120,2|2,3:0|3:0,0:0:0:0:
444,273,108416,6,0,B|372:257|387:281|313:269,1,120,0|2,3:0|3:0,0:0:0:0:
250,328,109026,1,0,0:0:0:0:
250,328,109149,2,0,L|234:243,1,80,2|0,3:0|0:0,0:0:0:0:
235,250,109515,2,0,L|148:237,1,80,2|0,3:0|0:0,0:0:0:0:
155,238,109882,70,0,P|119:207|129:133,1,120,0|2,3:0|3:0,0:0:0:0:
82,52,110493,1,0,0:0:0:0:
82,52,110615,2,0,L|208:29,1,120,2|2,3:0|3:0,0:0:0:0:
342,6,111348,5,0,3:0:0:0:
378,81,111531,1,2,0:0:0:0:
302,116,111714,1,2,3:0:0:0:
266,41,111897,1,2,0:0:0:0:
342,6,112081,2,0,P|378:44|413:54,1,80,2|0,3:0|0:0,0:0:0:0:
407,56,112447,2,0,L|428:143,1,80,2|0,3:0|0:0,0:0:0:0:
429,137,112814,70,0,L|309:117,1,120,0|2,3:0|3:0,0:0:0:0:
221,184,113425,1,0,0:0:0:0:
221,184,113547,2,0,P|159:199|110:247,1,120,2|2,3:0|3:0,0:0:0:0:
29,380,114280,6,0,L|13:255,1,120,0|2,3:0|3:0,0:0:0:0:
125,276,114891,1,0,0:0:0:0:
125,276,115013,2,0,L|146:192,1,80,2|0,3:0|0:0,0:0:0:0:
144,198,115380,2,0,P|101:180|90:147,1,80,2|0,3:0|0:0,0:0:0:0:
90,150,115746,70,0,P|44:133|39:61,1,120,0|2,3:0|3:0,0:0:0:0:
135,20,116357,1,0,0:0:0:0:
135,20,116479,2,0,L|259:31,1,120,2|2,3:0|3:0,0:0:0:0:
342,174,117212,5,0,3:0:0:0:
259,186,117395,1,2,0:0:0:0:
226,263,117579,1,2,3:0:0:0:
143,275,117762,1,2,0:0:0:0:
80,219,117945,2,0,L|100:84,1,120,2|2,3:0|3:0,0:0:0:0:
281,15,118678,5,4,3:2:0:0:
217,74,118862,2,0,P|242:112|254:168,1,71.9999978027344,0|10,0:0|0:0,0:0:0:0:
336,142,119228,1,6,3:2:0:0:
336,142,119411,2,0,L|323:230,1,71.9999978027344,2|0,0:3|3:0,0:0:0:0:
315,299,119778,1,8,0:0:0:0:
362,371,119961,1,0,3:0:0:0:
239,347,120144,6,0,P|183:366|121:299,1,143.999995605469,4|8,3:2|0:0,0:0:0:0:
180,249,120694,1,0,3:0:0:0:
117,189,120877,1,2,0:3:0:0:
117,189,120969,1,2,0:3:0:0:
117,189,121061,1,2,3:3:0:0:
180,130,121244,2,0,L|314:105,1,107.999996704102,8|2,0:0|0:0,0:0:0:0:
286,110,121610,70,0,L|300:31,1,71.9999978027344,0|2,3:0|0:0,0:0:0:0:
379,9,121977,1,8,0:0:0:0:
409,89,122160,1,2,3:3:0:0:
493,107,122344,1,2,0:0:0:0:
488,124,122435,1,2,0:0:0:0:
483,141,122527,1,2,3:2:0:0:
478,158,122618,1,2,0:0:0:0:
473,176,122710,2,0,P|419:188|392:211,1,71.9999978027344,8|2,0:0|0:0,0:0:0:0:
382,280,123077,6,0,P|381:237|312:147,1,143.999995605469,0|8,3:0|0:0,0:0:0:0:
245,186,123626,1,2,0:0:0:0:
182,125,123810,2,0,L|96:122,1,71.9999978027344,2|0,0:3|3:0,0:0:0:0:
110,122,124085,1,0,3:0:0:0:
110,122,124176,1,8,0:0:0:0:
50,184,124359,1,0,3:0:0:0:
4,110,124543,70,0,P|11:48|31:28,1,71.9999978027344,4|0,3:2|0:0,0:0:0:0:
98,20,124909,1,10,0:0:0:0:
168,70,125092,2,0,L|254:51,1,71.9999978027344,6|2,3:2|0:3,0:0:0:0:
322,33,125459,1,0,3:0:0:0:
346,115,125642,1,8,0:0:0:0:
431,126,125825,1,0,3:0:0:0:
297,184,126009,6,0,B|325:265|346:230|377:318,1,143.999995605469,4|8,3:2|0:0,0:0:0:0:
446,349,126559,1,0,3:0:0:0:
508,289,126742,1,2,0:3:0:0:
508,289,126833,1,2,0:3:0:0:
508,289,126925,1,2,3:3:0:0:
453,222,127108,2,0,L|325:247,1,107.999996704102,8|2,0:0|0:0,0:0:0:0:
347,242,127475,70,0,P|336:200|344:166,1,71.9999978027344,0|2,3:0|0:0,0:0:0:0:
410,122,127841,1,8,0:0:0:0:
349,60,128025,1,2,3:3:0:0:
270,95,128208,1,2,0:0:0:0:
252,92,128299,1,2,0:0:0:0:
234,89,128391,1,2,3:2:0:0:
216,86,128482,1,2,0:0:0:0:
198,83,128574,2,0,L|212:161,1,71.9999978027344,8|2,0:0|0:0,0:0:0:0:
285,198,128941,6,0,P|350:192|414:257,1,143.999995605469,0|8,3:0|0:0,0:0:0:0:
493,250,129491,1,2,0:0:0:0:
493,250,129674,1,0,0:0:0:0:
427,378,130041,1,0,0:0:0:0:
256,353,130407,69,4,3:2:0:0:
301,279,130591,2,0,P|295:254|283:198,1,71.9999978027344,0|10,0:0|0:0,0:0:0:0:
203,220,130957,1,6,3:2:0:0:
203,220,131140,2,0,L|216:132,1,71.9999978027344,2|0,0:3|3:0,0:0:0:0:
226,62,131507,1,8,0:0:0:0:
160,6,131690,1,0,3:0:0:0:
296,15,131873,6,0,P|352:-4|414:63,1,143.999995605469,4|8,3:2|0:0,0:0:0:0:
354,111,132423,1,0,0:0:0:0:
395,195,132606,1,2,0:3:0:0:
395,195,132698,1,2,0:3:0:0:
395,195,132790,1,2,3:3:0:0:
332,254,132973,2,0,L|198:279,1,107.999996704102,8|2,0:0|0:0,0:0:0:0:
225,273,133339,70,0,L|212:353,1,71.9999978027344,0|2,3:0|0:0,0:0:0:0:
133,375,133706,1,8,0:0:0:0:
103,295,133889,1,2,3:3:0:0:
19,277,134073,1,2,0:0:0:0:
23,259,134164,1,2,0:0:0:0:
28,242,134256,1,2,3:2:0:0:
33,225,134347,1,2,0:0:0:0:
39,208,134439,2,0,P|93:196|120:173,1,71.9999978027344,8|2,0:0|0:0,0:0:0:0:
130,104,134806,6,0,P|131:147|200:237,1,143.999995605469,0|8,3:0|0:0,0:0:0:0:
267,198,135355,1,2,0:0:0:0:
330,259,135539,2,0,L|416:262,1,71.9999978027344,2|0,0:3|3:0,0:0:0:0:
401,261,135814,1,0,3:0:0:0:
401,261,135905,1,8,0:0:0:0:
462,200,136088,1,0,3:0:0:0:
508,274,136272,70,0,P|501:336|481:356,1,71.9999978027344,4|0,3:2|0:0,0:0:0:0:
414,364,136638,1,10,0:0:0:0:
344,314,136821,2,0,L|258:333,1,71.9999978027344,6|2,3:2|0:3,0:0:0:0:
190,351,137188,1,0,3:0:0:0:
166,269,137371,1,8,0:0:0:0:
81,258,137554,1,0,3:0:0:0:
215,200,137738,6,0,B|187:119|166:154|135:66,1,143.999995605469,4|8,3:2|0:0,0:0:0:0:
66,35,138288,1,0,3:0:0:0:
4,95,138471,1,2,0:3:0:0:
4,95,138562,1,2,0:3:0:0:
4,95,138654,1,2,3:3:0:0:
59,162,138837,2,0,L|187:137,1,107.999996704102,8|2,0:0|0:0,0:0:0:0:
164,141,139204,70,0,P|176:184|168:218,1,71.9999978027344,0|2,3:0|0:0,0:0:0:0:
102,262,139570,1,8,0:0:0:0:
163,324,139754,1,2,3:3:0:0:
242,289,139937,1,2,0:0:0:0:
259,291,140028,1,2,0:0:0:0:
277,294,140120,1,2,3:2:0:0:
295,297,140211,1,2,0:0:0:0:
314,301,140303,2,0,L|300:223,1,71.9999978027344,8|2,0:0|0:0,0:0:0:0:
364,170,140670,6,0,P|354:114|266:80,1,143.999995605469,0|8,3:0|0:0,0:0:0:0:
231,148,141220,1,2,0:0:0:0:
149,175,141403,2,0,L|169:260,1,71.9999978027344,2|0,0:0|3:0,0:0:0:0:
166,245,141678,1,0,3:0:0:0:
166,245,141769,1,8,0:0:0:0:
240,289,141953,1,0,0:0:0:0:
244,367,142136,38,0,L|117:339,1,120,0|2,3:0|3:0,0:0:0:0:
33,357,142746,1,0,0:0:0:0:
33,357,142869,2,0,P|9:308|13:239,1,120,2|2,3:0|3:0,0:0:0:0:
68,111,143602,6,0,B|140:127|125:103|199:115,1,120,0|2,3:0|3:0,0:0:0:0:
262,56,144212,1,0,0:0:0:0:
262,56,144335,2,0,L|278:141,1,80,2|0,3:0|0:0,0:0:0:0:
277,134,144701,2,0,L|363:146,1,80,2|0,3:0|0:0,0:0:0:0:
356,145,145068,70,0,P|393:177|383:251,1,120,0|2,3:0|3:0,0:0:0:0:
430,332,145679,1,0,0:0:0:0:
430,332,145801,2,0,L|304:355,1,120,2|2,3:0|3:0,0:0:0:0:
170,378,146534,5,0,3:0:0:0:
134,303,146717,1,2,0:0:0:0:
210,268,146900,1,2,3:0:0:0:
246,343,147083,1,2,0:0:0:0:
170,378,147267,2,0,P|134:340|99:330,1,80,2|0,3:0|0:0,0:0:0:0:
108,331,147633,2,0,L|88:245,1,80,2|0,3:0|0:0,0:0:0:0:
90,253,148000,70,0,L|211:274,1,120,0|2,3:0|3:0,0:0:0:0:
295,201,148611,1,0,0:0:0:0:
295,201,148733,2,0,P|357:186|406:138,1,120,2|2,3:0|3:0,0:0:0:0:
483,4,149466,6,0,L|499:129,1,120,0|2,3:0|3:0,0:0:0:0:
387,108,150077,1,0,0:0:0:0:
387,108,150199,2,0,L|366:192,1,80,2|0,3:0|0:0,0:0:0:0:
368,186,150566,2,0,P|411:204|422:237,1,80,2|0,3:0|0:0,0:0:0:0:
421,233,150932,70,0,P|468:251|473:323,1,120,0|2,3:0|3:0,0:0:0:0:
377,364,151543,1,0,0:0:0:0:
377,364,151665,2,0,L|253:353,1,120,2|2,3:0|3:0,0:0:0:0:
170,210,152398,5,0,3:0:0:0:
253,198,152581,1,2,0:0:0:0:
286,121,152765,1,2,3:0:0:0:
369,109,152948,1,2,0:0:0:0:
432,165,153131,2,0,L|412:300,1,120,2|2,3:0|3:0,0:0:0:0:
256,192,161195,12,0,164860,0:0:0:0:
382,57,165471,37,2,0:1:0:0:
382,57,165593,2,0,L|365:162,1,80,4|0,1:1|0:0,0:0:0:0:
355,213,166021,1,2,0:1:0:0:
355,213,166143,2,0,L|279:222,3,60,4|4|4|4,1:0|1:2|1:2|1:2,0:0:0:0:
