osu file format v14

[General]
AudioFilename: audio.mp3
AudioLeadIn: 0
PreviewTime: 118587
Countdown: 0
SampleSet: Soft
StackLeniency: 0.3
Mode: 0
LetterboxInBreaks: 0
WidescreenStoryboard: 1

[Editor]
Bookmarks: 1985,52909,106950,118678,142136,153865
DistanceSpacing: 0.8
BeatDivisor: 4
GridSize: 32
TimelineZoom: 2.599999

[Metadata]
Title:Huh
TitleUnicode:Huh
Artist:Rotisserie Chicken
ArtistUnicode:Rotisserie Chicken
Creator:hehe
Version:As God Intended
Source:
Tags:breakcore hardstyle electronic instrumental experimental handsome
BeatmapID:3862068
BeatmapSetID:1876615

[Difficulty]
HPDrainRate:5
CircleSize:4
OverallDifficulty:9.2
ApproachRate:9.8
SliderMultiplier:1.4
SliderTickRate:1

[Events]
//Background and Video events
0,0,"huh.jpg",0,0
//Break Periods
2,154064,160716
//Storyboard Layer 0 (Background)
//Storyboard Layer 1 (Fail)
//Storyboard Layer 2 (Pass)
//Storyboard Layer 3 (Foreground)
//Storyboard Layer 4 (Overlay)
//Storyboard Sound Samples

[TimingPoints]
1985,261.437908496732,4,2,1,80,1,0
1985,-66.6666666666667,4,2,1,80,0,0
13684,-100,4,2,1,80,0,0
14011,-66.6666666666667,4,2,1,80,0,0
20408,294.117647058824,4,2,2,60,1,0
20408,-100,4,2,2,60,0,0
24795,261.437908496732,4,2,1,100,1,0
24795,-66.6666666666667,4,2,1,100,0,0
26896,261.437908496732,4,2,1,100,1,0
26896,-66.6666666666667,4,2,1,100,0,0
35458,-50,4,2,1,100,0,0
52909,-50,4,2,1,80,0,0
57393,534.75935828877,4,2,2,40,1,0
57393,-86.9565217391304,4,2,2,40,0,0
65949,-60.6060606060606,4,2,2,40,0,0
70227,524.017467248908,4,2,2,40,1,0
70227,-100,4,2,2,40,0,0
71275,488.997555012225,4,2,2,40,1,0
98169,-100,4,2,2,43,0,0
99147,-100,4,2,2,46,0,0
100125,-100,4,2,2,49,0,0
101103,-100,4,2,2,52,0,0
102081,-100,4,2,2,55,0,0
103059,-100,4,2,2,58,0,0
104037,-100,4,2,2,61,0,0
105015,-100,4,2,2,64,0,0
105993,-100,4,2,2,67,0,0
106950,366.524129505192,4,2,1,60,1,0
106950,-50,4,2,1,70,0,0
118312,-100,4,2,1,60,0,0
118678,-33.3333333333333,4,2,1,90,0,1
123077,-100,4,2,1,90,0,1
124359,-50,4,2,1,90,0,1
124543,-33.3333333333333,4,2,1,90,0,1
128941,-100,4,2,1,90,0,1
129674,-76.9230769230769,4,2,1,70,0,0
130041,-100,4,2,1,70,0,0
130407,-33.3333333333333,4,2,1,90,0,1
134805,-100,4,2,1,90,0,1
136088,-50,4,2,1,90,0,1
136271,-33.3333333333333,4,2,1,90,0,1
140670,-100,4,2,1,90,0,1
141403,-66.6666666666667,4,2,1,90,0,1
142136,-50,4,2,1,70,0,0
143602,-55.5555555555556,4,2,1,67,0,0
145068,-62.5,4,2,1,64,0,0
146534,-71.4285714285714,4,2,1,61,0,0
148000,-83.3333333333333,4,2,1,58,0,0
149466,-90.9090909090909,4,2,1,55,0,0
150932,-100,4,2,1,50,0,0
152398,-111.111111111111,4,2,1,50,0,0
153498,-166.666666666666,4,2,1,50,0,0
161195,-100,4,2,1,30,0,0
162661,-100,4,2,2,40,0,0
164127,-100,4,2,1,50,0,0
164860,-100,4,2,2,60,0,0
165593,-25,4,2,1,100,0,0

[Colours]
Combo1 : 239,239,239
Combo2 : 163,163,163
Combo3 : 64,198,255
Combo4 : 20,116,255
Combo5 : 255,182,67
Combo6 : 255,129,33

[HitObjects]
146,248,1985,86,0,L|138:192,1,52.5000020027161,0|0,3:0|3:0,0:0:0:0:
58,173,2115,2,0,L|72:101,3,52.5000020027161,8|0|2|2,0:0|0:0|0:3|0:3,0:0:0:0:
44,264,2376,5,2,0:3:0:0:
44,264,2441,1,2,0:3:0:0:
44,264,2507,2,0,L|220:296,1,157.500006008148,0|0,3:0|0:0,0:0:0:0:
198,292,2769,1,2,0:0:0:0:
229,127,2900,70,0,L|258:230,1,105.000004005432,0|0,3:0|0:0,0:0:0:0:
257,228,3096,1,0,3:0:0:0:
257,228,3161,1,8,0:0:0:0:
475,286,3292,5,2,0:0:0:0:
478,259,3357,1,2,0:0:0:0:
481,233,3422,1,2,0:3:0:0:
484,207,3488,1,2,0:3:0:0:
487,181,3553,1,2,0:0:0:0:
491,155,3618,1,2,0:0:0:0:
494,129,3684,1,2,0:3:0:0:
497,103,3749,1,2,0:3:0:0:
500,77,3814,69,0,3:0:0:0:
395,212,3945,2,0,P|328:197|309:100,1,157.500006008148,0|0,3:0|0:0,0:0:0:0:
301,119,4207,1,8,0:0:0:0:
420,59,4337,6,0,L|354:70,1,52.5000020027161,2|0,0:0|0:0,0:0:0:0:
304,19,4468,2,0,L|179:4,1,105.000004005432,0|0,0:0|3:0,0:0:0:0:
32,154,4730,69,2,0:0:0:0:
32,154,4795,1,2,0:3:0:0:
10,63,4926,1,2,0:0:0:0:
10,63,4991,2,0,P|80:55|129:92,1,105.000004005432,0|0,3:0|0:0,0:0:0:0:
108,69,5187,2,0,L|101:132,1,52.5000020027161,0|8,3:0|0:0,0:0:0:0:
192,0,5383,5,2,0:0:0:0:
192,0,5449,1,2,0:0:0:0:
192,0,5514,1,2,0:3:0:0:
258,240,5645,2,0,L|270:289,2,26.2500010013581,8|0|0,0:0|0:0|0:0,0:0:0:0:
322,184,5775,70,0,L|332:106,4,52.5000020027161,0|0|0|0|0,3:0|3:0|3:0|3:0|3:0,0:0:0:0:
391,232,6168,1,0,3:0:0:0:
283,348,6298,2,0,L|367:333,1,52.5000020027161,2|0,0:0|0:0,0:0:0:0:
512,338,6429,5,2,0:3:0:0:
507,317,6494,1,0,0:0:0:0:
502,297,6559,1,2,0:3:0:0:
497,276,6625,1,0,0:0:0:0:
492,256,6690,1,2,0:3:0:0:
487,235,6756,70,0,L|475:311,1,52.5000020027161,2|0,0:0|0:0,0:0:0:0:
301,268,6886,2,0,L|325:116,1,105.000004005432,2|0,0:0|0:0,0:0:0:0:
318,165,7083,2,0,L|435:147,1,105.000004005432,0|2,3:0|0:0,0:0:0:0:
426,123,7278,1,2,0:0:0:0:
430,97,7343,1,2,0:0:0:0:
435,71,7409,5,2,3:2:0:0:
167,16,7671,2,0,L|176:88,1,52.5000020027161,0|0,3:0|0:0,0:0:0:0:
193,194,7801,69,12,0:0:0:0:
254,80,7932,1,0,3:0:0:0:
86,12,8063,1,2,3:0:0:0:
193,194,8194,5,2,3:0:0:0:
227,201,8259,1,0,3:0:0:0:
261,208,8324,1,0,3:0:0:0:
295,216,8390,1,0,3:0:0:0:
151,355,8520,69,0,3:0:0:0:
151,355,8586,1,0,3:0:0:0:
151,355,8651,2,0,L|125:213,1,105.000004005432,0|0,3:0|3:0,0:0:0:0:
305,356,8978,5,0,3:0:0:0:
365,347,9043,1,2,0:3:0:0:
403,298,9108,1,2,0:3:0:0:
397,237,9174,2,0,L|253:207,1,105.000004005432,0|0,3:0|0:0,0:0:0:0:
294,215,9370,1,0,3:0:0:0:
294,215,9435,1,8,0:0:0:0:
75,194,9566,70,0,L|95:256,2,52.5000020027161,2|2|0,0:0|0:0|3:0,0:0:0:0:
14,19,9828,2,0,P|99:7|142:136,1,210.000008010865,12|2,0:0|0:3,0:0:0:0:
144,100,10154,1,2,0:0:0:0:
133,98,10219,1,2,0:0:0:0:
123,95,10285,1,2,0:0:0:0:
113,92,10350,5,0,3:0:0:0:
311,32,10481,1,2,0:3:0:0:
311,32,10547,1,0,3:0:0:0:
311,32,10612,2,0,L|304:113,1,52.5000020027161,8|0,0:0|0:0,0:0:0:0:
287,286,10743,69,2,0:0:0:0:
287,286,10808,2,0,L|405:266,2,105.000004005432,0|8|8,3:0|0:0|0:0,0:0:0:0:
36,324,11200,5,2,0:0:0:0:
36,324,11266,2,0,L|47:258,1,52.5000020027161,0|0,3:0|0:0,0:0:0:0:
101,375,11396,69,0,0:0:0:0:
152,380,11461,1,2,0:3:0:0:
200,361,11526,1,2,0:3:0:0:
233,321,11592,1,0,0:0:0:0:
242,269,11658,1,2,0:3:0:0:
226,220,11723,1,2,0:3:0:0:
187,185,11788,5,0,3:0:0:0:
367,252,11919,2,0,L|285:234,1,52.5000020027161,2|0,0:0|0:0,0:0:0:0:
225,113,12050,2,0,L|356:87,1,105.000004005432,2|2,0:0|0:3,0:0:0:0:
113,225,12311,69,0,3:0:0:0:
76,186,12377,1,0,3:0:0:0:
98,137,12442,1,0,3:0:0:0:
61,98,12507,1,0,3:0:0:0:
83,50,12573,1,0,3:0:0:0:
44,265,12703,5,2,0:0:0:0:
44,265,12769,2,0,L|246:295,1,157.500006008148,2|0,0:3|3:0,0:0:0:0:
178,52,13096,69,8,0:0:0:0:
178,52,13161,1,2,0:0:0:0:
321,76,13292,2,0,L|329:143,1,52.5000020027161,0|2,3:0|0:0,0:0:0:0:
188,158,13422,2,0,L|196:225,1,52.5000020027161,0|0,3:0|0:0,0:0:0:0:
200,289,13553,5,2,0:0:0:0:
453,367,13684,2,0,P|462:280|480:203,1,140,2|0,0:3|0:0,0:0:0:0:
473,228,14011,70,0,L|480:269,2,26.2500010013581,2|0|0,0:3|0:0|0:0,0:0:0:0:
437,46,14141,2,0,L|430:5,2,26.2500010013581,2|0|0,0:3|0:0|0:0,0:0:0:0:
512,160,14272,5,0,0:0:0:0:
379,100,14403,2,0,L|262:112,1,105.000004005432,0|0,3:0|0:0,0:0:0:0:
37,137,14664,69,0,3:0:0:0:
37,137,14730,1,0,3:0:0:0:
37,137,14795,1,0,3:0:0:0:
211,222,14926,2,0,L|219:170,1,52.5000020027161,0|0,3:0|0:0,0:0:0:0:
243,24,15056,5,2,0:3:0:0:
201,10,15121,1,2,0:3:0:0:
159,18,15186,1,2,0:0:0:0:
125,44,15252,1,2,0:0:0:0:
107,84,15317,1,2,0:3:0:0:
110,127,15382,1,2,0:3:0:0:
133,164,15449,70,0,L|209:184,1,52.5000020027161,2|0,0:0|0:0,0:0:0:0:
303,143,15579,2,0,L|227:123,1,52.5000020027161,2|0,0:0|0:0,0:0:0:0:
20,85,15710,5,2,3:2:0:0:
20,85,15775,2,0,L|9:13,4,52.5000020027161,0|2|0|2|0,0:0|0:0|0:0|0:0|0:0,0:0:0:0:
0,165,16102,69,0,3:0:0:0:
39,162,16167,1,0,3:0:0:0:
76,174,16232,1,0,3:0:0:0:
106,199,16298,1,0,3:0:0:0:
123,234,16363,1,2,0:0:0:0:
268,340,16494,6,0,L|250:210,1,105.000004005432,2|0,0:3|3:0,0:0:0:0:
253,235,16690,1,0,0:0:0:0:
253,235,16756,1,0,3:0:0:0:
123,234,16886,70,0,L|195:215,1,52.5000020027161,2|0,0:0|0:0,0:0:0:0:
322,188,17017,1,0,3:0:0:0:
326,156,17082,1,0,3:0:0:0:
331,125,17147,1,2,0:3:0:0:
335,94,17213,1,2,0:3:0:0:
340,63,17278,1,2,0:3:0:0:
344,32,17343,1,2,0:3:0:0:
222,0,17475,5,2,0:0:0:0:
222,0,17540,2,0,L|235:75,1,52.5000020027161,0|0,3:0|0:0,0:0:0:0:
429,112,17671,2,0,L|416:37,1,52.5000020027161,2|0,0:0|0:0,0:0:0:0:
140,243,17801,69,2,0:3:0:0:
105,205,17866,1,2,0:3:0:0:
108,154,17931,1,2,0:3:0:0:
147,121,17997,1,2,0:3:0:0:
198,126,18063,2,0,L|211:191,3,52.5000020027161,0|0|0|0,3:0|3:0|3:0|3:0,0:0:0:0:
357,125,18324,5,2,0:3:0:0:
391,162,18389,1,2,0:3:0:0:
388,213,18454,1,2,0:3:0:0:
349,246,18520,1,2,0:3:0:0:
298,241,18586,2,0,L|285:176,3,52.5000020027161,0|0|0|0,3:0|3:0|3:0|3:0,0:0:0:0:
226,340,18847,70,0,L|242:252,1,52.5000020027161,2|0,0:0|0:0,0:0:0:0:
267,94,18978,1,2,0:3:0:0:
512,150,19109,5,2,3:0:0:0:
512,150,19174,1,2,3:0:0:0:
502,75,19305,1,2,3:0:0:0:
492,0,19435,1,2,3:0:0:0:
348,101,19566,70,0,L|336:164,1,52.5000020027161,2|0,0:0|0:0,0:0:0:0:
359,105,19697,2,0,L|347:42,1,52.5000020027161,2|0,0:0|0:0,0:0:0:0:
73,52,20408,53,2,0:0:0:0:
73,52,20702,1,2,0:0:0:0:
54,130,20849,1,2,0:0:0:0:
129,152,20996,2,0,P|190:119|278:104,1,140,2|2,0:0|0:0,0:0:0:0:
501,193,21584,5,2,0:0:0:0:
454,383,21731,2,0,L|432:220,1,140,2|0,0:0|0:0,0:0:0:0:
433,144,22172,69,2,0:0:0:0:
298,122,22319,1,2,0:0:0:0:
292,260,22466,1,2,0:0:0:0:
309,45,22613,5,2,0:0:0:0:
351,202,22760,1,2,0:0:0:0:
194,251,22908,1,2,0:0:0:0:
140,192,23055,70,0,L|95:183,2,35,2|0|0,0:0|0:0|0:0,0:0:0:0:
71,370,23496,5,2,0:0:0:0:
131,309,23643,1,2,0:0:0:0:
199,358,23790,1,2,0:0:0:0:
293,309,23937,69,2,0:0:0:0:
246,191,24084,1,2,0:0:0:0:
345,111,24231,1,2,0:0:0:0:
405,166,24378,6,0,L|400:208,2,35,2|0|0,0:0|0:0|0:0,0:0:0:0:
486,309,24795,6,0,L|366:326,1,105.000004005432,0|2,3:0|0:0,0:0:0:0:
383,324,24991,1,0,3:0:0:0:
383,324,25056,1,0,3:0:0:0:
185,383,25187,5,2,0:0:0:0:
185,383,25252,2,0,L|218:257,1,105.000004005432,0|0,3:0|3:0,0:0:0:0:
186,243,25448,1,2,0:3:0:0:
145,225,25513,1,2,0:3:0:0:
101,233,25579,1,2,0:3:0:0:
69,264,25644,1,2,3:3:0:0:
0,123,25775,69,2,0:0:0:0:
0,123,25841,1,0,3:0:0:0:
31,128,25906,1,0,3:0:0:0:
64,133,25971,1,0,3:0:0:0:
96,139,26037,2,0,L|278:86,1,157.500006008148,0|0,3:0|0:0,0:0:0:0:
247,94,26298,5,2,0:3:0:0:
394,48,26429,1,2,0:3:0:0:
360,68,26494,1,2,0:3:0:0:
338,100,26559,1,2,0:3:0:0:
331,138,26625,1,2,0:3:0:0:
342,176,26690,2,0,L|418:196,3,52.5000020027161,0|0|0|0,3:0|3:0|3:0|3:0,0:0:0:0:
287,239,27026,69,2,3:0:0:0:
461,142,27157,2,0,L|443:68,1,52.5000020027161,8|0,0:0|0:0,0:0:0:0:
236,22,27288,2,0,L|254:96,1,52.5000020027161,8|0,0:0|0:0,0:0:0:0:
287,239,27485,5,2,0:0:0:0:
287,239,27550,2,0,L|263:364,1,105.000004005432,2|0,0:0|0:0,0:0:0:0:
267,342,27746,2,0,L|206:362,1,52.5000020027161,0|0,3:0|0:0,0:0:0:0:
353,314,27877,2,0,L|414:294,1,52.5000020027161,0|0,3:0|0:0,0:0:0:0:
472,356,28008,69,2,0:0:0:0:
472,356,28073,1,0,3:0:0:0:
512,209,28204,1,0,3:0:0:0:
430,170,28334,1,2,0:0:0:0:
423,135,28399,1,2,3:0:0:0:
416,101,28464,1,2,0:0:0:0:
409,67,28530,6,0,L|531:92,1,105.000004005432,2|0,3:0|3:0,0:0:0:0:
511,88,28727,1,8,0:0:0:0:
326,164,28857,70,0,L|339:97,1,52.5000020027161,2|2,3:0|3:0,0:0:0:0:
357,1,28988,1,8,0:0:0:0:
221,123,29119,6,0,L|234:190,1,52.5000020027161,2|2,3:0|3:0,0:0:0:0:
245,251,29248,1,8,0:0:0:0:
446,224,29380,69,2,3:0:0:0:
446,224,29445,2,0,L|507:238,3,52.5000020027161,8|0|2|0,0:0|0:0|3:0|0:0,0:0:0:0:
385,161,29707,5,2,0:0:0:0:
385,161,29772,1,2,0:0:0:0:
385,161,29838,2,0,L|257:175,1,105.000004005432,2|2,3:3|0:0,0:0:0:0:
245,251,30034,2,0,L|117:237,1,105.000004005432,2|2,0:0|0:3,0:0:0:0:
59,232,30230,69,0,3:0:0:0:
59,232,30295,2,0,P|126:215|119:119,1,157.500006008148,8|0,0:0|0:0,0:0:0:0:
134,136,30557,6,0,L|120:56,1,52.5000020027161,8|0,0:0|0:0,0:0:0:0:
337,286,30687,2,0,L|351:366,1,52.5000020027161,8|0,0:0|0:0,0:0:0:0:
390,222,30818,69,0,3:0:0:0:
410,225,30883,1,0,3:0:0:0:
431,229,30948,1,0,3:0:0:0:
451,233,31014,1,0,3:0:0:0:
472,237,31079,1,0,3:0:0:0:
493,241,31145,2,0,L|486:176,1,52.5000020027161,0|0,3:0|0:0,0:0:0:0:
464,8,31276,5,2,3:0:0:0:
463,59,31341,1,2,3:0:0:0:
437,104,31406,1,2,3:0:0:0:
392,129,31472,1,2,3:0:0:0:
258,2,31602,70,0,L|269:69,1,52.5000020027161,2|0,0:0|0:0,0:0:0:0:
282,129,31733,2,0,L|435:157,1,105.000004005432,4|0,3:2|0:0,0:0:0:0:
231,190,31929,6,0,L|128:172,1,105.000004005432,4|0,3:2|0:0,0:0:0:0:
246,266,32125,1,0,3:0:0:0:
248,278,32190,1,0,3:0:0:0:
250,291,32255,1,0,3:0:0:0:
252,304,32321,1,0,3:0:0:0:
254,317,32386,1,0,3:0:0:0:
0,384,32517,70,0,L|7:331,2,52.5000020027161,2|2|2,0:0|0:0|0:3,0:0:0:0:
124,277,32779,2,0,L|52:293,1,52.5000020027161,0|0,3:0|0:0,0:0:0:0:
0,105,32910,6,0,L|72:121,1,52.5000020027161,8|0,0:0|0:0,0:0:0:0:
134,134,33040,1,0,3:0:0:0:
134,134,33106,1,2,0:0:0:0:
134,134,33367,70,0,L|112:0,1,105.000004005432,0|0,3:0|0:0,0:0:0:0:
199,174,33563,2,0,L|177:308,1,105.000004005432,0|0,3:0|0:0,0:0:0:0:
181,277,33758,2,0,L|104:295,1,52.5000020027161,2|0,0:0|0:0,0:0:0:0:
253,111,33889,6,0,L|330:93,1,52.5000020027161,2|0,0:3|0:0,0:0:0:0:
372,149,34021,1,8,0:0:0:0:
372,149,34086,1,0,3:0:0:0:
455,8,34217,2,0,L|436:134,1,105.000004005432,0|0,3:0|0:0,0:0:0:0:
439,111,34413,70,0,P|477:169|486:273,2,157.500006008148,0|0|2,3:0|3:0|0:3,0:0:0:0:
372,149,34870,1,0,3:0:0:0:
346,144,34935,1,2,0:3:0:0:
320,140,35000,1,2,0:3:0:0:
294,136,35066,1,2,0:3:0:0:
268,132,35131,1,0,3:0:0:0:
193,28,35262,5,0,3:0:0:0:
193,28,35328,2,0,L|204:102,1,52.5000020027161,0|0,3:0|0:0,0:0:0:0:
213,196,35459,69,0,3:0:0:0:
213,196,35524,2,0,P|179:181|145:177,1,70,8|0,0:0|0:0,0:0:0:0:
280,43,35655,1,2,0:3:0:0:
280,43,35720,2,0,P|313:57|347:61,1,70,8|0,0:0|0:0,0:0:0:0:
500,130,35851,5,2,0:3:0:0:
448,120,35916,1,2,0:3:0:0:
399,136,35981,1,2,0:3:0:0:
363,174,36047,1,2,0:3:0:0:
447,294,36178,70,0,P|433:241|428:205,1,70,0|0,3:0|0:0,0:0:0:0:
268,135,36308,2,0,P|282:188|287:224,1,70,0|0,3:0|0:0,0:0:0:0:
191,377,36438,1,2,0:3:0:0:
344,281,36570,6,0,P|257:228|158:253,1,210,8|0,0:0|0:0,0:0:0:0:
158,253,36831,2,0,L|261:269,1,70,2|0,0:3|0:0,0:0:0:0:
276,343,36962,1,0,3:0:0:0:
276,343,37027,1,0,3:0:0:0:
276,343,37093,1,0,3:0:0:0:
14,251,37223,69,2,0:3:0:0:
28,301,37289,1,2,0:3:0:0:
70,330,37354,1,0,3:0:0:0:
122,326,37419,1,0,3:0:0:0:
115,66,37550,6,0,P|88:146|74:217,1,140,2|0,0:0|0:0,0:0:0:0:
152,229,37746,1,2,0:0:0:0:
152,229,37811,2,0,L|-2:254,1,140,0|0,3:0|0:0,0:0:0:0:
14,251,38008,70,0,L|3:339,2,70,0|0|2,3:0|3:0|0:0,0:0:0:0:
239,384,38269,2,0,P|229:314|232:244,1,140,8|0,0:0|3:0,0:0:0:0:
274,171,38465,5,0,3:0:0:0:
324,149,38530,1,0,3:0:0:0:
350,101,38595,1,0,3:0:0:0:
341,47,38661,1,0,3:0:0:0:
299,11,38726,1,0,3:0:0:0:
244,8,38791,1,0,3:0:0:0:
200,41,38857,1,0,3:0:0:0:
186,94,38922,1,0,3:0:0:0:
132,113,38988,1,0,3:0:0:0:
86,81,39053,1,0,3:0:0:0:
91,24,39119,1,0,3:0:0:0:
91,24,39249,70,0,P|95:65|101:116,1,70,4|0,3:2|0:0,0:0:0:0:
71,169,39380,1,2,0:3:0:0:
71,169,39445,1,2,0:0:0:0:
239,239,39576,5,2,0:0:0:0:
239,239,39642,2,0,P|235:198|229:147,1,70,12|0,0:0|0:0,0:0:0:0:
318,50,39772,70,0,P|299:98|290:162,1,70,2|0,0:0|0:0,0:0:0:0:
90,241,39903,2,0,P|141:233|200:209,1,70,2|0,0:0|0:0,0:0:0:0:
369,342,40034,2,0,P|336:301|286:261,1,70,2|0,0:0|0:0,0:0:0:0:
323,289,40164,1,2,0:0:0:0:
211,99,40949,6,0,P|245:90|277:76,1,70,8|0,0:0|0:0,0:0:0:0:
453,170,41079,2,0,P|384:186|320:214,1,140,0|0,3:0|0:0,0:0:0:0:
320,214,41406,70,0,L|333:98,1,70,8|0,0:0|0:0,0:0:0:0:
381,279,41537,2,0,L|368:395,1,70,8|0,0:0|0:0,0:0:0:0:
114,384,41668,1,8,0:0:0:0:
46,67,41929,5,2,0:3:0:0:
88,66,41994,1,0,3:0:0:0:
129,57,42060,1,0,3:0:0:0:
167,38,42125,1,0,3:0:0:0:
199,11,42191,1,8,0:0:0:0:
29,82,42321,70,0,P|23:39|13:1,2,70,2|2|8,0:3|0:3|0:0,0:0:0:0:
224,175,42583,1,0,3:0:0:0:
177,168,42648,1,0,3:0:0:0:
131,161,42713,1,8,0:0:0:0:
85,154,42779,1,0,3:0:0:0:
276,103,42910,5,2,0:0:0:0:
276,103,42975,1,8,0:0:0:0:
216,355,43106,1,0,3:0:0:0:
31,224,43236,1,8,0:0:0:0:
224,175,43367,69,0,3:0:0:0:
224,175,43432,1,0,3:0:0:0:
224,175,43498,1,0,3:0:0:0:
106,256,43628,6,0,P|139:247|174:241,1,70,0|0,3:0|0:0,0:0:0:0:
344,88,43759,2,0,P|310:96|275:102,1,70,8|0,0:0|0:0,0:0:0:0:
208,53,43890,69,8,0:0:0:0:
373,282,44021,2,0,P|382:218|403:130,1,140,0|0,3:0|0:0,0:0:0:0:
398,144,44217,1,0,3:0:0:0:
512,15,44347,5,8,0:0:0:0:
324,52,44478,2,0,P|315:116|294:204,1,140,0|0,3:0|0:0,0:0:0:0:
224,224,44674,69,0,3:0:0:0:
233,269,44739,1,0,3:0:0:0:
242,315,44804,1,2,0:3:0:0:
251,361,44870,2,0,L|305:375,6,35,12|0|0|0|0|0|0,0:0|0:0|0:0|0:0|0:0|0:0|0:0,0:0:0:0:
176,384,45132,5,0,3:0:0:0:
176,384,45197,1,0,3:0:0:0:
379,256,45328,1,8,0:0:0:0:
379,256,45393,1,0,3:0:0:0:
117,321,45524,70,0,L|90:170,1,140,0|0,3:0|0:0,0:0:0:0:
92,183,45720,2,0,P|139:136|134:58,1,140,0|0,3:0|0:0,0:0:0:0:
78,11,45916,5,0,3:0:0:0:
66,9,45981,1,0,3:0:0:0:
54,8,46046,1,0,3:0:0:0:
43,6,46112,1,0,3:0:0:0:
31,5,46177,1,0,3:0:0:0:
20,3,46242,1,0,3:0:0:0:
8,2,46308,1,0,3:0:0:0:
45,254,46439,69,0,3:0:0:0:
45,254,46504,2,0,L|120:268,1,70,0|0,3:0|0:0,0:0:0:0:
275,141,46635,2,0,L|200:127,1,70,8|0,0:0|0:0,0:0:0:0:
131,156,46766,5,2,3:3:0:0:
111,107,46831,1,2,3:3:0:0:
123,57,46896,1,2,3:2:0:0:
161,22,46962,1,2,3:2:0:0:
475,288,47158,69,0,3:0:0:0:
335,314,47289,2,0,L|326:387,2,70,2|2|2,0:0|0:0|0:3,0:0:0:0:
379,245,47485,6,0,L|426:230,2,35,2|0|0,0:3|0:0|0:0,0:0:0:0:
320,186,47615,2,0,L|238:170,1,70,2|0,0:3|0:0,0:0:0:0:
252,360,47746,69,0,3:0:0:0:
252,360,47811,2,0,P|237:313|190:222,1,140,0|0,3:0|0:0,0:0:0:0:
196,232,48007,6,0,P|194:266|183:300,1,70,2|0,0:0|0:0,0:0:0:0:
15,267,48138,2,0,P|17:232|28:199,1,70,2|0,0:0|0:0,0:0:0:0:
105,170,48269,69,0,3:0:0:0:
105,170,48334,1,0,3:0:0:0:
75,17,48465,1,0,3:0:0:0:
120,24,48530,1,0,3:0:0:0:
166,31,48595,1,0,3:0:0:0:
212,38,48661,1,0,3:0:0:0:
40,90,48792,6,0,P|35:124|25:158,1,70,2|0,0:0|3:0,0:0:0:0:
141,302,48923,2,0,P|146:268|155:233,1,70,2|0,0:3|0:0,0:0:0:0:
256,110,49053,69,2,0:3:0:0:
256,110,49119,2,0,L|409:81,1,140,0|0,0:0|3:0,0:0:0:0:
447,342,49380,5,2,0:3:0:0:
232,189,49510,1,8,0:0:0:0:
439,17,49641,1,2,0:3:0:0:
425,193,49772,1,8,0:0:0:0:
425,193,49903,70,0,P|474:179|521:171,1,70,0|0,3:0|0:0,0:0:0:0:
319,144,50034,2,0,P|270:158|223:166,1,70,8|0,0:0|0:0,0:0:0:0:
396,115,50164,2,0,P|382:66|374:19,1,70,8|0,0:0|0:0,0:0:0:0:
347,221,50295,2,0,P|361:270|369:317,1,70,0|0,3:0|0:0,0:0:0:0:
490,243,50426,6,0,L|471:396,1,140,0|8,3:0|0:0,0:0:0:0:
22,141,50687,2,0,L|41:-12,1,140,0|8,3:0|0:0,0:0:0:0:
288,32,50949,69,0,3:0:0:0:
265,37,51014,1,8,0:0:0:0:
242,43,51079,1,0,3:0:0:0:
220,49,51145,1,8,0:0:0:0:
306,222,51276,5,0,3:0:0:0:
266,264,51341,1,0,3:0:0:0:
211,277,51406,1,8,0:0:0:0:
157,256,51472,1,0,3:0:0:0:
124,209,51537,1,0,3:0:0:0:
124,151,51602,1,0,3:0:0:0:
156,104,51668,70,0,P|166:151|166:194,1,70,8|0,0:0|0:0,0:0:0:0:
257,256,51798,2,0,P|247:209|247:166,1,70,8|0,0:0|0:0,0:0:0:0:
146,347,51929,5,2,0:0:0:0:
146,347,51994,1,0,3:0:0:0:
283,384,52125,69,0,3:0:0:0:
288,349,52190,1,0,3:0:0:0:
292,314,52255,1,0,3:0:0:0:
297,279,52321,1,0,3:0:0:0:
301,245,52386,1,0,3:0:0:0:
240,110,52517,5,0,3:0:0:0:
309,84,52583,1,8,0:0:0:0:
379,106,52647,1,0,3:0:0:0:
423,165,52713,1,0,3:0:0:0:
422,238,52778,1,0,3:0:0:0:
211,185,52909,70,0,L|226:298,2,70,4|0|0,0:0|0:0|0:0,0:0:0:0:
65,191,57393,6,2,B|60:207|60:225|60:225|60:270|60:270|60:225|60:225|60:243|67:260|67:260|67:321|67:321|67:260|67:260|74:277|86:291|86:291|86:335|86:335|86:291|86:291|98:304|114:313|114:313|114:372|114:372|114:313|114:313|130:321|148:323|148:323|148:350|148:350|148:323|148:323|166:326|183:321|183:321|183:363|183:363|183:321|183:321|201:317|216:307|216:307|216:368|216:368|216:307|216:307|231:297|242:282|242:282|242:325|242:325|242:282|242:282|253:267|257:249|257:249|257:310|257:310|257:249|257:249|261:232|260:214|260:214|260:258|260:258|260:214|260:214|259:202|256:192|256:192|254:184|253:180|253:180|253:180|253:180|249:162|252:144|252:144|252:160|252:160|252:144|252:144|255:126|263:110|263:110|263:151|263:151|263:110|263:110|272:94|286:82|286:82|286:117|286:117|286:82|286:82|300:70|317:64|317:64|317:124|317:124|317:64|317:64|334:58|352:58|352:58|352:97|352:97|352:58|352:58|371:58|388:65|388:65|388:81|388:81|388:65|388:65|404:72|417:84|417:84|417:146|417:146|417:84|417:84|431:96|439:112|439:112|439:145|439:145|439:112|439:112|446:128|450:146|450:146|450:176|450:176|450:146|450:146|453:164|449:182|449:182|449:190|449:190|449:182|449:182|448:187|445:193,1,2415.00004606247,0|0,0:0|0:0,0:1:0:0:
505,234,65949,70,2,B|481:230|481:230|481:259|481:259|481:230|481:230|459:226|459:226|459:265|459:265|459:226|459:226|435:222|435:222|435:252|435:252|435:222|435:222|412:218|412:218|412:258|412:258|412:218|412:218|389:214|389:214|389:232|389:232|389:214|389:214|366:210|366:210|366:237|366:237|366:210|366:210|343:206|343:206|343:247|343:247|343:206|343:206|320:203|320:203|320:230|320:230|320:203|320:203|296:199|296:199|296:237|296:237|296:199|296:199|274:195|274:195|274:223|274:223|274:195|274:195|250:190|250:190|250:209|250:209|250:190|250:190|227:186|227:186|227:197|227:197|227:186|227:186|204:182|204:182|204:209|204:209|204:182|204:182|181:178|181:178|181:201|181:201|181:178|181:178|158:174|158:174|158:213|158:213|158:174|158:174|135:170|135:170|135:196|135:196|135:170|135:170|111:166|111:166|111:176|111:176|111:166|111:166|89:162|89:162|89:203|89:203|89:162|89:162|65:158|65:158|65:179|65:179|65:158|65:158|42:154|42:154|42:173|42:173|42:154|42:154|19:150|19:150|19:155|19:155|19:150|19:150|11:149,1,1617.00001542091,0|0,0:0|0:0,0:1:0:0:
152,68,70227,5,2,0:0:0:0:
152,68,70358,2,0,L|177:257,1,175
55,350,71275,69,2,0:0:0:0:
132,338,71519,1,2,0:0:0:0:
117,261,71763,1,2,0:0:0:0:
40,273,72007,1,2,0:0:0:0:
428,72,72741,6,0,L|442:154,1,70,2|2,0:0|0:0,0:0:0:0:
500,353,73475,69,2,0:0:0:0:
428,380,73719,1,2,0:0:0:0:
368,332,73964,1,2,0:0:0:0:
380,256,74208,1,2,0:0:0:0:
452,228,74453,1,2,0:0:0:0:
512,276,74697,1,2,0:0:0:0:
277,380,75186,6,2,L|189:362,2,70,0|0|0,0:0|0:0|0:0,0:0:0:0:
38,141,76409,69,2,0:0:0:0:
38,141,76653,2,2,L|62:313,1,140,0|0,0:0|0:0,0:0:0:0:
271,40,77876,6,0,L|166:26,1,70,2|2,0:0|0:0,0:0:0:0:
271,40,78609,2,2,L|166:26,1,70,0|0,0:0|0:0,0:0:0:0:
271,40,79343,2,2,L|166:26,1,70,0|0,0:0|0:0,0:0:0:0:
493,169,80321,70,2,L|481:101,2,70,0|0|0,0:0|0:0|0:0,0:0:0:0:
130,242,81299,6,2,L|228:211,1,70,0|0,0:0|0:0,0:0:0:0:
274,192,81788,1,2,0:0:0:0:
261,275,82032,1,2,0:0:0:0:
45,374,82521,70,2,L|37:282,1,70,0|0,0:0|0:0,0:0:0:0:
103,258,83010,1,2,0:0:0:0:
175,285,83254,1,2,0:0:0:0:
235,236,83499,1,2,0:0:0:0:
163,209,83743,1,2,0:0:0:0:
222,159,83988,1,2,0:0:0:0:
294,186,84232,1,2,0:0:0:0:
354,137,84477,1,2,0:0:0:0:
282,110,84721,1,2,0:0:0:0:
117,81,84966,6,2,L|130:186,1,70,0|0,0:0|0:0,0:0:0:0:
107,77,85455,2,2,L|120:182,1,70,0|0,0:0|0:0,0:0:0:0:
128,373,86678,70,2,L|42:351,1,70,0|0,0:0|0:0,0:0:0:0:
371,86,87656,5,2,0:0:0:0:
299,59,87900,1,2,0:0:0:0:
239,107,88145,1,2,0:0:0:0:
251,183,88389,1,2,0:0:0:0:
323,211,88634,1,2,0:0:0:0:
383,163,88878,1,2,0:0:0:0:
371,86,89123,1,2,0:0:0:0:
237,317,89612,69,2,0:0:0:0:
127,357,89856,1,2,0:0:0:0:
37,285,90101,1,2,0:0:0:0:
55,170,90345,1,2,0:0:0:0:
164,127,90590,1,2,0:0:0:0:
255,200,90834,1,2,0:0:0:0:
237,317,91079,6,2,L|146:301,2,70,0|0|0,0:0|0:0|0:0,0:0:0:0:
437,97,92301,69,2,0:0:0:0:
512,85,92546,1,2,0:0:0:0:
501,9,92791,1,2,0:0:0:0:
425,20,93035,1,2,0:0:0:0:
265,330,93524,6,2,L|177:313,1,70,0|0,0:0|0:0,0:0:0:0:
265,330,94013,2,2,L|177:313,1,70,0|0,0:0|0:0,0:0:0:0:
196,316,94502,1,2,0:0:0:0:
188,144,94746,69,2,0:0:0:0:
106,165,94991,1,2,0:0:0:0:
85,246,95235,1,2,0:0:0:0:
144,306,95480,1,2,0:0:0:0:
225,284,95724,1,2,0:0:0:0:
247,203,95969,1,2,0:0:0:0:
188,144,96213,1,2,0:0:0:0:
359,34,96702,5,2,0:0:0:0:
481,65,96947,1,2,0:0:0:0:
512,185,97191,1,2,0:0:0:0:
424,275,97436,1,2,0:0:0:0:
303,242,97680,1,2,0:0:0:0:
271,121,97925,1,2,0:0:0:0:
359,34,98169,69,2,0:0:0:0:
347,112,98414,1,2,0:0:0:0:
406,165,98658,1,2,0:0:0:0:
418,87,98903,1,2,0:0:0:0:
361,33,99147,5,2,0:0:0:0:
346,110,99392,1,2,0:0:0:0:
403,165,99636,1,2,0:0:0:0:
418,88,99881,1,2,0:0:0:0:
363,32,100125,69,2,0:0:0:0:
346,109,100370,1,2,0:0:0:0:
401,166,100614,1,2,0:0:0:0:
418,89,100859,1,2,0:0:0:0:
365,31,101103,5,2,0:0:0:0:
345,108,101348,1,2,0:0:0:0:
399,167,101592,1,2,0:0:0:0:
419,90,101837,1,2,0:0:0:0:
368,31,102081,69,2,0:0:0:0:
345,106,102326,1,2,0:0:0:0:
396,167,102570,1,2,0:0:0:0:
419,92,102815,1,2,0:0:0:0:
370,30,103059,5,2,0:0:0:0:
345,105,103304,1,2,0:0:0:0:
394,168,103548,1,2,0:0:0:0:
419,93,103793,1,2,0:0:0:0:
373,30,104037,69,2,0:0:0:0:
345,104,104282,1,2,0:0:0:0:
391,168,104526,1,2,0:0:0:0:
419,94,104771,1,2,0:0:0:0:
375,30,105015,5,2,0:0:0:0:
345,103,105260,1,2,0:0:0:0:
389,168,105504,1,2,0:0:0:0:
419,95,105749,1,2,0:0:0:0:
377,30,105993,69,2,0:0:0:0:
344,101,106238,1,2,0:0:0:0:
387,168,106482,1,2,0:0:0:0:
420,97,106727,1,2,0:0:0:0:
100,53,106950,22,0,L|83:158,1,93.3333333333333,0|0,3:0|0:0,0:0:0:0:
85,145,107194,1,2,0:0:0:0:
169,8,107316,2,0,P|253:39|255:157,1,186.666666666667,2|0,3:0|0:0,0:0:0:0:
211,179,107683,6,0,L|7:217,1,186.666666666667,2|0,3:0|0:0,0:0:0:0:
134,242,108049,1,2,3:0:0:0:
119,156,108171,1,0,0:0:0:0:
134,242,108293,1,0,0:0:0:0:
217,260,108416,70,0,L|197:369,1,93.3333333333333,0|0,3:0|0:0,0:0:0:0:
200,352,108660,1,2,0:0:0:0:
70,379,108782,2,0,P|26:293|71:194,1,186.666666666667,2|0,3:0|0:0,0:0:0:0:
13,126,109149,6,0,L|215:150,1,186.666666666667,2|0,3:0|0:0,0:0:0:0:
285,120,109515,1,2,3:0:0:0:
258,209,109637,1,0,0:0:0:0:
349,186,109760,1,0,0:0:0:0:
263,41,109882,70,0,L|143:64,1,93.3333333333333,0|0,3:0|0:0,0:0:0:0:
171,59,110126,1,2,0:0:0:0:
323,97,110248,2,0,P|310:181|339:288,1,186.666666666667,2|0,3:0|0:0,0:0:0:0:
363,384,110615,6,0,L|393:186,1,186.666666666667,2|0,3:0|0:0,0:0:0:0:
473,205,110981,2,0,L|447:93,1,93.3333333333333,2|0,3:0|0:0,0:0:0:0:
452,114,111226,1,0,0:0:0:0:
497,53,111348,69,0,3:0:0:0:
212,21,111531,1,2,0:0:0:0:
351,272,111714,1,2,3:0:0:0:
433,0,111898,1,2,0:0:0:0:
183,98,112081,6,0,P|229:192|235:294,1,186.666666666667,2|0,3:0|0:0,0:0:0:0:
131,166,112447,2,0,P|33:169|30:79,1,186.666666666667,2|0,3:0|0:0,0:0:0:0:
183,98,112814,70,0,L|288:119,1,93.3333333333333,0|0,3:0|0:0,0:0:0:0:
275,116,113058,1,2,0:0:0:0:
431,20,113180,2,0,P|329:-3|243:48,1,186.666666666667,2|0,3:0|0:0,0:0:0:0:
172,20,113547,6,0,L|223:219,1,186.666666666667,2|0,3:0|0:0,0:0:0:0:
314,300,113913,1,2,3:0:0:0:
173,266,114036,1,0,0:0:0:0:
314,300,114158,1,0,0:0:0:0:
258,359,114280,70,0,L|142:378,1,93.3333333333333,0|0,3:0|0:0,0:0:0:0:
166,374,114524,1,2,0:0:0:0:
11,342,114647,2,0,P|-8:244|65:178,1,186.666666666667,2|0,3:0|0:0,0:0:0:0:
100,237,115013,6,0,L|306:273,1,186.666666666667,2|0,3:0|0:0,0:0:0:0:
457,256,115380,1,2,3:0:0:0:
436,346,115502,1,0,0:0:0:0:
366,283,115624,1,0,0:0:0:0:
470,173,115746,70,0,L|485:279,1,93.3333333333333,0|0,3:0|0:0,0:0:0:0:
483,265,115990,1,2,0:0:0:0:
317,368,116113,2,0,P|217:368|209:253,1,186.666666666667,2|0,3:0|0:0,0:0:0:0:
204,213,116479,6,0,L|389:168,1,186.666666666667,2|0,3:0|0:0,0:0:0:0:
151,152,116846,2,0,L|50:132,1,93.3333333333333,2|0,3:0|0:0,0:0:0:0:
59,134,117090,1,0,0:0:0:0:
13,210,117212,69,0,3:0:0:0:
295,339,117395,1,2,0:0:0:0:
228,33,117579,1,2,3:0:0:0:
29,288,117762,1,2,0:0:0:0:
367,321,117945,6,0,P|337:213|329:127,1,186.666666666667,2|0,3:0|0:0,0:0:0:0:
227,189,118312,2,0,P|248:134|255:71,1,116.666666666667,2|0,3:0|0:0,0:0:0:0:
267,264,118678,6,0,P|342:236|470:364,1,262.500010013581,4|0,3:2|0:0,0:0:0:0:
468,342,118953,1,2,0:0:0:0:
375,384,119045,2,0,L|388:303,2,52.5000020027161,10|0|0,0:0|0:0|0:0,0:0:0:0:
349,79,119228,6,0,P|378:67|417:72,1,52.5000020027161,6|0,3:2|0:0,0:0:0:0:
320,154,119320,2,0,P|315:185|292:216,1,52.5000020027161,2|0,0:0|0:0,0:0:0:0:
269,91,119411,2,0,P|244:71|228:35,1,52.5000020027161,2|0,0:3|0:0,0:0:0:0:
475,16,119595,70,0,P|508:84|487:192,1,157.500006008148,0|0,3:0|0:0,0:0:0:0:
501,163,119778,2,0,P|445:145|385:137,1,105.000004005432,8|0,0:0|0:0,0:0:0:0:
299,9,119961,2,0,P|229:37|129:49,1,157.500006008148,0|0,3:0|0:0,0:0:0:0:
148,49,120144,5,4,3:2:0:0:
69,384,120328,2,0,L|87:320,2,52.5000020027161
54,253,120511,69,8,0:0:0:0:
396,344,120694,2,0,P|365:249|348:170,1,157.500006008148,0|0,3:0|0:0,0:0:0:0:
429,171,120877,6,0,L|443:121,1,52.5000020027161,2|0,0:3|0:0,0:0:0:0:
439,177,120969,2,0,L|453:127,1,52.5000020027161,2|0,0:3|0:0,0:0:0:0:
449,183,121061,2,0,L|463:133,1,52.5000020027161,2|0,3:3|0:0,0:0:0:0:
214,14,121244,70,0,B|97:45|167:69|5:98,1,210.000008010865,8|2,0:0|0:0,0:0:0:0:
290,41,121519,1,2,0:0:0:0:
241,105,121610,2,0,L|270:222,3,105.000004005432,0|2|2|2,3:0|0:0|0:0|0:0,0:0:0:0:
194,300,121977,6,0,P|200:274|200:248,1,52.5000020027161,8|0,0:0|0:0,0:0:0:0:
188,295,122069,2,0,P|194:269|194:243,1,52.5000020027161,2|0,0:3|0:0,0:0:0:0:
348,216,122160,70,0,P|341:241|341:267,1,52.5000020027161,2|0,3:3|0:0,0:0:0:0:
354,221,122252,2,0,P|347:246|347:272,1,52.5000020027161,2|0,0:3|0:0,0:0:0:0:
276,332,122344,5,2,0:0:0:0:
285,327,122435,1,2,0:0:0:0:
280,318,122527,1,2,3:2:0:0:
271,323,122618,1,2,0:0:0:0:
355,363,122710,70,0,P|402:346|476:334,1,105.000004005432,8|0,0:0|0:0,0:0:0:0:
215,262,122893,2,0,P|163:256|39:215,1,157.500006008148,2|0,0:0|0:0,0:0:0:0:
62,225,123077,6,0,L|46:298,1,70,0|0,3:0|0:0,0:0:0:0:
96,366,123443,1,8,0:0:0:0:
428,267,123626,1,2,0:0:0:0:
432,257,123718,1,0,0:0:0:0:
422,257,123810,69,2,0:3:0:0:
290,259,123993,1,0,3:0:0:0:
355,299,124085,1,0,3:0:0:0:
376,373,124176,5,8,0:0:0:0:
478,196,124359,2,0,P|484:150|500:94,1,70,0|0,3:0|0:0,0:0:0:0:
489,127,124543,70,0,B|331:93|408:61|245:24,1,262.500010013581,4|0,3:2|0:0,0:0:0:0:
250,25,124818,1,2,0:0:0:0:
176,112,124909,2,0,L|89:122,2,52.5000020027161,10|0|0,0:0|0:0|0:0,0:0:0:0:
344,234,125092,6,0,P|319:224|294:218,1,52.5000020027161,6|0,3:2|0:0,0:0:0:0:
230,285,125184,2,0,P|250:268|268:249,1,52.5000020027161,2|0,0:0|0:0,0:0:0:0:
241,161,125276,2,0,P|244:186|252:212,1,52.5000020027161,2|0,0:3|0:0,0:0:0:0:
434,384,125459,70,0,P|421:311|432:186,1,157.500006008148,0|0,3:0|0:0,0:0:0:0:
423,227,125642,2,0,L|529:201,1,105.000004005432,8|0,0:0|0:0,0:0:0:0:
308,338,125825,2,0,L|105:312,1,157.500006008148,0|0,3:0|0:0,0:0:0:0:
151,317,126009,5,4,3:2:0:0:
42,65,126192,2,0,L|113:49,2,52.5000020027161
158,0,126375,69,8,0:0:0:0:
88,370,126559,2,0,P|10:350|10:245,1,157.500006008148,0|0,3:0|0:0,0:0:0:0:
46,225,126742,6,0,L|31:160,1,52.5000020027161,2|0,0:3|0:0,0:0:0:0:
36,219,126833,2,0,L|21:154,1,52.5000020027161,2|0,0:3|0:0,0:0:0:0:
26,213,126925,2,0,L|11:148,1,52.5000020027161,2|0,3:3|0:0,0:0:0:0:
310,42,127108,70,0,L|286:323,1,262.500010013581,8|0,0:0|0:0,0:0:0:0:
219,329,127383,1,2,0:0:0:0:
169,273,127475,2,0,L|38:306,3,105.000004005432,0|2|2|2,3:0|0:0|0:0|0:0,0:0:0:0:
270,219,127841,6,0,P|243:210|192:205,1,52.5000020027161,8|0,0:0|0:0,0:0:0:0:
273,208,127933,2,0,P|246:199|195:194,1,52.5000020027161,2|0,0:3|0:0,0:0:0:0:
203,30,128025,70,0,P|230:39|281:44,1,52.5000020027161,2|0,3:3|0:0,0:0:0:0:
200,41,128117,2,0,P|227:50|278:55,1,52.5000020027161,2|0,0:3|0:0,0:0:0:0:
307,131,128208,5,2,0:0:0:0:
312,122,128299,1,2,0:0:0:0:
303,117,128391,1,2,3:2:0:0:
298,126,128482,1,2,0:0:0:0:
391,148,128574,70,0,P|404:207|418:256,1,105.000004005432,8|0,0:0|0:0,0:0:0:0:
232,362,128758,2,0,P|246:280|251:183,1,157.500006008148,2|0,0:0|0:0,0:0:0:0:
251,206,128941,6,0,L|322:212,1,70,0|2,3:0|0:0,0:0:0:0:
391,148,129307,1,8,0:0:0:0:
429,361,129491,2,0,L|433:394,2,17.5,2|0|0,0:0|0:0|0:0,0:0:0:0:
429,361,129674,70,2,P|436:291|456:220,1,136.499993751526,0|0,0:0|0:0,0:1:0:0:
354,274,130041,2,2,P|340:223|318:175,1,105,0|0,0:0|0:0,0:1:0:0:
297,339,130407,6,0,L|14:382,1,262.500010013581,4|0,3:2|0:0,0:0:0:0:
37,378,130682,1,2,0:0:0:0:
1,280,130774,2,0,L|87:295,2,52.5000020027161,10|0|0,0:0|0:0|0:0,0:0:0:0:
153,107,130957,70,0,P|169:128|179:153,1,52.5000020027161,6|0,3:2|0:0,0:0:0:0:
144,237,131048,2,0,P|154:212|170:192,1,52.5000020027161,2|0,0:0|0:0,0:0:0:0:
260,181,131140,2,0,P|234:184|208:180,1,52.5000020027161,2|0,0:3|0:0,0:0:0:0:
40,208,131323,6,0,P|28:129|-2:17,1,157.500006008148,0|0,3:0|0:0,0:0:0:0:
9,53,131507,2,0,L|128:29,1,105.000004005432,8|0,0:0|0:0,0:0:0:0:
307,111,131690,2,0,L|283:288,1,157.500006008148,0|0,3:0|0:0,0:0:0:0:
285,267,131873,69,4,3:2:0:0:
495,77,132056,2,0,L|484:20,2,52.5000020027161
512,155,132240,5,8,0:0:0:0:
170,45,132423,2,0,P|224:-8|299:3,1,157.500006008148
363,51,132606,70,0,L|356:107,1,52.5000020027161,2|0,0:3|0:0,0:0:0:0:
369,58,132698,2,0,L|362:114,1,52.5000020027161,2|0,0:3|0:0,0:0:0:0:
375,65,132789,2,0,L|368:121,1,52.5000020027161,2|0,3:3|0:0,0:0:0:0:
508,374,132973,6,0,P|479:297|450:151,1,210.000008010865,8|2,0:0|0:0,0:0:0:0:
417,363,133248,1,2,0:0:0:0:
356,315,133339,2,0,L|381:191,3,105.000004005432,0|2|2|2,3:0|0:0|0:0|0:0,0:0:0:0:
316,159,133706,70,0,P|291:172|250:179,1,52.5000020027161,8|0,0:0|0:0,0:0:0:0:
311,149,133797,2,0,P|286:162|245:169,1,52.5000020027161,2|0,0:3|0:0,0:0:0:0:
215,241,133889,6,0,P|190:228|149:221,1,52.5000020027161,2|0,3:3|0:0,0:0:0:0:
210,251,133980,2,0,P|185:238|144:231,1,52.5000020027161,2|0,0:3|0:0,0:0:0:0:
100,179,134072,69,2,0:0:0:0:
82,182,134163,1,2,0:0:0:0:
65,186,134255,1,2,3:2:0:0:
48,190,134346,1,2,0:0:0:0:
1,117,134439,6,0,P|1:60|-10:-3,1,105.000004005432,8|0,0:0|0:0,0:0:0:0:
170,217,134622,2,0,P|158:289|163:392,1,157.500006008148,2|0,0:0|0:0,0:0:0:0:
160,373,134805,70,0,L|89:364,1,70,0|0,3:0|0:0,0:0:0:0:
197,302,135172,1,8,0:0:0:0:
89,97,135355,1,2,0:0:0:0:
85,107,135447,1,0,0:0:0:0:
95,107,135539,5,2,0:3:0:0:
243,214,135722,1,0,3:0:0:0:
296,160,135813,1,0,3:0:0:0:
369,185,135905,69,8,0:0:0:0:
152,157,136088,2,0,L|238:137,1,70,0|0,3:0|0:0,0:0:0:0:
220,141,136271,6,0,P|185:83|313:95,1,262.500010013581,4|0,3:2|0:0,0:0:0:0:
312,72,136546,1,2,0:0:0:0:
226,61,136638,2,0,L|208:-4,2,52.5000020027161,10|0|0,0:0|0:0|0:0,0:0:0:0:
179,270,136821,70,0,L|241:254,1,52.5000020027161,6|0,3:2|0:0,0:0:0:0:
340,320,136913,2,0,L|295:274,1,52.5000020027161,2|0,0:0|0:0,0:0:0:0:
303,155,137004,2,0,L|285:216,1,52.5000020027161,2|0,0:3|0:0,0:0:0:0:
154,384,137188,6,0,P|60:366|-33:383,1,157.500006008148,0|0,3:0|0:0,0:0:0:0:
0,373,137371,2,0,L|19:257,1,105.000004005432,8|0,0:0|0:0,0:0:0:0:
237,98,137554,2,0,P|316:130|406:126,1,157.500006008148,0|0,3:0|0:0,0:0:0:0:
387,130,137738,69,4,3:2:0:0:
93,237,137921,2,0,L|107:303,2,52.5000020027161
141,167,138104,5,8,0:0:0:0:
431,358,138287,2,0,L|459:167,1,157.500006008148,0|0,3:0|0:0,0:0:0:0:
355,323,138471,70,0,L|292:346,1,52.5000020027161,2|0,0:3|0:0,0:0:0:0:
351,311,138562,2,0,L|288:334,1,52.5000020027161,2|0,0:3|0:0,0:0:0:0:
347,299,138654,2,0,L|284:322,1,52.5000020027161,2|0,3:3|0:0,0:0:0:0:
506,130,138837,6,0,P|489:55|348:41,1,210.000008010865,8|2,0:0|0:0,0:0:0:0:
373,223,139112,1,2,0:0:0:0:
297,185,139204,2,0,L|315:81,3,105.000004005432,0|2|2|2,3:0|0:0|0:0|0:0,0:0:0:0:
390,140,139570,70,0,P|416:132|455:129,1,52.5000020027161,8|0,0:0|0:0,0:0:0:0:
385,130,139662,2,0,P|411:122|450:119,1,52.5000020027161,2|0,0:3|0:0,0:0:0:0:
211,183,139753,6,0,P|185:191|146:194,1,52.5000020027161,2|0,3:3|0:0,0:0:0:0:
216,193,139845,2,0,P|190:201|151:204,1,52.5000020027161,2|0,0:3|0:0,0:0:0:0:
296,141,139937,69,2,0:0:0:0:
284,107,140028,1,2,0:0:0:0:
306,117,140120,1,2,3:2:0:0:
273,128,140212,1,2,0:0:0:0:
197,100,140303,6,0,P|175:40|191:-32,1,105.000004005432,8|0,0:0|0:0,0:0:0:0:
390,140,140486,2,0,P|409:181|395:298,1,157.500006008148,2|0,0:0|0:0,0:0:0:0:
399,290,140670,70,0,L|384:213,1,70,0|2,3:0|0:0,0:0:0:0:
480,321,141036,1,8,0:0:0:0:
160,379,141220,2,0,L|128:389,2,17.5,2|0|0,0:0|0:0|0:0,0:0:0:0:
160,379,141403,6,2,P|153:313|142:265,1,105.000004005432,2|0,0:0|3:0,0:1:0:0:
165,201,141678,1,0,3:0:0:0:
165,201,141769,2,2,P|256:191|286:249,1,157.500006008148,8|0,0:0|0:0,0:1:0:0:
250,308,142136,38,0,L|345:330,1,93.3333333333333,0|0,3:0|0:0,0:0:0:0:
340,329,142380,1,2,0:0:0:0:
490,274,142502,2,0,P|509:166|455:88,1,186.666666666667,2|0,3:0|0:0,0:0:0:0:
406,141,142869,6,0,L|208:175,1,186.666666666667,2|0,3:0|0:0,0:0:0:0:
31,203,143235,1,2,3:0:0:0:
147,232,143358,1,0,0:0:0:0:
31,203,143480,1,0,0:0:0:0:
106,161,143602,70,0,L|82:64,1,83.9999974365235,0|0,3:0|0:0,0:0:0:0:
85,79,143846,1,2,0:0:0:0:
215,5,143968,2,0,P|187:91|211:199,1,167.999994873047,2|0,3:0|0:0,0:0:0:0:
271,215,144335,6,0,L|470:252,1,167.999994873047,2|0,3:0|0:0,0:0:0:0:
211,274,144701,1,2,3:0:0:0:
197,357,144824,1,0,0:0:0:0:
129,306,144946,1,0,0:0:0:0:
287,307,145068,70,0,L|303:404,1,74.6666666666667,0|0,3:0|0:0,0:0:0:0:
300,381,145312,1,2,0:0:0:0:
211,274,145435,2,0,P|239:196|206:109,1,149.333333333333,2|0,3:0|0:0,0:0:0:0:
297,108,145801,6,0,L|122:69,1,149.333333333333,2|0,3:0|0:0,0:0:0:0:
118,149,146168,2,0,L|16:165,1,74.6666666666667,2|0,3:0|0:0,0:0:0:0:
44,160,146412,1,0,0:0:0:0:
0,95,146534,69,0,3:0:0:0:
233,19,146717,1,2,0:0:0:0:
101,252,146901,1,2,3:0:0:0:
34,19,147084,1,2,0:0:0:0:
286,86,147267,6,0,P|201:105|150:142,1,130.666662679037,2|0,3:0|0:0,0:0:0:0:
372,117,147634,2,0,P|331:81|317:5,1,130.666662679037,2|0,3:0|0:0,0:0:0:0:
308,168,148000,70,0,L|327:284,1,111.999996582031,0|2,3:0|0:0,0:0:0:0:
326,278,148367,2,0,L|405:293,1,55.9999982910157,2|0,3:0|0:0,0:0:0:0:
466,309,148611,1,0,0:0:0:0:
466,309,148733,6,0,P|488:259|471:193,1,111.999996582031,2|0,3:0|0:0,0:0:0:0:
377,100,149100,2,0,P|355:150|372:216,1,111.999996582031,2|0,3:0|0:0,0:0:0:0:
315,269,149466,70,0,L|211:283,1,102.666669799805,0|2,3:0|0:0,0:0:0:0:
213,282,149833,2,0,L|199:354,1,51.3333348999024,2|0,3:0|0:0,0:0:0:0:
131,374,150077,1,0,0:0:0:0:
131,374,150199,6,0,P|126:329|103:257,1,102.666669799805,2|0,3:0|0:0,0:0:0:0:
192,182,150566,2,0,P|197:227|220:299,1,102.666669799805,2|0,3:0|0:0,0:0:0:0:
109,196,150932,70,0,L|116:100,1,93.3333333333333,0|2,3:0|0:0,0:0:0:0:
115,102,151299,2,0,L|62:115,1,46.6666666666667,2|0,3:0|0:0,0:0:0:0:
0,60,151543,1,0,0:0:0:0:
0,60,151665,6,0,P|43:31|102:26,1,93.3333333333333,2|0,3:0|0:0,0:0:0:0:
115,102,152032,2,0,P|72:131|13:136,1,93.3333333333333,2|0,3:0|0:0,0:0:0:0:
31,137,152398,69,0,3:0:0:0:
52,225,152582,1,2,0:0:0:0:
130,186,152765,1,2,3:0:0:0:
150,273,152949,1,2,0:0:0:0:
243,242,153132,6,0,P|239:283|238:325,1,83.9999974365235,2|0,3:0|0:0,0:0:0:0:
145,356,153498,2,0,P|148:314|149:272,1,83.9999974365235,2|0,3:0|0:0,0:0:0:0:
256,192,161195,12,0,165227,0:0:0:0:
193,160,165471,37,2,0:1:0:0:
193,160,165593,2,0,L|184:291,2,93.3333333333333,4|0|0,1:1|0:0|0:0,0:0:0:0:
252,107,165838,1,0,0:0:0:0:
40,10,166021,5,2,0:1:0:0:
40,10,166143,2,0,L|51:132,2,93.3333333333333,4|0|0,1:0|0:0|0:0,0:0:0:0:
63,29,166326,70,0,L|179:235,1,186.666666666667,4|0,1:2|0:0,0:0:0:0:
126,216,166510,2,0,B|280:167|280:167|348:203,1,186.666666666667,4|0,1:2|0:0,0:0:0:0:
327,135,166693,2,0,B|323:173|323:173|450:333|450:333|446:372,1,280,4|0,1:2|0:0,0:0:0:0:
