osu file format v14

[General]
AudioFilename: Rostik - Liquid (Paul Rosenthal Remix) (Gens) [Music].mp3
AudioLeadIn: 0
PreviewTime: 14428
Countdown: 0
SampleSet: None
StackLeniency: 0.7
Mode: 0
LetterboxInBreaks: 1
WidescreenStoryboard: 0

[Editor]
Bookmarks: 14767,29203,43639,58075,72511,86947,101383,115819,130256,144692,159128
DistanceSpacing: 1
BeatDivisor: 8
GridSize: 4
TimelineZoom: 1

[Metadata]
Title:Liquid (Paul Rosenthal Remix)
TitleUnicode:Liquid (Paul Rosenthal Remix)
Artist:Rostik
ArtistUnicode:Rostik
Creator:Gens
Version:Normal
Source:
Tags:
BeatmapID:1866732
BeatmapSetID:893150

[Difficulty]
HPDrainRate:4
CircleSize:4
OverallDifficulty:4
ApproachRate:4
SliderMultiplier:1.4
SliderTickRate:2

[Events]
//Background and Video events
0,0,"Rostik - Liquid (Paul Rosenthal Remix) (Gens) [Background].png",0,0
//Break Periods
2,72824,85740
//Storyboard Layer 0 (Background)
//Storyboard Layer 1 (Fail)
//Storyboard Layer 2 (Pass)
//Storyboard Layer 3 (Foreground)
//Storyboard Sound Samples

[TimingPoints]
444,451.127819548872,4,2,0,80,1,0
72624,-100,4,1,0,30,0,0
87060,-100,4,2,0,80,0,0
101496,-100,4,1,0,80,0,0
130368,-100,4,2,0,80,0,0
159240,-100,4,1,0,30,0,0

[HitObjects]
200,332,14880,5,4,1:0:0:0:
160,196,15331,2,2,P|141:148|160:100,2,105
212,148,16233,1,8,0:0:0:0:
312,52,16684,5,4,1:0:0:0:
352,188,17135,2,2,P|371:236|352:284,2,105
300,236,18037,1,8,0:0:0:0:
200,336,18489,5,4,1:0:0:0:
160,200,18940,2,2,B|120:216|96:184|56:200,2,105
208,144,19842,1,8,0:0:0:0:
312,48,20293,5,4,1:0:0:0:
352,184,20744,2,2,B|392:168|416:200|456:184,2,105
304,240,21646,1,8,0:0:0:0:
188,320,22098,5,4,1:0:0:0:
152,184,22549,2,2,P|124:232|80:256,2,105
184,120,23451,1,8,0:0:0:0:
324,120,23902,5,4,1:0:0:0:
360,256,24353,2,2,P|388:208|432:184,2,105
328,320,25255,1,8,0:0:0:0:
196,272,25707,5,4,1:0:0:0:
128,148,26158,2,2,L|24:116,2,105
196,172,27060,1,8,0:0:0:0:
320,108,27511,5,4,1:0:0:0:
388,228,27962,1,8,0:0:0:0:
256,188,28413,1,2,0:0:0:0:
256,188,28639,1,0,0:0:0:0:
256,188,28865,1,10,0:0:0:0:
200,316,29316,5,4,1:0:0:0:
136,192,29767,2,2,L|24:192,2,105
208,192,30669,1,8,0:0:0:0:
344,156,31120,2,2,L|424:76,2,105
344,228,32022,2,2,L|424:308,2,105
292,276,32925,5,4,1:0:0:0:
384,168,33376,2,2,L|496:168,2,105
312,168,34278,1,8,0:0:0:0:
168,156,34729,2,2,L|144:52,2,105
192,224,35631,2,2,L|216:328,2,105,2|0|0,0:0|0:0|0:0,0:0:0:0:
256,192,36534,5,4,1:0:0:0:
304,56,36985,2,2,P|256:38|208:56,2,105,2|2|0,0:0|0:0|0:0,0:0:0:0:
304,56,37887,1,8,0:0:0:0:
256,192,38338,5,4,1:0:0:0:
208,328,38789,2,2,P|256:346|304:328,2,105,2|2|0,0:0|0:0|0:0,0:0:0:0:
208,328,39691,1,8,0:0:0:0:
320,256,40143,6,0,P|344:192|320:128,1,140,4|2,1:0|0:0,0:0:0:0:
192,184,41045,2,0,P|168:120|192:56,1,140,4|2,1:0|0:0,0:0:0:0:
332,28,41947,1,4,1:0:0:0:
256,192,42173,12,12,43752,1:0:0:0:
112,72,44654,5,8,0:0:0:0:
400,72,45556,2,4,P|400:112|376:152,1,70
256,192,46233,1,0,0:0:0:0:
256,192,46459,2,2,L|116:192,1,140
44,312,47361,6,0,B|132:360|228:264|316:312,1,280,4|8,1:0|0:0,0:0:0:0:
448,68,49165,2,4,P|419:39|374:28,1,70
256,72,49842,1,0,0:0:0:0:
256,72,50068,2,2,L|116:72,1,140
40,192,50970,6,0,B|160:160|196:232|136:264|76:232|112:160|232:192,1,280,4|8,1:0|0:0,0:0:0:0:
461,348,52774,2,4,P|426:352|391:348,1,70
368,208,53451,1,0,0:0:0:0:
368,208,53677,2,2,P|427:238|487:207,1,140
472,68,54579,6,0,B|352:100|316:28|376:-4|436:28|400:100|280:68,1,280,4|8,1:0|0:0,0:0:0:0:
48,220,56383,2,4,P|83:216|118:220,1,70
141,360,57060,1,0,0:0:0:0:
141,360,57286,2,2,P|81:329|21:360,2,140,2|2|4,0:0|0:0|1:0,0:0:0:0:
424,348,59090,6,8,P|464:324|488:268,1,105
440,104,59992,2,4,L|424:32,1,70
284,32,60669,1,0,0:0:0:0:
284,32,60895,2,2,L|308:176,1,140
368,296,61797,5,4,1:0:0:0:
88,348,62699,2,8,P|48:324|24:268,1,105
72,104,63601,2,4,L|88:32,1,70
228,32,64278,1,0,0:0:0:0:
228,32,64504,2,2,L|204:176,1,140
136,292,65406,5,4,1:0:0:0:
416,272,66308,2,8,B|464:240|416:208|464:168,1,105
328,56,67210,2,4,L|256:72,1,70
152,164,67887,1,0,0:0:0:0:
152,164,68113,2,2,L|296:140,1,140
376,252,69015,5,4,1:0:0:0:
96,272,69917,2,8,B|48:240|96:208|48:168,1,105
184,56,70819,2,4,L|256:72,1,70
360,164,71496,1,0,0:0:0:0:
360,164,71722,2,4,L|216:188,2,140
152,192,87060,5,4,1:0:0:0:
236,80,87511,2,2,L|316:0,2,105
372,112,88639,1,2,0:0:0:0:
372,112,88865,2,2,P|466:192|372:272,2,280,2|2|4,0:0|0:0|1:0,0:0:0:0:
256,192,91120,6,2,L|256:296,2,105
140,272,92248,1,2,0:0:0:0:
140,272,92474,2,2,P|46:192|140:112,2,280,2|2|4,0:0|0:0|1:0,0:0:0:0:
256,192,94729,6,2,L|256:80,2,105
88,328,96083,1,4,1:0:0:0:
124,192,96534,2,2,L|124:80,2,105
336,192,97887,6,0,P|352:120|336:56,1,140,4|2,1:0|0:0,0:0:0:0:
412,192,98789,2,0,P|428:120|412:56,1,140,4|2,1:0|0:0,0:0:0:0:
256,192,99692,12,8,101045,1:0:0:0:
60,64,101496,6,0,B|148:112|244:16|332:64,1,280,2|12,0:0|0:0,0:0:0:0:
332,65,102624,1,8,0:0:0:0:
460,232,103301,6,0,B|372:280|276:184|188:232,1,280,2|12,0:0|0:0,0:0:0:0:
188,233,104429,1,8,0:0:0:0:
152,96,104880,5,8,0:0:0:0:
152,96,105105,2,0,P|256:16|360:96,1,280,2|12,0:0|0:0,0:0:0:0:
359,93,106233,1,8,0:0:0:0:
152,168,106910,6,0,P|256:248|360:168,1,280,2|12,0:0|0:0,0:0:0:0:
359,170,108037,1,8,0:0:0:0:
408,112,108263,1,0,0:0:0:0:
468,240,108714,6,0,P|474:349|395:273,1,280,2|12,0:0|0:0,0:0:0:0:
395,275,109842,1,8,0:0:0:0:
188,308,110519,6,0,P|279:368|253:262,1,280,2|12,0:0|0:0,0:0:0:0:
255,262,111647,1,8,0:0:0:0:
124,192,112098,5,8,0:0:0:0:
124,192,112323,2,0,P|256:152|388:192,1,280,2|12,0:0|0:0,0:0:0:0:
388,192,113451,1,8,0:0:0:0:
256,192,113677,12,6,115932,0:0:0:0:
400,96,116834,5,12,0:0:0:0:
376,24,117060,1,8,0:0:0:0:
324,80,117286,1,0,0:0:0:0:
304,192,117737,6,0,P|236:208|168:192,1,140,2|0,0:0|0:0,0:0:0:0:
168,192,118639,1,12,0:0:0:0:
120,136,118865,1,8,0:0:0:0:
104,288,119316,1,8,0:0:0:0:
152,344,119541,6,0,P|220:360|288:344,1,140,2|0,0:0|0:0,0:0:0:0:
436,304,120443,1,12,0:0:0:0:
476,240,120669,1,8,0:0:0:0:
452,168,120895,1,0,0:0:0:0:
324,260,121346,6,0,P|256:276|188:260,2,140,2|0|12,0:0|0:0|0:0,0:0:0:0:
324,260,122474,1,8,0:0:0:0:
352,188,122699,1,0,0:0:0:0:
304,56,123150,6,0,P|238:64|230:129,1,140,2|0,0:0|0:0,0:0:0:0:
338,237,124053,1,12,0:0:0:0:
355,311,124278,1,8,0:0:0:0:
281,294,124504,1,0,0:0:0:0:
173,186,124955,6,0,P|107:194|99:259,1,140,2|0,0:0|0:0,0:0:0:0:
207,367,125858,1,12,0:0:0:0:
207,367,126083,1,8,0:0:0:0:
340,292,126534,1,8,0:0:0:0:
340,292,126759,6,0,P|405:283|413:218,1,140,2|0,0:0|0:0,0:0:0:0:
336,88,127662,1,12,0:0:0:0:
319,14,127887,1,8,0:0:0:0:
393,31,128113,1,0,0:0:0:0:
256,192,128564,12,4,129917,0:0:0:0:
272,48,130368,6,0,P|200:48|140:80,1,140,2|0,1:0|0:0,0:0:0:0:
43,180,131271,2,8,P|14:222|3:273,1,105
160,161,132173,6,4,L|222:125,1,70
140,256,132849,1,0,0:0:0:0:
140,256,133075,2,2,L|261:186,1,140
240,336,133977,6,0,P|312:336|372:304,1,140,2|0,1:0|0:0,0:0:0:0:
468,203,134880,2,8,P|497:161|508:110,1,105
352,223,135782,6,4,L|289:259,1,70
372,128,136458,1,0,0:0:0:0:
372,128,136684,2,2,L|250:198,1,140
96,180,137586,6,0,P|136:236|200:268,1,140,2|0,1:0|0:0,0:0:0:0:
352,272,138489,2,8,P|328:316|280:336,1,105
124,232,139391,6,4,P|119:197|136:167,1,70
136,168,140068,1,8,0:0:0:0:
136,168,140293,2,2,B|164:96|204:136|226:67,1,140
372,112,141195,6,0,P|332:168|268:200,1,140,2|0,1:0|0:0,0:0:0:0:
116,204,142098,2,8,P|140:248|188:268,1,105
380,252,143000,6,4,P|384:217|367:187,1,70
368,188,143677,1,8,0:0:0:0:
292,160,143902,2,4,P|296:92|344:40,1,140
480,84,144804,6,0,L|376:188,1,140,2|0,1:0|0:0,0:0:0:0:
280,284,145707,2,8,L|200:364,2,105
232,220,146609,6,4,L|176:164,1,70
268,48,147286,1,8,0:0:0:0:
268,48,147511,2,2,L|372:152,1,140
220,104,148413,6,0,L|324:208,1,140,2|0,1:0|0:0,0:0:0:0:
412,296,149316,2,8,L|492:376,2,105
460,232,150218,6,4,L|516:176,1,70
428,64,150895,1,8,0:0:0:0:
428,64,151120,2,2,L|324:168,1,140
256,288,152022,6,0,L|116:250,1,140,2|0,1:0|0:0,0:0:0:0:
154,111,152925,2,8,L|180:10,2,105
135,181,153827,6,4,L|57:160,1,70
18,307,154504,1,8,0:0:0:0:
18,307,154729,2,2,L|157:344,1,140
256,288,155631,6,0,L|395:250,1,140,2|0,1:0|0:0,0:0:0:0:
358,111,156534,2,8,L|331:10,2,105
384,184,157436,2,4,L|314:184,1,70
184,264,158113,1,8,0:0:0:0:
184,264,158338,2,4,L|328:264,1,140
256,384,159240,1,4,0:0:0:0:
