osu file format v14

[General]
AudioFilename: Rostik - Liquid (Paul Rosenthal Remix) (Gens) [Music].mp3
AudioLeadIn: 0
PreviewTime: 14428
Countdown: 0
SampleSet: None
StackLeniency: 0.7
Mode: 0
LetterboxInBreaks: 1
WidescreenStoryboard: 0

[Editor]
Bookmarks: 14767,29203,43639,58075,72511,86947,101383,115819,130256,144692,159128
DistanceSpacing: 1
BeatDivisor: 8
GridSize: 4
TimelineZoom: 1

[Metadata]
Title:Liquid (Paul Rosenthal Remix)
TitleUnicode:Liquid (Paul Rosenthal Remix)
Artist:Rostik
ArtistUnicode:Rostik
Creator:Gens
Version:Insane
Source:
Tags:
BeatmapID:1866731
BeatmapSetID:893150

[Difficulty]
HPDrainRate:7
CircleSize:4
OverallDifficulty:6
ApproachRate:8
SliderMultiplier:2.4
SliderTickRate:2

[Events]
//Background and Video events
0,0,"Rostik - Liquid (Paul Rosenthal Remix) (Gens) [Background].png",0,0
//Break Periods
2,72824,86310
//Storyboard Layer 0 (Background)
//Storyboard Layer 1 (Fail)
//Storyboard Layer 2 (Pass)
//Storyboard Layer 3 (Foreground)
//Storyboard Sound Samples

[TimingPoints]
444,451.127819548872,4,2,0,80,1,0
43752,-100,4,2,0,85,0,0
70819,-100,4,2,0,90,0,0
71722,-200,4,2,0,80,0,0
72624,-200,4,2,0,30,0,0
87060,-100,4,2,0,70,0,0
98789,-100,4,2,0,80,0,0
101496,-200,4,1,0,80,0,0
108714,-133.333333333333,4,1,0,80,0,0
115932,-100,4,1,0,80,0,0
130368,-200,4,2,0,85,0,0
144804,-100,4,2,0,85,0,0
157436,-100,4,2,0,90,0,0
159240,-100,4,1,0,30,0,0

[HitObjects]
31,345,14880,6,0,P|76:309|79:251,1,120,4|0,1:0|0:0,0:0:0:0:
40,192,15218,1,0,0:0:0:0:
40,192,15331,1,2,0:0:0:0:
180,168,15556,1,0,0:0:0:0:
140,108,15669,1,2,0:0:0:0:
336,24,16007,1,2,0:0:0:0:
472,192,16233,1,4,0:0:0:0:
336,360,16459,1,0,0:0:0:0:
481,345,16684,6,0,P|435:309|432:251,1,120,4|0,1:0|0:0,0:0:0:0:
472,192,17022,1,0,0:0:0:0:
472,192,17135,1,2,0:0:0:0:
332,168,17360,1,0,0:0:0:0:
372,108,17473,1,2,0:0:0:0:
176,24,17811,1,2,0:0:0:0:
40,192,18037,1,4,0:0:0:0:
176,360,18263,1,0,0:0:0:0:
320,336,18489,6,0,P|367:300|391:245,1,120,4|0,1:0|0:0,0:0:0:0:
408,176,18827,2,0,L|418:116,1,60,0|2,0:0|0:0,0:0:0:0:
280,152,19165,2,0,L|290:92,1,60,0|2,0:0|0:0,0:0:0:0:
168,272,19616,1,2,0:0:0:0:
45,92,19842,1,4,0:0:0:0:
28,308,20068,1,0,0:0:0:0:
168,272,20293,6,0,P|120:236|96:181,1,120,4|0,1:0|0:0,0:0:0:0:
80,112,20631,2,0,L|69:52,1,60,0|2,0:0|0:0,0:0:0:0:
208,88,20969,2,0,L|197:28,1,60,0|2,0:0|0:0,0:0:0:0:
325,200,21420,1,2,0:0:0:0:
385,162,21534,1,0,0:0:0:0:
445,124,21647,1,4,0:0:0:0:
468,192,21759,1,8,0:0:0:0:
490,260,21873,1,2,0:0:0:0:
12,360,22098,6,0,P|56:320|76:264,1,120,4|0,1:0|0:0,0:0:0:0:
88,192,22436,1,0,0:0:0:0:
100,120,22549,1,2,0:0:0:0:
244,112,22774,1,0,0:0:0:0:
256,40,22887,1,2,0:0:0:0:
256,40,23225,1,2,0:0:0:0:
388,192,23451,1,4,0:0:0:0:
500,360,23677,1,0,0:0:0:0:
500,360,23902,6,0,P|456:320|436:264,1,120,4|0,1:0|0:0,0:0:0:0:
424,192,24240,1,0,0:0:0:0:
412,120,24353,1,2,0:0:0:0:
268,112,24578,1,0,0:0:0:0:
256,40,24691,1,2,0:0:0:0:
256,40,25030,1,2,0:0:0:0:
124,192,25256,1,4,0:0:0:0:
12,360,25482,1,0,0:0:0:0:
200,324,25707,6,0,P|256:342|312:324,1,120,4|0,1:0|0:0,0:0:0:0:
327,251,26045,2,0,L|320:192,1,60,0|2,0:0|0:0,0:0:0:0:
176,192,26383,2,0,L|183:251,1,60,0|2,0:0|0:0,0:0:0:0:
440,192,26834,1,2,0:0:0:0:
256,108,27060,1,4,0:0:0:0:
72,192,27286,1,0,0:0:0:0:
432,40,27511,6,0,P|376:58|320:40,1,120,4|0,1:0|0:0,0:0:0:0:
256,4,27850,1,0,0:0:0:0:
192,39,27962,2,0,P|136:57|80:40,1,120,0|0,1:0|0:0,0:0:0:0:
16,76,28301,1,0,0:0:0:0:
8,148,28413,1,8,1:0:0:0:
20,220,28526,1,0,1:0:0:0:
56,284,28639,1,0,0:0:0:0:
120,320,28752,1,0,0:0:0:0:
192,324,28865,1,4,1:2:0:0:
256,292,28977,1,0,0:0:0:0:
320,324,29090,1,2,0:0:0:0:
480,228,29316,6,0,P|520:184|512:128,1,120,4|0,1:0|0:0,0:0:0:0:
456,80,29654,1,0,0:0:0:0:
400,32,29767,1,2,0:0:0:0:
336,160,29992,1,0,0:0:0:0:
280,112,30105,1,2,0:0:0:0:
88,72,30443,1,2,0:0:0:0:
172,192,30669,1,4,0:0:0:0:
256,312,30895,1,0,0:0:0:0:
340,192,31120,6,2,L|340:8,2,180
172,192,32022,2,2,L|172:376,2,180
32,228,32925,6,0,P|-8:184|0:128,1,120,4|0,1:0|0:0,0:0:0:0:
56,80,33263,1,0,0:0:0:0:
112,32,33376,1,2,0:0:0:0:
176,160,33601,1,0,0:0:0:0:
232,112,33714,1,2,0:0:0:0:
424,72,34053,1,2,0:0:0:0:
340,192,34279,1,4,0:0:0:0:
256,312,34505,1,0,0:0:0:0:
172,192,34729,6,2,L|92:24,2,180
340,192,35631,2,2,L|420:360,2,180,2|0|0,0:0|0:0|0:0,0:0:0:0:
256,56,36534,6,0,P|200:38|144:56,1,120,4|0,1:0|0:0,0:0:0:0:
108,120,36872,1,0,0:0:0:0:
72,184,36985,1,2,0:0:0:0:
200,252,37210,1,0,0:0:0:0:
164,316,37323,1,2,0:0:0:0:
448,288,37662,1,0,0:0:0:0:
256,192,37887,1,12,0:0:0:0:
64,96,38113,1,0,0:0:0:0:
256,56,38338,6,0,P|312:38|368:56,1,120,4|0,1:0|0:0,0:0:0:0:
404,120,38676,1,0,0:0:0:0:
440,184,38789,1,2,0:0:0:0:
312,252,39014,1,0,0:0:0:0:
348,316,39127,1,2,0:0:0:0:
64,288,39466,1,0,0:0:0:0:
256,192,39691,1,12,0:0:0:0:
448,96,39917,1,0,0:0:0:0:
256,56,40143,5,4,1:0:0:0:
256,192,40368,8,8,43301,1:0:0:0:
424,148,43752,6,0,P|420:84|376:40,1,120,2|0,1:0|0:0,1:0:0:0:
312,36,44090,1,0,0:0:0:0:
256,84,44203,1,0,0:0:0:0:
256,157,44316,1,0,0:0:0:0:
312,204,44428,1,0,0:0:0:0:
416,304,44654,2,0,L|456:352,1,60,8|0,0:0|0:0,0:0:0:0:
240,296,44992,2,0,L|280:344,1,60,8|0,0:0|0:0,0:0:0:0:
56,292,45331,2,0,L|96:340,1,60,8|0,0:0|0:0,0:0:0:0:
152,232,45556,6,4,L|216:128,1,120
288,4,46007,1,8,0:0:0:0:
408,88,46233,2,0,B|416:116|440:108|448:136,1,60
476,200,46459,1,2,0:0:0:0:
444,264,46571,1,0,0:0:0:0:
372,256,46684,1,0,0:0:0:0:
340,320,46797,1,0,0:0:0:0:
268,312,46910,1,4,1:0:0:0:
196,304,47022,2,0,L|132:288,1,60,8|2,0:0|0:0,0:0:0:0:
88,148,47361,6,0,P|92:84|136:40,1,120,2|0,1:0|0:0,1:0:0:0:
200,36,47699,1,0,0:0:0:0:
256,84,47812,1,0,0:0:0:0:
256,157,47925,1,0,0:0:0:0:
200,204,48037,1,0,0:0:0:0:
96,304,48263,2,0,L|56:352,1,60,8|0,0:0|0:0,0:0:0:0:
272,296,48601,2,0,L|232:344,1,60,8|0,0:0|0:0,0:0:0:0:
456,292,48940,2,0,L|416:340,1,60,8|0,0:0|0:0,0:0:0:0:
360,232,49165,6,4,L|296:128,1,120
224,4,49616,1,8,0:0:0:0:
104,88,49842,2,0,B|96:116|72:108|64:136,1,60
48,204,50068,1,2,0:0:0:0:
120,188,50180,1,2,0:0:0:0:
152,256,50293,1,0,0:0:0:0:
184,324,50406,1,0,0:0:0:0:
256,308,50519,1,4,1:0:0:0:
328,292,50631,2,0,L|304:236,2,60,2|8|0,0:0|0:0|0:0,0:0:0:0:
400,276,50970,6,0,P|448:240|464:184,1,120,2|0,1:0|0:0,0:0:0:0:
472,112,51308,1,0,0:0:0:0:
480,40,51421,2,0,L|431:5,2,60
264,40,51872,2,0,L|312:74,1,60,8|0,0:0|0:0,0:0:0:0:
96,76,52210,2,0,L|144:110,1,60,8|0,0:0|0:0,0:0:0:0:
132,332,52549,2,0,L|180:366,1,60,8|0,0:0|0:0,0:0:0:0:
256,272,52774,6,4,L|376:272,1,120
376,272,53225,1,8,0:0:0:0:
416,124,53451,2,0,B|424:152|448:144|456:172,1,60
448,240,53677,2,0,L|498:271,2,60,2|0|0,0:0|0:0|0:0,0:0:0:0:
384,200,54015,1,0,0:0:0:0:
320,160,54128,1,4,1:0:0:0:
256,120,54240,2,0,L|205:88,1,60,8|2,0:0|0:0,0:0:0:0:
112,276,54579,6,0,P|64:240|48:184,1,120,2|0,1:0|0:0,0:0:0:0:
40,112,54917,1,0,0:0:0:0:
32,40,55030,2,0,L|80:5,2,60
248,40,55481,2,0,L|199:74,1,60,8|0,0:0|0:0,0:0:0:0:
416,76,55819,2,0,L|367:110,1,60,8|0,0:0|0:0,0:0:0:0:
380,332,56158,2,0,L|331:366,1,60,8|0,0:0|0:0,0:0:0:0:
256,272,56383,6,4,L|136:272,1,120
136,272,56834,1,8,0:0:0:0:
96,124,57060,2,0,B|88:152|64:144|56:172,1,60
64,240,57286,2,0,L|13:271,2,60,2|2|0,0:0|0:0|0:0,0:0:0:0:
128,200,57624,1,0,0:0:0:0:
192,160,57737,1,4,1:0:0:0:
256,120,57849,2,0,L|306:88,2,60,2|8|0,0:0|0:0|0:0,0:0:0:0:
256,192,58188,6,0,P|256:256|296:292,1,120,2|0,1:0|0:0,0:0:0:0:
368,300,58526,1,0,0:0:0:0:
436,272,58639,1,0,0:0:0:0:
464,204,58752,1,0,0:0:0:0:
436,136,58865,1,0,0:0:0:0:
256,48,59090,2,0,L|208:0,1,60,8|0,0:0|0:0,0:0:0:0:
112,192,59428,2,0,L|64:240,1,60,8|0,0:0|0:0,0:0:0:0:
256,336,59767,2,0,L|304:384,1,60,8|0,0:0|0:0,0:0:0:0:
376,192,59992,6,4,L|256:192,1,120
256,192,60443,1,8,0:0:0:0:
8,24,60669,2,0,L|58:55,1,60
128,24,60895,1,2,0:0:0:0:
192,64,61007,1,0,0:0:0:0:
256,24,61120,1,0,0:0:0:0:
320,64,61233,1,0,0:0:0:0:
384,24,61346,1,4,1:0:0:0:
448,64,61459,2,0,L|498:95,1,60,8|2,0:0|0:0,0:0:0:0:
256,192,61797,6,0,P|256:256|216:292,1,120,2|0,1:0|0:0,0:0:0:0:
144,300,62135,1,0,0:0:0:0:
76,272,62248,1,0,0:0:0:0:
48,204,62361,1,0,0:0:0:0:
76,136,62474,1,0,0:0:0:0:
256,48,62699,2,0,L|304:0,1,60,8|0,0:0|0:0,0:0:0:0:
400,192,63037,2,0,L|448:240,1,60,8|0,0:0|0:0,0:0:0:0:
256,336,63376,2,0,L|208:384,1,60,8|0,0:0|0:0,0:0:0:0:
136,192,63601,6,4,L|256:192,1,120
256,192,64052,1,8,0:0:0:0:
504,360,64278,2,0,L|453:328,1,60
384,360,64504,1,2,0:0:0:0:
320,320,64616,1,2,0:0:0:0:
256,360,64729,1,0,0:0:0:0:
192,320,64842,1,0,0:0:0:0:
128,360,64955,1,4,1:0:0:0:
64,320,65068,2,0,L|13:288,2,60,2|8|0,0:0|0:0|0:0,0:0:0:0:
128,280,65406,6,0,P|160:232|160:172,1,120,2|0,1:0|0:0,0:0:0:0:
131,103,65744,2,0,P|111:82|85:68,1,60
20,104,65970,2,0,P|11:132|12:162,1,60
128,280,66308,2,0,L|128:344,1,60,8|0,0:0|0:0,0:0:0:0:
256,164,66647,2,0,L|256:104,1,60,8|0,0:0|0:0,0:0:0:0:
384,280,66985,2,0,L|384:344,1,60,8|0,0:0|0:0,0:0:0:0:
312,252,67210,6,4,B|256:220|256:284|200:252,1,120
200,252,67662,1,8,0:0:0:0:
88,156,67887,2,0,L|102:97,1,60
120,28,68113,1,2,0:0:0:0:
184,64,68225,1,0,0:0:0:0:
256,80,68338,1,0,0:0:0:0:
328,64,68451,1,0,0:0:0:0:
392,28,68563,1,4,1:0:0:0:
460,60,68677,2,0,L|474:1,1,60,8|2,0:0|0:0,0:0:0:0:
384,104,69015,6,0,P|352:152|352:212,1,120,2|0,1:0|0:0,0:0:0:0:
381,281,69353,2,0,P|401:302|427:316,1,60
492,280,69579,2,0,P|501:252|500:222,1,60
384,104,69917,2,0,L|384:40,1,60,8|0,0:0|0:0,0:0:0:0:
256,220,70256,2,0,L|256:280,1,60,8|0,0:0|0:0,0:0:0:0:
128,104,70594,2,0,L|128:40,1,60,8|0,0:0|0:0,0:0:0:0:
200,132,70819,6,4,B|256:164|256:100|312:132,1,120
312,132,71496,1,8,0:0:0:0:
316,288,71722,2,4,L|196:288,2,120,4|4|4,0:0|0:0|1:0,0:0:0:0:
48,32,87060,5,4,1:0:0:0:
10,170,87286,1,0,0:0:0:0:
10,170,87398,1,0,0:0:0:0:
10,170,87511,1,2,0:0:0:0:
149,133,87737,1,0,0:0:0:0:
149,133,87850,1,2,0:0:0:0:
256,320,88188,1,0,0:0:0:0:
384,256,88413,1,8,0:0:0:0:
512,320,88639,1,2,0:0:0:0:
512,176,88865,5,2,0:0:0:0:
384,0,89203,1,2,0:0:0:0:
256,176,89541,1,2,0:0:0:0:
256,32,89767,1,2,0:0:0:0:
384,200,90105,1,2,0:0:0:0:
512,32,90443,1,2,0:0:0:0:
384,100,90669,5,4,1:0:0:0:
358,240,90895,1,0,0:0:0:0:
358,240,91007,1,0,0:0:0:0:
358,240,91120,1,2,0:0:0:0:
493,191,91346,1,0,0:0:0:0:
493,191,91459,1,2,0:0:0:0:
256,320,91797,1,0,0:0:0:0:
128,256,92022,1,8,0:0:0:0:
0,320,92248,1,0,0:0:0:0:
0,176,92474,5,2,0:0:0:0:
128,0,92812,1,2,0:0:0:0:
256,176,93150,1,2,0:0:0:0:
256,32,93376,1,2,0:0:0:0:
128,200,93714,1,0,0:0:0:0:
0,32,94052,1,0,0:0:0:0:
128,100,94278,5,4,1:0:0:0:
192,232,94504,1,0,0:0:0:0:
192,232,94616,1,0,0:0:0:0:
192,232,94729,1,2,0:0:0:0:
256,100,94955,1,0,0:0:0:0:
256,100,95068,1,2,0:0:0:0:
256,312,95406,2,0,B|244:268|268:236|256:192,2,120,0|8|0,0:0|0:0|0:0,0:0:0:0:
404,324,96083,6,0,P|424:266|421:197,1,120,4|0,1:0|0:0,3:0:0:0:
412,136,96421,2,0,L|399:77,1,60,0|2,0:0|0:0,3:0:0:0:
256,40,96759,2,0,L|256:100,1,60,0|2,0:0|0:0,0:0:0:0:
256,312,97210,1,0,0:0:0:0:
256,192,97436,1,8,0:0:0:0:
256,312,97662,1,0,0:0:0:0:
176,192,97887,5,4,1:0:0:0:
128,56,98113,1,0,0:0:0:0:
128,56,98225,1,0,0:0:0:0:
128,56,98338,1,2,0:0:0:0:
256,120,98564,1,0,0:0:0:0:
256,192,98677,1,2,0:0:0:0:
336,192,98789,6,0,P|384:152|368:100,1,120,4|0,1:0|0:0,0:0:0:0:
316,56,99128,2,0,L|268:16,1,60,0|2,0:0|0:0,0:0:0:0:
256,192,99466,2,0,L|256:256,1,60,0|2,0:0|0:0,0:0:0:0:
256,192,99692,12,8,101045,1:0:0:0:
136,48,101496,6,0,P|80:48|56:104,1,120,2|0,0:0|0:0,0:0:0:0:
487,200,102398,1,12,0:0:0:0:
280,284,102624,1,8,0:0:0:0:
500,303,102850,1,0,0:0:0:0:
56,332,103301,6,0,P|12:288|0:228,1,120,2|0,0:0|0:0,0:0:0:0:
440,164,104203,1,12,0:0:0:0:
243,266,104428,2,0,P|215:211|164:187,1,120,8|8,0:0|0:0,0:0:0:0:
336,332,105105,6,0,P|280:355|222:341,1,120,2|0,0:0|0:0,0:0:0:0:
508,0,106007,1,12,0:0:0:0:
292,56,106233,1,8,0:0:0:0:
512,90,106459,1,0,0:0:0:0:
160,360,106910,6,0,P|192:312|184:252,2,120,2|4|12,0:0|0:0|0:0,0:0:0:0:
304,192,108037,1,8,0:0:0:0:
448,24,108263,1,4,0:0:0:0:
48,116,108714,6,0,P|7:192|48:268,1,180.000006866455,2|0,0:0|0:0,0:0:0:0:
332,328,109616,1,12,0:0:0:0:
464,268,109842,2,0,P|505:192|464:116,1,180.000006866455,8|0,0:0|0:0,0:0:0:0:
332,56,110519,6,0,P|256:15|180:56,1,180.000006866455,2|0,0:0|0:0,0:0:0:0:
36,308,111421,1,12,0:0:0:0:
180,328,111647,2,0,P|256:369|332:328,1,180.000006866455,8|0,0:0|0:0,0:0:0:0:
464,268,112323,6,0,B|512:200|416:168|464:100,1,180.000006866455,2|0,0:0|0:0,0:0:0:0:
176,48,113225,1,12,0:0:0:0:
48,116,113451,2,0,B|0:184|96:216|48:284,1,180.000006866455,8|0,0:0|0:0,0:0:0:0:
256,192,114128,5,4,0:0:0:0:
256,192,114353,8,12,115481,0:0:0:0:
120,32,115932,6,0,P|56:88|40:180,1,180,4|0,0:0|0:0,0:0:0:0:
56,248,116383,2,0,P|84:304|132:336,1,120,8|0,0:0|0:0,0:0:0:0:
276,336,116834,1,2,0:0:0:0:
412,288,117060,1,2,0:0:0:0:
192,48,117286,1,8,0:0:0:0:
392,352,117737,6,0,P|456:296|472:204,1,180,4|0,0:0|0:0,0:0:0:0:
456,136,118188,2,0,P|428:80|380:48,1,120,8|0,0:0|0:0,0:0:0:0:
236,48,118639,1,2,0:0:0:0:
100,96,118865,1,2,0:0:0:0:
192,372,119316,1,8,0:0:0:0:
464,192,119541,6,0,P|460:104|388:52,1,180,4|0,0:0|0:0,0:0:0:0:
320,52,119992,2,0,P|268:80|240:136,1,120,8|0,0:0|0:0,0:0:0:0:
256,276,120443,1,2,0:0:0:0:
116,312,120669,1,2,0:0:0:0:
0,8,120895,1,8,0:0:0:0:
48,192,121346,6,0,P|52:104|124:52,1,180,4|0,0:0|0:0,0:0:0:0:
192,52,121797,2,0,P|244:80|272:136,1,120,8|0,0:0|0:0,0:0:0:0:
256,276,122248,1,2,0:0:0:0:
396,312,122474,1,2,0:0:0:0:
512,12,122699,2,0,P|464:120|352:144,2,240,8|4|8,0:0|0:0|0:0,0:0:0:0:
256,148,124053,5,2,0:0:0:0:
256,148,124278,1,2,0:0:0:0:
216,288,124504,2,0,P|120:344|48:260,2,240,8|4|10,0:0|0:0|0:0,0:0:0:0:
252,224,125519,5,2,0:0:0:0:
284,160,125631,1,0,0:0:0:0:
316,96,125744,1,0,0:0:0:0:
348,32,125857,1,2,0:0:0:0:
348,32,126083,1,2,0:0:0:0:
296,288,126308,2,0,P|392:344|464:260,2,240,8|4|8,0:0|0:0|0:0,0:0:0:0:
416,28,127662,5,2,0:0:0:0:
416,28,127887,1,2,0:0:0:0:
136,192,128113,2,0,L|376:192,1,240,8|4,0:0|0:0,0:0:0:0:
256,192,128789,12,4,129917,0:0:0:0:
256,192,130368,6,0,L|256:312,1,120,2|0,1:0|0:0,1:0:0:0:
392,48,131270,2,0,L|376:80,1,30,8|0,0:0|0:0,0:0:0:0:
144,96,131608,2,0,L|160:128,1,30,8|0,0:0|0:0,0:0:0:0:
344,144,131947,2,0,L|328:176,1,30,8|0,0:0|0:0,0:0:0:0:
168,192,132172,6,4,L|104:192,1,60
108,192,132623,1,8,0:0:0:0:
392,192,133075,2,2,L|512:192,1,120
256,192,133977,6,0,L|256:72,1,120,2|0,1:0|0:0,1:0:0:0:
392,56,134879,2,0,L|392:88,1,30,8|0,0:0|0:0,0:0:0:0:
120,108,135217,2,0,L|120:140,1,30,8|0,0:0|0:0,0:0:0:0:
392,160,135556,2,0,L|392:192,1,30,8|0,0:0|0:0,0:0:0:0:
220,352,135781,6,0,L|100:352,1,120,4|0,0:0|0:0,0:0:0:0:
292,32,136684,2,2,L|412:32,1,120,2|0,0:0|0:0,0:0:0:0:
256,192,137586,6,0,L|256:312,1,120,2|0,1:0|0:0,1:0:0:0:
456,64,138488,2,0,L|440:32,1,30,8|0,0:0|0:0,0:0:0:0:
36,112,138826,2,0,L|52:80,1,30,8|0,0:0|0:0,0:0:0:0:
496,160,139165,2,0,L|480:128,1,30,8|0,0:0|0:0,0:0:0:0:
184,192,139390,6,4,P|160:216|152:256,1,60
152,240,139842,1,8,0:0:0:0:
512,352,140293,2,2,P|512:292|480:240,1,120
256,192,141195,6,0,L|256:72,1,120,2|0,1:0|0:0,1:0:0:0:
456,288,142097,2,0,L|424:288,1,30,8|0,0:0|0:0,0:0:0:0:
24,320,142435,2,0,L|56:320,1,30,8|0,0:0|0:0,0:0:0:0:
512,352,142774,2,0,L|480:352,1,30,8|0,0:0|0:0,0:0:0:0:
40,96,142999,6,4,P|56:68|76:48,1,60
76,48,143676,1,8,0:0:0:0:
472,264,143902,2,4,P|456:320|400:352,2,120,4|4|2,0:0|0:0|1:0,0:0:0:0:
460,120,145030,5,0,0:0:0:0:
396,80,145143,1,0,0:0:0:0:
324,72,145256,1,0,0:0:0:0:
252,80,145368,1,0,0:0:0:0:
188,120,145481,1,0,0:0:0:0:
352,328,145707,2,0,L|424:328,1,60,8|0,0:0|0:0,0:0:0:0:
288,256,146045,2,0,L|352:256,1,60,8|0,0:0|0:0,0:0:0:0:
224,184,146383,2,0,L|288:184,1,60,8|0,0:0|0:0,0:0:0:0:
136,64,146609,6,4,P|76:72|40:116,1,120
40,115,147060,1,8,0:0:0:0:
238,165,147286,2,0,L|196:208,1,60,0|0,0:0|0:0,0:0:0:0:
288,112,147511,2,0,L|336:64,1,60,2|0,0:0|0:0,0:0:0:0:
384,16,147737,2,0,L|432:64,1,60,0|0,0:0|0:0,0:0:0:0:
480,112,147962,1,4,1:0:0:0:
432,168,148075,1,8,0:0:0:0:
384,224,148188,1,2,0:0:0:0:
88,260,148413,5,2,1:0:0:0:
52,120,148639,1,0,0:0:0:0:
116,80,148752,1,0,0:0:0:0:
188,72,148865,1,0,0:0:0:0:
260,80,148977,1,0,0:0:0:0:
324,120,149090,1,0,0:0:0:0:
160,328,149316,2,0,L|88:328,1,60,8|0,0:0|0:0,0:0:0:0:
224,256,149654,2,0,L|160:256,1,60,8|0,0:0|0:0,0:0:0:0:
288,184,149992,2,0,L|224:184,1,60,8|0,0:0|0:0,0:0:0:0:
376,64,150218,6,4,P|436:72|472:116,1,120
471,115,150669,1,8,0:0:0:0:
273,165,150895,2,0,L|316:208,1,60,0|0,0:0|0:0,0:0:0:0:
224,112,151120,2,0,L|176:64,1,60,2|2,0:0|0:0,0:0:0:0:
128,16,151346,2,0,L|80:64,1,60,0|0,0:0|0:0,0:0:0:0:
32,112,151571,1,4,1:0:0:0:
80,168,151684,1,2,0:0:0:0:
128,224,151797,1,8,0:0:0:0:
176,280,151910,1,0,0:0:0:0:
256,288,152022,6,0,L|376:288,1,120,2|0,1:0|0:0,0:0:0:0:
432,240,152361,2,0,L|480:200,1,60
512,268,152586,2,0,L|466:307,1,60
160,120,152925,2,0,L|160:56,1,60,8|0,0:0|0:0,0:0:0:0:
88,184,153263,2,0,L|88:244,1,60,8|0,0:0|0:0,0:0:0:0:
16,368,153601,2,0,L|16:304,1,60,8|0,0:0|0:0,0:0:0:0:
192,224,153827,6,4,L|300:172,1,120
300,172,154278,1,8,0:0:0:0:
300,172,154504,2,0,L|352:144,1,60
412,100,154729,1,2,0:0:0:0:
472,56,154842,1,0,0:0:0:0:
504,120,154955,1,0,0:0:0:0:
512,192,155068,1,0,0:0:0:0:
504,264,155180,1,4,1:0:0:0:
472,328,155293,2,0,L|420:359,1,60,8|2,0:0|0:0,0:0:0:0:
256,288,155631,6,0,L|136:288,1,120,2|0,1:0|0:0,0:0:0:0:
80,240,155970,2,0,L|32:200,1,60
0,268,156195,2,0,L|46:307,1,60
64,64,156534,2,0,L|64:0,1,60,8|0,0:0|0:0,0:0:0:0:
256,288,156872,2,0,L|256:352,1,60,8|0,0:0|0:0,0:0:0:0:
448,64,157210,2,0,L|448:0,1,60,8|0,0:0|0:0,0:0:0:0:
316,136,157436,6,4,L|196:136,1,120
196,136,158113,1,8,0:0:0:0:
136,232,158338,2,4,L|376:232,1,240,4|12,0:0|0:0,0:0:0:0:
256,384,159240,1,4,1:0:0:0:
