osu file format v14

[General]
AudioFilename: Rostik - Liquid (Paul Rosenthal Remix) (Gens) [Music].mp3
AudioLeadIn: 0
PreviewTime: 14428
Countdown: 0
SampleSet: None
StackLeniency: 0.7
Mode: 0
LetterboxInBreaks: 1
WidescreenStoryboard: 0

[Editor]
Bookmarks: 14767,29203,43639,58075,72511,86947,101383,115819,130256,144692,159128
DistanceSpacing: 1
BeatDivisor: 8
GridSize: 4
TimelineZoom: 1

[Metadata]
Title:Liquid (Paul Rosenthal Remix)
TitleUnicode:Liquid (Paul Rosenthal Remix)
Artist:Rostik
ArtistUnicode:Rostik
Creator:Gens
Version:Hard
Source:
Tags:
BeatmapID:1866730
BeatmapSetID:893150

[Difficulty]
HPDrainRate:6
CircleSize:4
OverallDifficulty:5
ApproachRate:7
SliderMultiplier:1.9
SliderTickRate:2

[Events]
//Background and Video events
0,0,"Rostik - Liquid (Paul Rosenthal Remix) (Gens) [Background].png",0,0
//Break Periods
2,72824,86160
//Storyboard Layer 0 (Background)
//Storyboard Layer 1 (Fail)
//Storyboard Layer 2 (Pass)
//Storyboard Layer 3 (Foreground)
//Storyboard Sound Samples

[TimingPoints]
444,451.127819548872,4,2,0,80,1,0
72624,-100,4,1,0,30,0,0
87060,-100,4,2,0,80,0,0
101496,-100,4,1,0,80,0,0
130368,-100,4,2,0,80,0,0
159240,-100,4,1,0,30,0,0

[HitObjects]
197,311,14880,6,0,P|232:341|279:341,1,95,4|0,1:0|0:0,0:0:0:0:
318,244,15331,2,2,L|367:108,2,142.5
221,208,16233,2,0,P|185:177|138:177,1,95,4|0,0:0|0:0,0:0:0:0:
137,283,16684,6,0,P|177:306|223:298,1,95,4|0,1:0|0:0,0:0:0:0:
244,196,17135,2,2,L|269:54,2,142.5
142,177,18037,2,0,P|101:153|55:161,1,95,4|0,0:0|0:0,0:0:0:0:
100,256,18489,6,0,P|143:271|187:256,1,95,4|0,1:0|0:0,0:0:0:0:
190,151,18940,2,2,L|190:6,2,142.5
87,151,19842,2,0,P|42:135|-1:151,1,95,4|0,0:0|0:0,0:0:0:0:
56,240,20293,6,0,P|102:248|142:224,1,95,4|0,1:0|0:0,0:0:0:0:
188,128,20744,2,2,P|256:109|324:128,2,142.5
88,88,21647,2,0,P|44:112|32:156,1,95,12|2,0:0|0:0,0:0:0:0:
84,244,22098,6,0,P|120:276|164:292,1,95,4|0,1:0|0:0,0:0:0:0:
256,240,22549,2,2,L|256:384,2,142.5
348,291,23451,2,0,P|392:275|428:244,1,95,4|0,0:0|0:0,0:0:0:0:
428,140,23902,6,0,P|392:108|348:92,1,95,4|0,1:0|0:0,0:0:0:0:
256,144,24353,2,2,L|256:0,2,142.5
163,92,25256,2,0,P|119:108|84:140,1,95,4|0,0:0|0:0,0:0:0:0:
128,236,25707,6,0,P|152:196|196:176,1,95,4|0,1:0|0:0,0:0:0:0:
256,256,26158,2,2,B|304:312|208:328|256:384,2,142.5
317,176,27060,2,0,P|359:195|384:236,1,95,4|0,0:0|0:0,0:0:0:0:
428,140,27511,6,0,P|392:108|348:92,1,95,4|0,1:0|0:0,0:0:0:0:
256,60,27962,2,0,L|256:156,1,95,8|0,0:0|0:0,0:0:0:0:
256,324,28413,2,0,L|256:228,1,95,2|0,0:0|0:0,0:0:0:0:
163,291,28865,2,0,P|119:275|84:243,1,95,8|2,0:0|0:0,0:0:0:0:
160,172,29316,6,0,P|202:152|222:109,1,95,4|0,1:0|0:0,0:0:0:0:
140,28,29767,2,2,P|74:30|72:95,2,142.5
176,140,30669,1,8,0:0:0:0:
176,140,30895,1,0,0:0:0:0:
196,252,31120,6,2,P|152:296|80:280,2,142.5
316,252,32022,2,2,P|360:296|432:280,2,142.5
336,140,32925,5,4,1:0:0:0:
336,140,33151,1,0,0:0:0:0:
372,28,33376,2,2,P|437:30|439:95,2,142.5
336,140,34278,1,8,0:0:0:0:
336,140,34504,1,0,0:0:0:0:
300,248,34729,6,2,L|157:248,2,142.5
212,320,35631,2,2,L|380:320,2,142.5,2|0|0,0:0|0:0|0:0,0:0:0:0:
160,208,36534,5,4,1:0:0:0:
160,208,36759,1,0,0:0:0:0:
108,96,36985,2,2,P|136:40|208:8,2,142.5,2|2|0,0:0|0:0|0:0,0:0:0:0:
256,96,37887,1,8,0:0:0:0:
256,96,38113,1,0,0:0:0:0:
352,208,38338,5,4,1:0:0:0:
352,208,38563,1,0,0:0:0:0:
404,96,38789,2,2,P|376:40|304:8,2,142.5,2|2|0,0:0|0:0|0:0,0:0:0:0:
256,96,39692,1,8,0:0:0:0:
256,96,39918,1,0,0:0:0:0:
256,240,40143,5,4,1:0:0:0:
256,240,40368,1,0,0:0:0:0:
208,376,40594,1,2,0:0:0:0:
208,376,40819,1,0,0:0:0:0:
160,240,41045,1,4,1:0:0:0:
160,240,41270,1,0,0:0:0:0:
112,376,41496,1,2,0:0:0:0:
112,376,41721,1,0,0:0:0:0:
256,192,41947,12,8,43301,1:0:0:0:
344,96,43752,6,0,B|320:72|280:72|272:128|240:128|232:72|192:72|168:96,1,190,2|0,1:0|0:0,0:0:0:0:
48,248,44654,2,8,P|40:312|88:368,2,142.5
84,107,45556,6,4,L|179:107,1,95
179,107,46233,1,0,0:0:0:0:
246,39,46459,1,2,0:0:0:0:
340,64,46684,1,0,0:0:0:0:
272,132,46910,1,4,1:0:0:0:
204,200,47135,1,2,0:0:0:0:
168,288,47361,6,0,B|192:312|232:312|240:256|272:256|280:312|320:312|344:288,1,190,2|0,1:0|0:0,0:0:0:0:
464,136,48263,2,8,P|472:72|424:16,2,142.5
428,277,49165,6,4,L|333:277,1,95
333,277,49842,1,0,0:0:0:0:
266,345,50068,1,2,0:0:0:0:
172,320,50293,1,2,0:0:0:0:
240,252,50519,1,4,1:0:0:0:
308,184,50744,1,8,0:0:0:0:
376,116,50970,6,0,P|464:120|480:208,1,190,2|0,1:0|0:0,0:0:0:0:
328,320,51872,2,8,L|185:320,2,142.5
296,175,52774,6,4,L|296:80,1,95
296,80,53451,1,0,0:0:0:0:
208,32,53677,1,2,0:0:0:0:
120,80,53902,1,0,0:0:0:0:
208,128,54128,1,4,1:0:0:0:
120,176,54353,1,2,0:0:0:0:
136,268,54579,6,0,P|48:264|32:176,1,190,2|0,1:0|0:0,0:0:0:0:
184,64,55481,2,8,L|326:64,2,142.5
216,209,56383,6,4,L|216:304,1,95
216,304,57060,1,0,0:0:0:0:
304,352,57286,1,2,0:0:0:0:
392,304,57511,1,2,0:0:0:0:
304,256,57737,1,4,1:0:0:0:
392,208,57962,1,8,0:0:0:0:
360,116,58188,6,0,P|283:63|189:70,1,190,2|0,1:0|0:0,0:0:0:0:
160,257,59090,2,8,P|220:292|291:292,2,142.5
200,116,59992,5,4,0:0:0:0:
200,116,60218,1,4,0:0:0:0:
24,192,60669,1,0,0:0:0:0:
24,192,60895,2,2,P|44:100|100:24,1,190
321,70,61797,6,0,P|228:63|152:116,1,190,2|0,1:0|0:0,0:0:0:0:
221,292,62699,2,8,P|291:292|352:257,2,142.5
120,192,63601,5,4,0:0:0:0:
120,192,63827,1,4,0:0:0:0:
312,208,64278,1,0,0:0:0:0:
312,208,64504,1,2,0:0:0:0:
400,160,64729,1,2,0:0:0:0:
312,112,64955,1,4,1:0:0:0:
400,64,65180,1,8,0:0:0:0:
488,112,65406,6,0,P|492:204|416:264,1,190,2|0,1:0|0:0,0:0:0:0:
256,360,66308,2,8,B|288:308|224:276|256:224,2,142.5
120,332,67210,6,4,L|172:252,1,95
360,204,67887,1,8,0:0:0:0:
360,300,68113,2,2,P|296:364|204:348,1,190
24,272,69015,6,0,P|20:180|96:120,1,190,2|0,1:0|0:0,0:0:0:0:
256,24,69917,2,8,B|224:76|288:108|256:160,2,142.5
344,136,70819,6,4,L|416:208,1,95
100,204,71496,1,8,0:0:0:0:
160,280,71722,2,4,L|350:280,2,190
4,72,87060,5,4,1:0:0:0:
4,72,87286,1,0,0:0:0:0:
68,8,87511,1,2,0:0:0:0:
196,72,87850,1,2,0:0:0:0:
68,136,88188,1,0,0:0:0:0:
68,136,88413,1,8,0:0:0:0:
208,280,88865,6,2,B|128:280|76:324,2,142.5
304,280,89767,2,2,B|384:280|436:324,2,142.5
444,136,90669,5,4,1:0:0:0:
508,72,90895,1,0,0:0:0:0:
444,8,91120,1,2,0:0:0:0:
316,72,91459,1,2,0:0:0:0:
444,136,91797,1,0,0:0:0:0:
444,136,92022,1,8,0:0:0:0:
304,280,92474,6,2,B|384:280|436:236,2,142.5
208,280,93376,2,2,B|128:280|76:324,2,142.5,2|0|0,0:0|0:0|0:0,0:0:0:0:
256,192,94278,6,0,P|302:191|338:161,1,95,4|0,1:0|0:0,0:0:0:0:
391,61,94729,2,2,P|321:57|271:105,2,142.5,2|2|0,0:0|0:0|0:0,0:0:0:0:
496,104,95631,1,8,0:0:0:0:
256,192,96083,6,0,P|209:191|173:161,1,95,4|0,1:0|0:0,0:0:0:0:
120,61,96534,2,2,P|190:57|240:105,2,142.5,2|2|0,0:0|0:0|0:0,0:0:0:0:
15,104,97436,1,8,0:0:0:0:
368,192,97887,5,4,1:0:0:0:
368,192,98113,1,0,0:0:0:0:
320,264,98338,2,2,P|256:291|192:264,1,142.5
144,256,98789,5,4,1:0:0:0:
144,256,99015,1,0,0:0:0:0:
192,328,99240,2,2,P|256:355|320:328,1,142.5
368,320,99692,5,4,1:0:0:0:
256,192,99917,8,8,101045,1:0:0:0:
208,48,101496,6,0,P|112:48|40:104,1,190,2|0,0:0|0:0,0:0:0:0:
256,192,102398,1,12,0:0:0:0:
256,192,102624,1,8,0:0:0:0:
88,248,102850,1,0,0:0:0:0:
304,48,103301,6,0,P|400:48|472:104,1,190,2|0,0:0|0:0,0:0:0:0:
256,192,104203,1,12,0:0:0:0:
256,192,104428,2,0,P|352:192|424:248,1,190,8|8,0:0|0:0,0:0:0:0:
216,340,105105,6,0,B|160:308|88:380|32:340,1,190,2|0,0:0|0:0,0:0:0:0:
256,192,106007,1,12,0:0:0:0:
256,192,106233,2,0,P|189:256|96:259,1,190,8|0,0:0|0:0,0:0:0:0:
296,340,106910,6,0,B|352:308|424:380|480:340,1,190,2|0,0:0|0:0,0:0:0:0:
344,224,107812,1,12,0:0:0:0:
344,224,108037,1,8,0:0:0:0:
484,92,108263,2,0,P|389:89|325:25,2,190,0|6|0,0:0|0:0|0:0,0:0:0:0:
184,192,109616,5,12,0:0:0:0:
184,192,109842,1,8,0:0:0:0:
16,256,110068,1,0,0:0:0:0:
188,24,110519,6,0,P|121:88|28:91,2,190,2|0|12,0:0|0:0|0:0,0:0:0:0:
188,24,111647,1,8,0:0:0:0:
456,372,112098,1,8,0:0:0:0:
344,288,112323,6,0,P|256:320|168:288,1,190,2|0,0:0|0:0,0:0:0:0:
208,128,113225,2,0,L|304:128,2,95,12|8|0,0:0|0:0|0:0,0:0:0:0:
256,0,114128,1,4,0:0:0:0:
256,192,114353,12,12,115481,0:0:0:0:
464,376,115932,6,0,P|512:288|496:240,1,142.5,4|0,0:0|0:0,0:0:0:0:
480,212,116383,2,0,P|440:184|392:180,1,95,8|0,0:0|0:0,0:0:0:0:
332,256,116834,1,2,0:0:0:0:
256,192,117060,1,2,0:0:0:0:
180,128,117286,1,8,0:0:0:0:
48,272,117737,6,0,P|0:184|16:136,1,142.5,4|0,0:0|0:0,0:0:0:0:
32,108,118188,2,0,P|72:80|120:76,1,95,8|0,0:0|0:0,0:0:0:0:
180,152,118639,1,2,0:0:0:0:
256,88,118865,1,2,0:0:0:0:
332,24,119091,1,8,0:0:0:0:
408,88,119316,1,0,0:0:0:0:
484,152,119541,6,0,P|404:184|348:184,1,142.5,4|0,0:0|0:0,0:0:0:0:
300,180,119992,2,0,P|256:172|212:148,1,95,8|0,0:0|0:0,0:0:0:0:
132,88,120443,2,0,P|92:56|72:12,2,95,2|2|8,0:0|0:0|0:0,0:0:0:0:
28,248,121346,6,0,P|108:280|164:280,1,142.5,4|0,0:0|0:0,0:0:0:0:
212,276,121797,2,0,P|256:268|300:244,1,95,8|0,0:0|0:0,0:0:0:0:
380,184,122248,2,0,P|420:152|440:108,2,95,2|2|8,0:0|0:0|0:0,0:0:0:0:
348,276,122925,1,0,0:0:0:0:
256,304,123150,6,0,B|216:268|164:300|120:264,1,142.5,4|0,0:0|0:0,0:0:0:0:
84,236,123601,2,0,P|53:199|43:153,1,95,8|0,0:0|0:0,0:0:0:0:
32,56,124053,2,0,P|76:44|116:72,2,95,2|2|8,0:0|0:0|0:0,0:0:0:0:
256,304,124955,6,0,B|296:268|348:300|392:264,1,142.5,4|0,0:0|0:0,0:0:0:0:
428,236,125406,2,0,P|458:199|468:153,1,95,8|0,0:0|0:0,0:0:0:0:
480,56,125858,2,0,P|436:44|396:72,2,95,2|2|8,0:0|0:0|0:0,0:0:0:0:
480,152,126534,1,0,0:0:0:0:
384,148,126759,6,0,P|320:175|256:148,1,142.5,4|0,0:0|0:0,0:0:0:0:
220,116,127210,2,0,P|180:92|132:92,1,95,8|0,0:0|0:0,0:0:0:0:
128,192,127662,1,2,0:0:0:0:
208,244,127887,1,2,0:0:0:0:
304,244,128113,1,8,0:0:0:0:
256,56,128564,5,4,0:0:0:0:
256,192,128789,8,8,129917,0:0:0:0:
36,48,130368,6,0,B|156:12|100:84|220:48,1,190,2|0,1:0|0:0,0:0:0:0:
412,28,131271,2,0,L|436:76,1,47.5,8|0,0:0|0:0,0:0:0:0:
476,156,131609,2,0,L|500:204,1,47.5,8|0,0:0|0:0,0:0:0:0:
364,336,132173,6,4,P|320:352|276:336,1,95
276,336,132850,1,8,0:0:0:0:
216,264,133075,1,2,0:0:0:0:
156,192,133301,1,0,0:0:0:0:
96,120,133526,1,4,1:0:0:0:
96,120,133639,1,8,0:0:0:0:
96,120,133752,1,2,0:0:0:0:
36,48,133977,6,0,B|156:12|100:84|220:48,1,190,2|0,1:0|0:0,0:0:0:0:
404,0,134880,2,0,L|380:48,1,47.5,8|0,0:0|0:0,0:0:0:0:
424,128,135218,2,0,L|448:176,1,47.5,8|0,0:0|0:0,0:0:0:0:
364,336,135782,6,4,P|320:352|276:336,1,95
276,336,136459,1,8,0:0:0:0:
200,280,136684,1,2,0:0:0:0:
288,244,136910,1,2,0:0:0:0:
216,180,137135,1,4,1:0:0:0:
216,180,137248,1,2,0:0:0:0:
216,180,137361,1,8,0:0:0:0:
256,92,137586,6,0,P|164:76|84:124,1,190,2|0,1:0|0:0,0:0:0:0:
32,308,138489,2,0,L|72:268,1,47.5,8|0,0:0|0:0,0:0:0:0:
156,308,138827,2,0,L|196:348,1,47.5,8|0,0:0|0:0,0:0:0:0:
380,360,139391,6,4,L|380:264,1,95
380,264,140068,1,8,0:0:0:0:
296,308,140293,1,2,0:0:0:0:
296,212,140519,1,0,0:0:0:0:
296,116,140744,1,4,1:0:0:0:
296,116,140857,1,8,0:0:0:0:
296,116,140970,1,2,0:0:0:0:
256,28,141195,6,0,P|348:12|428:60,1,190,2|0,1:0|0:0,0:0:0:0:
480,244,142098,2,0,L|440:204,1,47.5,8|0,0:0|0:0,0:0:0:0:
356,244,142436,2,0,L|316:284,1,47.5,8|0,0:0|0:0,0:0:0:0:
208,124,143000,6,4,L|304:124,1,95
256,192,143451,8,4,144353,0:0:0:0:
140,112,144804,6,0,P|100:44|60:112,1,190,2|0,1:0|0:0,0:0:0:0:
184,192,145707,2,0,L|128:192,1,47.5,8|0,0:0|0:0,0:0:0:0:
16,192,146045,2,0,L|72:192,1,47.5,8|0,0:0|0:0,0:0:0:0:
256,320,146609,6,4,P|300:336|344:320,1,95
344,320,147286,1,8,0:0:0:0:
412,244,147511,1,2,0:0:0:0:
322,204,147737,1,0,0:0:0:0:
280,183,147850,1,0,0:0:0:0:
236,163,147962,1,4,1:0:0:0:
256,119,148076,1,8,0:0:0:0:
277,75,148188,1,2,0:0:0:0:
372,112,148413,6,0,P|412:44|452:112,1,190,2|0,1:0|0:0,0:0:0:0:
328,192,149316,2,0,L|384:192,1,47.5,8|0,0:0|0:0,0:0:0:0:
496,192,149654,2,0,L|440:192,1,47.5,8|0,0:0|0:0,0:0:0:0:
304,364,150218,6,4,P|260:380|216:364,1,95
216,364,150895,1,8,0:0:0:0:
157,289,151120,1,2,0:0:0:0:
246,249,151346,1,2,0:0:0:0:
332,208,151571,1,4,1:0:0:0:
311,164,151685,1,2,0:0:0:0:
291,120,151797,1,8,0:0:0:0:
271,77,151910,1,0,0:0:0:0:
256,32,152022,6,0,L|66:32,1,190,2|0,1:0|0:0,0:0:0:0:
0,212,152925,2,0,L|48:212,1,47.5,8|0,0:0|0:0,0:0:0:0:
144,212,153263,2,0,L|192:212,1,47.5,8|0,0:0|0:0,0:0:0:0:
380,240,153827,6,4,L|380:144,1,95
380,145,154504,1,8,0:0:0:0:
292,104,154729,1,2,0:0:0:0:
256,192,154955,1,0,0:0:0:0:
214,218,155067,1,0,0:0:0:0:
174,244,155180,1,4,1:0:0:0:
167,293,155293,1,8,0:0:0:0:
162,341,155406,1,2,0:0:0:0:
256,352,155631,6,0,L|446:352,1,190,2|0,1:0|0:0,0:0:0:0:
512,172,156534,2,0,L|464:172,1,47.5,8|0,0:0|0:0,0:0:0:0:
368,172,156872,2,0,L|320:172,1,47.5,8|0,0:0|0:0,0:0:0:0:
132,144,157436,6,4,L|132:240,1,95
132,239,158113,1,8,0:0:0:0:
256,288,158338,2,4,L|256:96,1,190,4|12,0:0|0:0,0:0:0:0:
256,98,159240,1,4,0:0:0:0:
