osu file format v14

[General]
AudioFilename: Rostik - Liquid (Paul Rosenthal Remix) (Gens) [Music].mp3
AudioLeadIn: 0
PreviewTime: 14428
Countdown: 0
SampleSet: None
StackLeniency: 0.7
Mode: 0
LetterboxInBreaks: 1
WidescreenStoryboard: 0

[Editor]
Bookmarks: 14767,29203,43639,58075,72511,86947,101383,115819,130256,144692,159128
DistanceSpacing: 1
BeatDivisor: 4
GridSize: 4
TimelineZoom: 1

[Metadata]
Title:Liquid (Paul Rosenthal Remix)
TitleUnicode:Liquid (Paul Rosenthal Remix)
Artist:Rostik
ArtistUnicode:Rostik
Creator:Gens
Version:Easy
Source:
Tags:
BeatmapID:1866729
BeatmapSetID:893150

[Difficulty]
HPDrainRate:1
CircleSize:4
OverallDifficulty:2
ApproachRate:3
SliderMultiplier:0.899999999999999
SliderTickRate:2

[Events]
//Background and Video events
0,0,"Rostik - Liquid (Paul Rosenthal Remix) (Gens) [Background].png",0,0
//Break Periods
2,72824,85620
//Storyboard Layer 0 (Background)
//Storyboard Layer 1 (Fail)
//Storyboard Layer 2 (Pass)
//Storyboard Layer 3 (Foreground)
//Storyboard Sound Samples

[TimingPoints]
444,451.127819548872,4,2,0,80,1,0
72624,-100,4,1,0,30,0,0
87060,-100,4,2,0,80,0,0
101496,-100,4,1,0,80,0,0
130368,-100,4,2,0,80,0,0
159240,-100,4,1,0,30,0,0

[HitObjects]
16,40,14880,5,4,1:0:0:0:
136,192,15782,1,2,0:0:0:0:
256,40,16684,1,0,0:0:0:0:
376,192,17586,1,2,0:0:0:0:
496,344,18489,5,4,1:0:0:0:
376,192,19391,1,2,0:0:0:0:
256,344,20293,1,0,0:0:0:0:
136,192,21195,1,2,0:0:0:0:
72,16,22098,5,4,1:0:0:0:
256,72,23000,1,2,0:0:0:0:
440,16,23902,1,0,0:0:0:0:
512,192,24805,1,2,0:0:0:0:
360,312,25707,5,4,1:0:0:0:
256,152,26609,1,2,0:0:0:0:
256,192,27511,12,4,29316,1:0:0:0:
64,64,30218,5,2,0:0:0:0:
255,64,31120,2,2,P|344:56|423:96,1,180
256,192,32925,6,0,P|344:184|416:240,1,180,4|2,1:0|0:0,0:0:0:0:
256,319,34729,2,2,P|167:327|88:287,1,180
184,184,36534,6,0,L|184:0,1,180,4|2,1:0|0:0,0:0:0:0:
328,184,38338,2,0,L|328:0,1,180,4|2,1:0|0:0,0:0:0:0:
256,224,40143,2,4,L|256:40,2,180,4|4|4,1:0|1:0|1:0,1:0:0:0:
256,192,42173,12,12,43752,1:0:0:0:
40,40,44654,5,8,0:0:0:0:
232,32,45556,2,4,L|232:96,1,44.9999999999999
368,32,46459,1,2,0:0:0:0:
448,208,47361,5,4,1:0:0:0:
256,208,48263,1,8,0:0:0:0:
64,208,49165,2,2,P|116:140|204:148,1,180
256,332,50970,5,4,1:0:0:0:
376,192,51872,1,8,0:0:0:0:
136,192,52774,2,4,L|176:152,1,45
256,52,53677,1,2,0:0:0:0:
392,192,54579,5,4,1:0:0:0:
256,328,55481,1,8,0:0:0:0:
120,192,56383,2,4,L|88:160,1,45
176,40,57286,2,2,L|240:104,2,89.9999999999999,2|2|4,0:0|0:0|1:0,0:0:0:0:
60,192,59090,5,8,0:0:0:0:
256,192,59992,2,4,L|304:192,1,45
452,192,60895,1,2,0:0:0:0:
304,336,61797,5,4,1:0:0:0:
256,152,62699,1,8,0:0:0:0:
208,336,63601,1,2,0:0:0:0:
160,152,64504,1,2,0:0:0:0:
160,56,64955,1,2,0:0:0:0:
256,48,65406,5,4,1:0:0:0:
256,240,66308,1,8,0:0:0:0:
360,80,67210,2,4,L|320:40,1,45
184,48,68113,1,2,0:0:0:0:
56,192,69015,5,4,1:0:0:0:
256,192,69917,1,8,0:0:0:0:
256,192,70819,12,4,72624,0:0:0:0:
256,56,87060,5,4,1:0:0:0:
68,56,87962,1,2,0:0:0:0:
180,208,88865,2,2,P|176:292|100:336,2,180,2|2|4,0:0|0:0|1:0,0:0:0:0:
256,384,91571,5,2,0:0:0:0:
332,208,92474,2,2,P|336:292|412:336,2,180,2|2|4,0:0|0:0|1:0,0:0:0:0:
400,32,95180,5,2,0:0:0:0:
264,168,96083,2,0,L|336:0,1,180,4|2,1:0|0:0,0:0:0:0:
200,140,97887,6,0,L|236:56,1,89.9999999999999,4|2,1:0|0:0,0:0:0:0:
144,88,98789,2,0,L|180:4,1,89.9999999999999,4|2,1:0|0:0,0:0:0:0:
256,192,99692,12,6,101496,1:0:0:0:
41,53,103301,6,0,L|218:100,1,180,6|8,0:0|0:0,0:0:0:0:
20,130,105105,6,0,L|197:177,1,180,6|8,0:0|0:0,0:0:0:0:
0,208,106910,2,0,L|177:255,1,180,6|12,0:0|0:0,0:0:0:0:
270,280,108263,1,8,0:0:0:0:
367,306,108714,6,0,L|414:128,1,180,6|8,0:0|0:0,0:0:0:0:
223,85,110519,2,0,L|176:258,1,180,6|8,0:0|0:0,0:0:0:0:
328,384,112323,6,0,B|408:352|384:288|448:248,1,180,6|8,0:0|0:0,0:0:0:0:
256,320,114128,2,0,B|176:288|200:224|136:184,1,180,6|12,0:0|0:0,0:0:0:0:
256,32,115932,5,6,0:0:0:0:
424,128,116834,1,8,0:0:0:0:
512,168,117286,1,0,0:0:0:0:
440,232,117737,1,6,0:0:0:0:
256,288,118639,1,8,0:0:0:0:
216,376,119091,1,0,0:0:0:0:
152,304,119542,5,6,0:0:0:0:
112,112,120443,1,8,0:0:0:0:
32,57,120895,1,0,0:0:0:0:
114,6,121346,1,6,0:0:0:0:
256,136,122248,1,8,0:0:0:0:
324,66,122700,1,0,3:0:0:0:
360,156,123151,5,6,0:0:0:0:
160,192,124053,2,0,L|64:192,2,89.9999999999999,8|0|6,0:0|0:0|0:0,0:0:0:0:
352,240,125857,2,0,L|448:240,2,89.9999999999999,8|0|6,0:0|0:0|0:0,0:0:0:0:
160,288,127662,6,0,L|64:288,2,89.9999999999999,8|0|6,0:0|0:0|0:0,0:0:0:0:
256,192,129015,8,4,130368,1:0:0:0:
376,192,131271,5,8,0:0:0:0:
256,40,132173,1,4,0:0:0:0:
136,192,133075,1,2,0:0:0:0:
16,344,133978,5,4,1:0:0:0:
136,192,134880,1,8,0:0:0:0:
256,344,135782,1,4,0:0:0:0:
376,192,136684,1,2,0:0:0:0:
440,16,137586,5,4,1:0:0:0:
256,72,138488,1,8,0:0:0:0:
72,16,139390,1,4,0:0:0:0:
0,192,140293,1,2,0:0:0:0:
152,312,141195,5,4,1:0:0:0:
256,152,142097,1,8,0:0:0:0:
360,312,143000,1,4,0:0:0:0:
512,192,143902,2,0,L|512:96,2,89.9999999999999,4|2|4,0:0|0:0|1:0,0:0:0:0:
360,72,145707,5,8,0:0:0:0:
256,224,146609,2,0,P|180:184|184:100,1,180,4|2,0:0|0:0,0:0:0:0:
40,216,148413,6,0,P|72:304|144:352,1,180,4|8,1:0|0:0,0:0:0:0:
371,351,150218,2,4,P|443:299|472:216,1,180
372,52,152022,5,4,1:0:0:0:
140,52,152925,1,8,0:0:0:0:
176,192,153827,2,4,P|256:228|336:192,2,180,4|2|4,0:0|0:0|1:0,0:0:0:0:
256,192,156083,12,4,159240,0:0:0:0:
