osu file format v14

[General]
AudioFilename: audio.mp3
AudioLeadIn: 0
PreviewTime: 22349
Countdown: 0
SampleSet: Soft
StackLeniency: 0.7
Mode: 0
LetterboxInBreaks: 0
WidescreenStoryboard: 1

[Editor]
Bookmarks: 14607
DistanceSpacing: 1
BeatDivisor: 4
GridSize: 8
TimelineZoom: 1.8

[Metadata]
Title:Can't Do It Without You (Austin & Ally Main Title) (TV Size)
TitleUnicode:Can't Do It Without You (Austin & Ally Main Title) (TV Size)
Artist:Ross Lynch
ArtistUnicode:Ross Lynch
Creator:AJT
Version:Vespirit's Insane
Source:Austin & Ally
Tags:cant and laura marano raini rodriguez calum worthy disney channel english pop rock sirmirai cacturne vespirit hydrocannon13 -_ascended_- ascended -ascended-
BeatmapID:2941970
BeatmapSetID:1429021

[Difficulty]
HPDrainRate:5
CircleSize:3
OverallDifficulty:7
ApproachRate:8.5
SliderMultiplier:1.7
SliderTickRate:1

[Events]
//Background and Video events
0,0,"bg.jpg",0,0
Video,-50,"intro.mp4"
//Break Periods
//Storyboard Layer 0 (Background)
//Storyboard Layer 1 (Fail)
//Storyboard Layer 2 (Pass)
//Storyboard Layer 3 (Foreground)
//Storyboard Layer 4 (Overlay)
//Storyboard Sound Samples

[TimingPoints]
-3972,387.096774193548,4,2,1,65,1,0
1252,-66.6666666666667,4,2,1,65,0,0
2221,-100,4,2,1,65,0,0
4349,-66.6666666666667,4,2,1,65,0,0
5316,-100,4,2,1,65,0,0
7445,-66.6666666666667,4,2,1,65,0,0
8413,-100,4,2,1,65,0,0
10542,-66.6666666666667,4,2,1,65,0,0
11510,-100,4,2,1,65,0,0
13639,-66.6666666666667,4,2,1,65,0,0
14413,-100,4,2,1,65,0,0
14994,-149.253731343284,4,2,1,65,0,0
16155,-100,4,2,1,65,0,0
16542,-149.253731343284,4,2,1,65,0,0
17703,-100,4,2,1,65,0,0
18090,-149.253731343284,4,2,1,65,0,0
18478,-66.6666666666667,4,2,1,65,0,0
21381,-149.253731343284,4,2,1,65,0,0
22349,387.096774193548,4,2,1,80,1,1
22349,-66.6666666666667,4,2,1,80,0,1
22736,-66.6666666666667,4,2,2,80,0,1
23123,-66.6666666666667,4,2,1,80,0,1
23510,-66.6666666666667,4,2,2,80,0,1
23897,-66.6666666666667,4,2,1,80,0,1
24284,-66.6666666666667,4,2,2,80,0,1
24671,-66.6666666666667,4,2,1,80,0,1
25058,-66.6666666666667,4,2,2,80,0,1
25445,-66.6666666666667,4,2,1,80,0,1
25832,-66.6666666666667,4,2,2,80,0,1
26219,-66.6666666666667,4,2,1,80,0,1
26607,-66.6666666666667,4,2,2,80,0,1
26994,-66.6666666666667,4,2,1,80,0,1
27381,-66.6666666666667,4,2,2,80,0,1
27768,-66.6666666666667,4,2,1,80,0,1
28155,-66.6666666666667,4,2,2,80,0,1
28542,-66.6666666666667,4,2,1,80,0,1
28929,-66.6666666666667,4,2,2,80,0,1
29316,-66.6666666666667,4,2,1,80,0,1
29703,-66.6666666666667,4,2,2,80,0,1
30090,-66.6666666666667,4,2,1,80,0,1
30478,-66.6666666666667,4,2,2,80,0,1
30865,-66.6666666666667,4,2,1,80,0,1
31252,-66.6666666666667,4,2,2,80,0,1
31639,-66.6666666666667,4,2,1,80,0,1
32026,-66.6666666666667,4,2,2,80,0,1
32413,-66.6666666666667,4,2,1,80,0,1
32800,-66.6666666666667,4,2,2,80,0,1
33187,-66.6666666666667,4,2,1,80,0,1
33574,-66.6666666666667,4,2,2,80,0,1
33961,-66.6666666666667,4,2,1,80,0,1
34349,-66.6666666666667,4,2,2,80,0,1
34736,-66.6666666666667,4,2,1,80,0,1
35123,-66.6666666666667,4,2,2,80,0,1
35316,-66.6666666666667,4,2,1,80,0,1
35897,-66.6666666666667,4,2,2,80,0,1
36284,-149.253731343284,4,2,1,80,0,1
36671,-149.253731343284,4,2,2,80,0,1
36865,-149.253731343284,4,2,1,80,0,1
37445,-149.253731343284,4,2,2,80,0,1
37832,-149.253731343284,4,2,1,80,0,1
38219,-149.253731343284,4,2,2,80,0,1
38413,-149.253731343284,4,2,1,80,0,1
38994,-149.253731343284,4,2,2,80,0,1
39381,-100,4,2,1,80,0,1
39768,-100,4,2,2,80,0,1
39961,-100,4,2,1,80,0,1
40542,-100,4,2,2,80,0,1
40832,-100,4,2,2,5,0,1
40929,-66.6666666666667,4,2,1,80,0,1
41316,-66.6666666666667,4,2,2,80,0,1
41703,-66.6666666666667,4,2,1,80,0,1
42090,-66.6666666666667,4,2,2,80,0,1
42478,-66.6666666666667,4,2,1,80,0,1
42865,-66.6666666666667,4,2,2,80,0,1
43252,-66.6666666666667,4,2,1,80,0,1
43639,-66.6666666666667,4,2,2,80,0,1
44026,-66.6666666666667,4,2,1,80,0,1
44413,-66.6666666666667,4,2,2,80,0,1
44800,-66.6666666666667,4,2,1,80,0,1
45187,-66.6666666666667,4,2,2,80,0,1
45574,-66.6666666666667,4,2,1,80,0,1
45961,-66.6666666666667,4,2,2,80,0,1
46155,-66.6666666666667,4,2,1,80,0,1
46736,-66.6666666666667,4,2,2,80,0,1
47123,-100,4,2,1,80,0,0
48671,-100,4,2,1,5,0,0

[Colours]
Combo1 : 173,48,241
Combo2 : 6,156,168
Combo3 : 253,49,49
Combo4 : 251,168,244

[HitObjects]
255,155,286,5,8,0:2:0:0:
235,251,479,1,0,3:0:0:0:
235,251,672,1,0,3:0:0:0:
275,59,1060,1,8,3:2:0:0:
348,276,1254,6,0,B|358:188|358:188|407:122|407:122|417:38,1,255.000009727478,8|0,3:2|0:0,0:0:0:0:
339,143,1834,2,0,P|401:170|465:161,1,127.500004863739,10|2,0:2|0:2,0:0:0:0:
255,39,2221,6,0,P|176:31|99:137,1,170,6|10,3:2|0:2,0:0:0:0:
94,188,2801,1,0,3:0:0:0:
94,188,2995,2,0,L|113:357,1,170,2|8,0:2|0:2,0:0:0:0:
238,235,3575,5,2,0:2:0:0:
390,331,3769,2,0,P|457:336|509:310,2,85,2|2|10,3:2|0:2|0:2,0:0:0:0:
233,276,4350,6,0,B|243:188|243:188|292:122|292:122|302:38,1,255.000009727478,2|0,3:2|0:0,0:0:0:0:
293,184,4930,2,0,P|355:190|413:165,1,127.500004863739,10|2,0:2|0:2,0:0:0:0:
154,50,5317,5,2,3:2:0:0:
112,189,5704,1,10,0:2:0:0:
155,60,6091,1,2,0:2:0:0:
208,262,6479,5,10,0:2:0:0:
287,155,6672,1,2,0:2:0:0:
340,357,6866,1,2,3:2:0:0:
430,322,7059,2,0,P|472:319|512:331,1,85,2|10,0:2|0:2,0:0:0:0:
244,260,7446,6,0,B|156:270|156:270|90:319|90:319|6:329,1,255.000009727478,2|0,3:2|0:0,0:0:0:0:
155,333,8027,2,0,P|131:274|139:211,1,127.500004863739,10|2,0:2|0:2,0:0:0:0:
288,75,8414,5,2,3:2:0:0:
319,204,8801,1,10,0:2:0:0:
319,204,8995,1,2,3:2:0:0:
216,163,9188,2,0,B|168:168|168:168|140:208|140:208|192:202|192:202|206:180,1,170,2|10,0:2|0:2,0:0:0:0:
176,73,9769,5,2,0:2:0:0:
40,186,9962,2,0,P|40:248|80:296,1,127.5,2|2,3:2|0:2,0:0:0:0:
80,297,10350,1,10,0:2:0:0:
337,207,10543,6,0,B|307:218|272:207|272:207|283:324|283:324|287:358|226:362|220:302|282:299,1,255.000009727478,2|0,3:2|0:0,0:0:0:0:
175,192,11124,2,0,P|202:136|276:109,1,127.500004863739,10|2,0:2|0:2,0:0:0:0:
449,161,11511,6,0,L|460:253,1,85,2|2,3:2|0:2,0:0:0:0:
372,281,11898,2,0,L|361:196,1,85,10|2,0:2|3:2,0:0:0:0:
375,103,12285,2,0,P|413:73|448:65,2,85,2|2|10,0:2|0:2|0:2,0:0:0:0:
266,248,12866,6,0,L|244:78,1,170,2|2,0:2|0:2,0:0:0:0:
51,59,13446,1,10,0:2:0:0:
51,59,13640,6,0,L|83:311,1,255.000009727478,0|0,3:0|0:0,0:0:0:0:
266,248,14221,1,10,0:2:0:0:
453,309,14414,6,0,P|510:261|506:168,1,170,2|2,0:2|0:2,0:0:0:0:
412,139,14995,2,0,L|338:131,1,56.9499973061372,10|2,0:2|3:2,0:0:0:0:
256,123,15382,2,0,L|256:65,1,56.9499973061372,2|0,0:2|0:0,0:0:0:0:
157,134,15769,1,10,0:2:0:0:
58,145,15962,1,2,0:2:0:0:
85,266,16156,6,0,L|170:258,1,85,0|2,3:0|0:2,0:0:0:0:
256,309,16543,2,0,L|256:365,1,56.9499973061372,10|0,0:2|3:0,0:0:0:0:
342,258,16930,2,0,L|455:270,1,113.899994612274,2|10,0:2|0:2,0:0:0:0:
256,194,17511,1,2,0:2:0:0:
256,194,17704,6,0,P|254:152|268:110,1,85,0|2,3:0|0:2,0:0:0:0:
256,309,18092,2,0,P|259:337|253:364,1,56.9499973061372,10|0,0:2|3:0,0:0:0:0:
152,252,18479,6,0,P|101:300|119:193,1,255.000009727478,2|10,0:2|0:2,0:0:0:0:
299,346,19059,6,0,L|283:211,1,127.500004863739,2|0,0:2|3:0,0:0:0:0:
370,58,19446,2,0,L|385:184,1,127.500004863739,2|8,0:2|0:2,0:0:0:0:
512,321,19833,2,0,L|494:186,1,127.500004863739,2|0,3:2|0:0,0:0:0:0:
321,114,20221,2,0,L|351:367,1,255.000009727478,2|0,0:2|0:0,0:0:0:0:
252,357,20801,5,0,3:0:0:0:
158,346,20994,1,0,3:0:0:0:
62,334,21188,1,0,3:0:0:0:
120,256,21382,2,0,B|192:175|122:103|84:146|113:185,1,170.849991918412,2|8,3:2|0:2,0:0:0:0:
252,357,22350,6,0,L|378:341,1,127.500004863739,6|0,3:2|0:0,0:0:0:0:
218,245,22737,2,0,L|91:260,1,127.500004863739,10|0,0:2|0:0,0:0:0:0:
218,121,23124,2,0,L|344:136,1,127.500004863739,2|0,3:2|0:0,0:0:0:0:
512,217,23511,1,10,0:2:0:0:
417,336,23704,1,2,0:2:0:0:
351,96,23898,6,0,P|396:44|454:24,1,127.500004863739,2|2,3:2|0:2,0:0:0:0:
487,180,24285,1,10,0:2:0:0:
359,240,24479,2,0,P|287:229|212:72,1,255.000009727478,2|2,0:2|0:2,0:0:0:0:
347,122,25059,2,0,P|315:195|264:234,1,127.500004863739,8|0,0:2|0:0,0:0:0:0:
3,219,25446,6,0,P|69:202|127:221,1,127.500004863739,6|2,3:2|0:2,0:0:0:0:
231,325,25833,1,10,0:2:0:0:
83,336,26027,2,0,P|105:244|248:175,1,255.000009727478,2|2,0:2|0:2,0:0:0:0:
200,321,26608,2,0,P|137:284|107:234,1,127.500004863739,8|0,0:2|0:0,0:0:0:0:
274,25,26995,5,2,3:2:0:0:
239,174,27188,1,2,0:2:0:0:
149,45,27382,1,10,0:2:0:0:
341,127,27575,2,0,P|402:153|472:146,1,127.500004863739,2|0,0:2|3:0,0:0:0:0:
161,259,27962,1,2,0:2:0:0:
161,259,28156,2,0,P|103:284|40:280,1,127.500004863739,8|0,0:2|0:0,0:0:0:0:
351,375,28543,6,0,L|336:239,1,127.500004863739,6|0,3:2|0:0,0:0:0:0:
470,61,28930,2,0,L|456:187,1,127.500004863739,10|0,0:2|0:0,0:0:0:0:
314,363,29317,2,0,L|299:227,1,127.500004863739,2|0,3:2|0:0,0:0:0:0:
438,37,29704,1,10,0:2:0:0:
492,176,29898,1,2,0:2:0:0:
244,109,30091,6,0,P|272:42|325:9,1,127.500004863739,2|2,3:2|0:2,0:0:0:0:
384,138,30479,1,10,0:2:0:0:
286,250,30672,2,0,B|158:290|158:210|30:250,1,255.000009727478,2|2,0:2|0:2,0:0:0:0:
99,381,31253,2,0,P|154:336|178:276,1,127.500004863739,8|0,0:2|0:0,0:0:0:0:
138,21,31640,5,6,3:2:0:0:
227,141,31833,1,2,0:2:0:0:
75,127,32027,1,10,0:2:0:0:
160,250,32220,2,0,B|288:290|288:210|416:250,1,255.000009727478,2|2,0:2|0:2,0:0:0:0:
348,381,32801,2,0,P|293:336|269:276,1,127.500004863739,8|0,0:2|0:0,0:0:0:0:
303,21,33188,6,0,L|286:152,1,127.500004863739,2|0,3:2|0:0,0:0:0:0:
157,290,33575,1,10,0:2:0:0:
254,117,33769,1,2,0:2:0:0:
321,302,33962,1,0,3:0:0:0:
256,108,34156,1,2,0:2:0:0:
152,335,34348,2,0,P|80:349|23:328,1,127.500004863739,8|0,0:2|0:0,0:0:0:0:
142,99,34737,5,6,3:2:0:0:
255,156,34930,1,2,0:2:0:0:
333,102,35124,1,10,0:2:0:0:
399,134,35317,1,2,3:2:0:0:
352,164,35511,5,2,0:2:0:0:
315,144,35704,1,2,0:2:0:0:
287,160,35898,1,10,0:2:0:0:
265,146,36091,1,2,0:2:0:0:
247,155,36285,6,0,L|261:269,1,113.899994612274,2|10,3:2|0:2,0:0:0:0:
326,344,36866,2,0,P|385:347|440:328,1,113.899994612274,2|0,3:2|3:0,0:0:0:0:
231,360,37446,2,0,P|177:363|161:370,1,56.9499973061372,8|2,0:2|0:2,0:0:0:0:
46,171,37833,5,6,3:2:0:0:
153,104,38027,1,2,0:2:0:0:
237,140,38220,1,10,0:2:0:0:
238,218,38414,1,2,3:2:0:0:
284,242,38608,5,2,0:2:0:0:
316,221,38801,1,2,0:2:0:0:
314,192,38995,2,0,P|288:173|251:168,1,56.9499973061372,10|0,0:2|0:0,0:0:0:0:
119,371,39382,6,0,B|110:258|110:258|144:202,1,170,2|10,3:2|0:2,0:0:0:0:
269,296,39962,2,0,B|382:287|382:287|438:321,1,170,2|2,3:2|3:2,0:0:0:0:
377,151,40543,2,0,P|359:100|397:139,1,127.5,10|0,0:2|0:0,0:0:0:0:
397,183,40930,6,0,L|254:171,1,127.500004863739,6|0,3:2|0:0,0:0:0:0:
104,257,41317,2,0,L|231:267,1,127.500004863739,10|0,0:2|0:0,0:0:0:0:
391,353,41704,2,0,L|263:363,1,127.500004863739,2|0,3:2|0:0,0:0:0:0:
106,219,42091,1,10,0:2:0:0:
93,361,42285,1,2,0:2:0:0:
269,172,42479,6,0,P|292:107|271:37,1,127.500004863739,2|2,3:2|0:2,0:0:0:0:
137,98,42866,1,10,0:2:0:0:
176,244,43059,2,0,P|260:290|385:205,1,255.000009727478,2|2,0:2|0:2,0:0:0:0:
250,141,43640,2,0,P|233:233|255:299,1,127.500004863739,8|0,0:2|0:0,0:0:0:0:
489,171,44027,6,0,P|444:118|373:101,1,127.500004863739,6|2,3:2|0:2,0:0:0:0:
250,141,44414,1,10,0:2:0:0:
360,240,44608,2,0,P|396:162|321:12,1,255.000009727478,2|2,0:2|0:2,0:0:0:0:
274,155,45188,2,0,P|336:163|397:145,1,127.500004863739,8|0,0:2|0:0,0:0:0:0:
192,16,45575,5,2,3:2:0:0:
257,191,45769,1,2,0:2:0:0:
321,14,45962,1,10,0:2:0:0:
144,167,46156,2,0,P|85:192|18:183,1,127.500004863739,2|0,3:2|0:0,0:0:0:0:
337,273,46543,1,2,3:2:0:0:
337,273,46640,1,0,3:0:0:0:
337,273,46737,2,0,P|396:298|463:289,1,127.500004863739,8|0,0:2|0:0,0:0:0:0:
200,305,47124,5,4,3:2:0:0:
256,192,47220,12,0,48672,0:0:0:0:
