osu file format v14

[General]
AudioFilename: audio.mp3
AudioLeadIn: 0
PreviewTime: 22349
Countdown: 0
SampleSet: Soft
StackLeniency: 0.7
Mode: 0
LetterboxInBreaks: 0
WidescreenStoryboard: 1

[Editor]
Bookmarks: 14607
DistanceSpacing: 2.2
BeatDivisor: 4
GridSize: 16
TimelineZoom: 2.599999

[Metadata]
Title:Can't Do It Without You (Austin & Ally Main Title) (TV Size)
TitleUnicode:Can't Do It Without You (Austin & Ally Main Title) (TV Size)
Artist:Ross Lynch
ArtistUnicode:Ross Lynch
Creator:AJT
Version:Perfect Chord
Source:Austin & Ally
Tags:cant and laura marano raini rodriguez calum worthy disney channel english pop rock sirmirai cacturne vespirit hydrocannon13 -_ascended_- ascended -ascended-
BeatmapID:2941969
BeatmapSetID:1429021

[Difficulty]
HPDrainRate:5
CircleSize:3
OverallDifficulty:8
ApproachRate:9
SliderMultiplier:1.7
SliderTickRate:1

[Events]
//Background and Video events
0,0,"bg.jpg",0,0
Video,-50,"intro.mp4"
//Break Periods
//Storyboard Layer 0 (Background)
//Storyboard Layer 1 (Fail)
//Storyboard Layer 2 (Pass)
//Storyboard Layer 3 (Foreground)
//Storyboard Layer 4 (Overlay)
//Storyboard Sound Samples

[TimingPoints]
-3972,387.096774193548,4,2,1,65,1,0
1252,-66.6666666666667,4,2,1,65,0,0
1736,-66.6666666666667,4,2,1,5,0,0
1833,-66.6666666666667,4,2,1,65,0,0
2221,-100,4,2,1,65,0,0
4349,-66.6666666666667,4,2,1,65,0,0
4832,-66.6666666666667,4,2,1,5,0,0
4929,-66.6666666666667,4,2,1,65,0,0
5316,-100,4,2,1,65,0,0
7445,-66.6666666666667,4,2,1,65,0,0
7929,-66.6666666666667,4,2,1,5,0,0
8026,-66.6666666666667,4,2,1,65,0,0
8316,-66.6666666666667,4,2,1,5,0,0
8413,-83.3333333333333,4,2,1,65,0,0
10058,-66.6666666666667,4,2,1,5,0,0
10155,-66.6666666666667,4,2,1,65,0,0
10542,-66.6666666666667,4,2,1,65,0,0
11026,-66.6666666666667,4,2,1,5,0,0
11123,-66.6666666666667,4,2,1,65,0,0
11413,-66.6666666666667,4,2,1,5,0,0
11510,-100,4,2,1,65,0,0
12381,-66.6666666666667,4,2,1,5,0,0
12478,-100,4,2,1,65,0,0
13639,-50,4,2,1,65,0,0
14220,-66.6666666666667,4,2,1,65,0,0
14316,-66.6666666666667,4,2,1,5,0,0
14413,-66.6666666666667,4,2,1,65,0,0
14510,-66.6666666666667,4,2,1,5,0,0
14607,-80,4,2,1,65,0,0
14994,-149.253731343284,4,2,1,65,0,0
16155,-100,4,2,1,65,0,0
16542,-66.6666666666667,4,2,1,65,0,0
16929,-149.253731343284,4,2,1,65,0,0
17703,-100,4,2,1,65,0,0
18090,-149.253731343284,4,2,1,65,0,0
18284,-149.253731343284,4,2,1,65,0,0
18380,-149.253731343284,4,2,1,5,0,0
18478,-33.3333333333333,4,2,1,65,0,0
18671,-33.3333333333333,4,2,1,33,0,0
18865,-33.3333333333333,4,2,1,65,0,0
19058,-57.1428571428571,4,2,1,65,0,0
21768,-45.4545454545455,4,2,1,65,0,0
22349,387.096774193548,4,2,1,80,1,1
22349,-50,4,2,1,80,0,1
22736,-50,4,2,2,80,0,1
23123,-50,4,2,1,80,0,1
23510,-50,4,2,2,80,0,1
23897,-50,4,2,1,80,0,1
24284,-50,4,2,2,80,0,1
24671,-50,4,2,1,80,0,1
25058,-50,4,2,2,80,0,1
25155,-50,4,2,2,5,0,1
25252,-50,4,2,2,80,0,1
25445,-50,4,2,1,80,0,1
25832,-50,4,2,2,80,0,1
26219,-50,4,2,1,80,0,1
26607,-50,4,2,2,80,0,1
26703,-50,4,2,2,5,0,1
26800,-50,4,2,2,80,0,1
26994,-50,4,2,1,80,0,1
27381,-50,4,2,2,80,0,1
27768,-50,4,2,1,80,0,1
28155,-50,4,2,2,80,0,1
28349,-50,4,2,2,80,0,1
28542,-50,4,2,1,80,0,1
28929,-50,4,2,2,80,0,1
29316,-50,4,2,1,80,0,1
29703,-50,4,2,2,80,0,1
30090,-50,4,2,1,80,0,1
30478,-50,4,2,2,80,0,1
30865,-50,4,2,1,80,0,1
31252,-50,4,2,2,80,0,1
31349,-50,4,2,2,5,0,1
31446,-50,4,2,2,80,0,1
31639,-50,4,2,1,80,0,1
32026,-50,4,2,2,80,0,1
32413,-50,4,2,1,80,0,1
32800,-50,4,2,2,80,0,1
32897,-50,4,2,2,5,0,1
32994,-50,4,2,2,80,0,1
33187,-50,4,2,1,80,0,1
33574,-50,4,2,2,80,0,1
33961,-50,4,2,1,80,0,1
34349,-50,4,2,2,80,0,1
34736,-50,4,2,1,80,0,1
34832,-50,4,2,1,5,0,1
34929,-50,4,2,1,80,0,1
35026,-50,4,2,1,5,0,1
35123,-50,4,2,2,80,0,1
35219,-50,4,2,2,5,0,1
35316,-50,4,2,1,80,0,1
35413,-50,4,2,1,5,0,1
35510,-50,4,2,1,80,0,1
35607,-50,4,2,1,5,0,1
35703,-50,4,2,1,80,0,1
35800,-50,4,2,1,5,0,1
35897,-50,4,2,2,80,0,1
35994,-50,4,2,2,5,0,1
36090,-50,4,2,2,80,0,1
36187,-50,4,2,2,5,0,1
36284,-149.253731343284,4,2,1,80,0,1
36671,-149.253731343284,4,2,2,80,0,1
36865,-149.253731343284,4,2,1,80,0,1
37155,-149.253731343284,4,2,1,5,0,1
37252,-149.253731343284,4,2,1,80,0,1
37349,-149.253731343284,4,2,1,5,0,1
37445,-149.253731343284,4,2,2,80,0,1
37542,-149.253731343284,4,2,2,5,0,1
37639,-149.253731343284,4,2,2,80,0,1
37832,-50,4,2,1,80,0,1
37929,-50,4,2,1,5,0,1
38026,-50,4,2,1,80,0,1
38123,-50,4,2,1,5,0,1
38219,-50,4,2,2,80,0,1
38316,-50,4,2,2,5,0,1
38413,-50,4,2,1,80,0,1
38510,-50,4,2,1,5,0,1
38607,-50,4,2,1,80,0,1
38994,-50,4,2,2,80,0,1
39381,-50,4,2,1,80,0,1
39768,-50,4,2,2,80,0,1
39961,-50,4,2,1,80,0,1
40445,-50,4,2,1,5,0,1
40542,-285.714285714286,4,2,2,80,0,1
40832,-50,4,2,2,5,0,1
40929,-50,4,2,1,80,0,1
41316,-50,4,2,2,80,0,1
41703,-50,4,2,1,80,0,1
42090,-50,4,2,2,80,0,1
42478,-50,4,2,1,80,0,1
42865,-50,4,2,2,80,0,1
43252,-50,4,2,1,80,0,1
43639,-50,4,2,2,80,0,1
43736,-50,4,2,2,5,0,1
43833,-50,4,2,2,80,0,1
44026,-40,4,2,1,80,0,1
44413,-50,4,2,2,80,0,1
44800,-50,4,2,1,80,0,1
45187,-50,4,2,2,80,0,1
45284,-50,4,2,2,5,0,1
45381,-50,4,2,2,80,0,1
45574,-50,4,2,1,80,0,1
45961,-50,4,2,2,80,0,1
46155,-50,4,2,1,80,0,1
46736,-50,4,2,2,80,0,1
47123,-50,4,2,1,80,0,0
48671,-50,4,2,1,80,0,0

[Colours]
Combo1 : 173,48,241
Combo2 : 6,156,168
Combo3 : 253,49,49
Combo4 : 251,168,244

[HitObjects]
32,32,286,5,8,0:2:0:0:
197,69,479,1,0,3:0:0:0:
225,78,673,1,0,3:0:0:0:
32,32,1060,1,8,3:2:0:0:
79,183,1253,6,0,B|86:116|86:116|123:67|123:67|130:5,1,191.250007295609,8|0,3:2|0:0,0:0:0:0:
71,274,1640,2,0,B|36:269|36:269|15:249,1,63.7500024318696,0|0,3:0|0:0,0:0:0:0:
178,152,1834,1,10,0:2:0:0:
259,250,2027,1,2,0:2:0:0:
491,37,2221,6,0,P|450:22|399:32,1,85,6|0,3:2|0:0,0:0:0:0:
305,155,2608,1,10,0:2:0:0:
400,209,2801,1,0,3:0:0:0:
331,121,2995,2,0,L|350:290,1,170,2|8,0:2|0:2,0:0:0:0:
444,194,3575,1,2,0:2:0:0:
289,36,3769,5,2,3:2:0:0:
189,12,3962,1,2,0:2:0:0:
124,91,4156,1,10,0:2:0:0:
77,245,4350,6,0,B|70:178|70:178|33:129|33:129|25:66,1,191.250007295609,2|0,3:2|0:0,0:0:0:0:
120,322,4737,2,0,B|90:335|90:335|60:331,1,63.7500024318696,0|0,3:0|0:0,0:0:0:0:
238,236,4930,1,10,0:2:0:0:
366,340,5123,1,2,0:2:0:0:
248,147,5317,6,0,P|206:149|173:175,1,85,2|0,3:2|0:0,0:0:0:0:
366,340,5705,1,10,0:2:0:0:
238,236,5898,1,0,3:0:0:0:
415,183,6092,2,0,P|454:168|496:176,1,85,2|0,0:2|0:0,0:0:0:0:
463,260,6479,5,10,0:2:0:0:
372,88,6673,1,2,0:2:0:0:
309,146,6866,1,2,3:2:0:0:
218,55,7060,2,0,P|176:52|136:64,1,85,2|10,0:2|0:2,0:0:0:0:
257,323,7447,6,0,B|264:256|264:256|301:207|301:207|309:144,1,191.250007295609,2|0,3:2|0:0,0:0:0:0:
348,317,7834,2,0,B|350:349|350:349|332:375,1,63.7500024318696,0|0,3:0|0:0,0:0:0:0:
215,176,8027,1,10,0:2:0:0:
305,61,8221,2,0,B|338:59|338:59|364:77,1,63.7500024318696,2|0,0:2|0:0,0:0:0:0:
461,61,8415,6,0,P|456:111|418:153,1,101.999996887207,2|0,3:2|0:0,0:0:0:0:
255,287,8802,1,10,0:2:0:0:
192,160,8995,1,2,3:2:0:0:
152,80,9189,2,0,P|105:137|119:210,1,152.999995330811,2|0,0:2|0:0,0:0:0:0:
192,160,9576,5,10,0:2:0:0:
119,210,9769,1,2,0:2:0:0:
256,304,9963,2,0,B|259:317|259:317|251:359,1,50.9999984436036,2|0,3:2|0:0,0:0:0:0:
251,353,10253,37,2,0:2:0:0:
251,353,10350,1,10,0:2:0:0:
225,120,10543,38,0,B|164:128|164:128|115:165|115:165|48:172,1,191.250007295609,2|0,3:2|0:0,0:0:0:0:
200,281,10930,2,0,B|198:218,1,63.7500024318696,0|0,3:0|0:0,0:0:0:0:
74,77,11123,1,10,0:2:0:0:
200,281,11318,2,0,B|198:218,1,63.7500024318696,2|0,0:2|0:0,0:0:0:0:
74,77,11511,5,2,3:2:0:0:
198,4,11705,1,2,0:2:0:0:
269,127,11898,1,10,0:2:0:0:
144,201,12092,1,2,3:2:0:0:
42,202,12286,2,0,P|42:180|54:158,1,42.5,2|0,0:2|0:0,0:0:0:0:
144,201,12479,1,2,0:2:0:0:
117,71,12673,1,10,0:2:0:0:
76,295,12866,6,0,B|157:306|157:306|237:271,1,170,2|2,0:2|0:2,0:0:0:0:
50,161,13447,1,10,0:2:0:0:
318,261,13640,6,0,B|201:313|201:313|76:295,1,255.000009727478,0|0,3:0|0:0,0:0:0:0:
75,294,14027,1,0,3:0:0:0:
144,48,14221,6,0,L|80:42,1,63.7500024318696,10|0,0:2|0:0,0:0:0:0:
240,48,14414,2,0,L|306:42,1,63.7500024318696,2|0,0:2|0:0,0:0:0:0:
178,257,14608,6,0,P|216:288|230:346,1,106.25,4|2,3:2|0:2,0:0:0:0:
75,294,14995,1,10,0:2:0:0:
230,341,15188,1,2,3:2:0:0:
256,128,15382,6,0,L|256:70,1,56.9499973061372,2|0,0:2|0:0,0:0:0:0:
400,96,15769,1,10,0:2:0:0:
256,32,15962,1,2,0:2:0:0:
112,96,16156,6,0,L|104:181,1,85,0|2,3:0|0:2,0:0:0:0:
228,240,16543,2,0,P|207:281|215:235,1,127.500004863739,10|0,0:2|3:0,0:0:0:0:
0,0,16930,6,0,L|70:7,1,56.9499973061372,2|0,0:2|0:0,0:0:0:0:
170,16,17317,1,10,0:2:0:0:
340,34,17511,1,2,0:2:0:0:
332,124,17704,6,0,P|375:119|411:93,1,85,0|2,3:0|0:2,0:0:0:0:
288,208,18091,2,0,P|294:251|282:297,1,85.4249959592058,10|0,0:2|0:0,0:0:0:0:
189,248,18479,6,0,P|98:256|183:227,1,255.000009727478,2|0,0:2|0:0,0:0:0:0:
284,291,18866,1,10,0:2:0:0:
496,48,19059,6,0,L|342:66,1,148.750001418591,2|0,0:2|3:0,0:0:0:0:
16,128,19446,2,0,L|170:146,1,148.750001418591,2|8,0:2|0:2,0:0:0:0:
496,128,19833,2,0,L|342:146,1,148.750001418591,2|0,3:2|0:0,0:0:0:0:
32,48,20220,2,0,B|154:37|240:116|240:116|220:198,1,297.500002837181,2|0,0:2|0:0,0:0:0:0:
192,288,20801,5,0,3:0:0:0:
416,240,20994,1,0,3:0:0:0:
496,224,21188,5,0,3:0:0:0:
304,272,21382,1,2,3:2:0:0:
256,112,21575,1,0,3:0:0:0:
165,45,21769,6,0,B|250:7|250:7|340:32,1,187.000005706787,0|8,3:0|0:2,0:0:0:0:
480,352,22350,6,0,L|300:329,1,170,6|0,3:2|0:0,0:0:0:0:
224,64,22737,2,0,L|245:232,1,170,10|0,0:2|0:0,0:0:0:0:
33,352,23124,2,0,L|201:330,1,170,2|0,3:2|0:0,0:0:0:0:
224,64,23511,1,10,0:2:0:0:
336,192,23704,1,2,0:2:0:0:
512,0,23898,6,0,B|473:5|473:5|458:134,2,170,2|2|10,3:2|0:2|0:2,0:0:0:0:
276,80,24479,2,0,L|297:248,1,170,2|0,0:2|3:0,0:0:0:0:
308,336,24866,1,2,0:2:0:0:
276,80,25059,2,0,L|286:164,1,85,8|0,0:2|0:0,0:0:0:0:
297,248,25252,1,0,0:0:0:0:
0,0,25446,6,0,B|39:5|39:5|54:134,2,170,6|2|10,3:2|0:2|0:2,0:0:0:0:
105,307,26027,2,0,P|121:225|181:165,1,170,2|0,0:2|3:0,0:0:0:0:
257,121,26414,1,2,0:2:0:0:
105,307,26608,2,0,P|121:226|180:167,1,85,8|0,0:2|0:0,0:0:0:0:
181,165,26801,1,0,0:0:0:0:
512,384,26995,5,2,3:2:0:0:
347,342,27188,1,2,0:2:0:0:
327,172,27382,1,10,0:2:0:0:
164,148,27575,2,0,B|251:139|251:139|326:171,1,170,2|0,0:2|3:0,0:0:0:0:
236,242,27962,1,2,0:2:0:0:
221,43,28155,2,0,L|135:50,1,85,8|0,0:2|0:0,0:0:0:0:
151,249,28348,2,0,L|236:241,1,85,8|0,0:2|0:0,0:0:0:0:
0,384,28542,6,0,L|23:204,1,170,6|0,3:2|0:0,0:0:0:0:
248,106,28929,2,0,L|80:128,1,170,10|0,0:2|0:0,0:0:0:0:
300,345,29317,2,0,L|320:176,1,170,2|0,3:2|0:0,0:0:0:0:
80,128,29704,1,10,0:2:0:0:
248,106,29898,1,2,0:2:0:0:
178,251,30091,6,0,P|148:170|77:126,1,170,2|2,3:2|0:2,0:0:0:0:
368,64,30479,1,10,0:2:0:0:
79,127,30672,2,0,P|149:172|178:251,1,170,2|0,0:2|3:0,0:0:0:0:
176,336,31059,1,2,0:2:0:0:
79,127,31253,2,0,P|148:171|177:249,1,85,8|0,0:2|0:0,0:0:0:0:
177,250,31446,1,0,0:0:0:0:
399,299,31640,6,0,P|429:218|500:174,1,170,6|2,3:2|0:2,0:0:0:0:
351,27,32026,1,10,0:2:0:0:
498,175,32219,2,0,P|428:220|399:299,1,170,2|0,0:2|3:0,0:0:0:0:
401,384,32607,1,2,0:2:0:0:
498,175,32800,2,0,P|428:219|399:297,1,85,8|0,0:2|0:0,0:0:0:0:
400,298,32994,1,0,0:0:0:0:
288,16,33187,6,0,B|254:-3|254:-3|97:13,1,170,2|0,3:2|0:0,0:0:0:0:
224,176,33575,1,10,0:2:0:0:
123,10,33769,2,0,B|254:-3|254:-3|288:16,1,170,2|0,0:2|3:0,0:0:0:0:
224,176,34156,1,2,0:2:0:0:
0,0,34348,2,0,L|7:86,1,85,8|0,0:2|0:0,0:0:0:0:
64,192,34542,2,0,L|56:277,1,85,8|0,0:2|0:0,0:0:0:0:
176,288,34736,6,0,B|162:328|162:328|184:372,1,85,6|0,3:2|0:0,0:0:0:0:
266,366,34929,2,0,B|286:328|286:328|272:288,1,85,2|0,0:2|0:0,0:0:0:0:
234,108,35123,2,0,L|234:193,1,85,10|0,0:2|0:0,0:0:0:0:
224,207,35316,2,0,L|224:122,1,85,2|0,3:2|0:0,0:0:0:0:
144,48,35511,6,0,B|104:34|104:34|60:56,1,85,2|0,0:2|0:0,0:0:0:0:
65,53,35704,2,0,B|104:34|104:34|144:48,1,85,2|0,0:2|0:0,0:0:0:0:
112,139,35898,2,0,L|112:224,1,85,10|0,0:2|0:0,0:0:0:0:
99,241,36091,2,0,L|99:156,1,85,2|0,0:2|0:0,0:0:0:0:
272,48,36285,6,0,B|309:32|309:32|399:53,1,113.899994612274,2|10,3:2|0:2,0:0:0:0:
468,32,36866,2,0,P|464:80|436:120,1,85.4249959592058,2|0,3:2|0:0,0:0:0:0:
384,176,37253,2,0,L|393:202,1,28.4749986530686,2|0,3:2|0:0,0:0:0:0:
384,224,37446,2,0,L|375:198,1,28.4749986530686,10|0,0:2|0:0,0:0:0:0:
374,197,37640,1,2,0:2:0:0:
512,352,37833,6,0,B|428:360,1,85,6|0,3:2|0:0,0:0:0:0:
324,328,38027,2,0,B|240:320,1,85,2|0,0:2|0:0,0:0:0:0:
55,347,38220,2,0,B|139:355,1,85,10|0,0:2|0:0,0:0:0:0:
239,319,38414,2,0,B|323:327,1,85,2|0,3:2|0:0,0:0:0:0:
512,352,38608,5,2,0:2:0:0:
400,80,38801,1,2,0:2:0:0:
240,320,38995,1,10,0:2:0:0:
240,320,39382,6,0,B|249:207|249:207|215:151,1,170,2|0,3:2|0:0,0:0:0:0:
96,16,39769,1,10,0:2:0:0:
219,158,39962,2,0,B|249:207|249:207|240:320,1,170,2|0,3:2|0:0,0:0:0:0:
96,16,40348,2,0,L|91:117,1,85,2|0,3:2|0:0,0:0:0:0:
48,272,40543,6,0,B|42:319,1,44.6249986381531,10|0,0:2|0:0,0:0:0:0:
36,357,40930,6,0,L|216:334,1,170,6|0,3:2|0:0,0:0:0:0:
384,208,41317,2,0,L|204:185,1,170,10|0,0:2|0:0,0:0:0:0:
36,357,41704,2,0,L|212:332,1,170,2|0,3:2|0:0,0:0:0:0:
384,208,42091,1,10,0:2:0:0:
215,186,42285,1,2,0:2:0:0:
400,367,42479,6,0,B|363:247|363:247|387:200,2,170,2|2|10,3:2|0:2|0:2,0:0:0:0:
448,64,43059,2,0,L|280:85,1,170,2|0,0:2|3:0,0:0:0:0:
192,96,43446,1,2,0:2:0:0:
448,64,43640,2,0,L|364:74,1,85,8|0,0:2|0:0,0:0:0:0:
279,85,43832,1,0,0:0:0:0:
320,320,44027,6,0,B|277:296|277:296|118:330,2,212.5,6|2|10,3:2|0:2|0:2,0:0:0:0:
485,316,44607,2,0,L|336:231,1,170,2|0,0:2|3:0,0:0:0:0:
257,191,44994,1,2,0:2:0:0:
485,316,45188,2,0,L|338:232,1,85,8|0,0:2|0:0,0:0:0:0:
337,231,45382,1,0,0:0:0:0:
88,56,45575,5,2,3:2:0:0:
257,191,45769,1,2,0:2:0:0:
424,56,45962,1,10,0:2:0:0:
26,149,46156,2,0,P|109:156|186:123,1,170,2|0,3:2|0:0,0:0:0:0:
320,256,46543,1,2,3:2:0:0:
320,256,46640,1,0,3:0:0:0:
320,256,46737,2,0,L|404:276,1,85,8|0,0:2|0:0,0:0:0:0:
492,358,46930,2,0,L|407:379,1,85,8|0,0:2|0:0,0:0:0:0:
496,0,47124,5,4,3:2:0:0:
