osu file format v14

[General]
AudioFilename: audio.mp3
AudioLeadIn: 0
PreviewTime: 22349
Countdown: 0
SampleSet: Soft
StackLeniency: 0.7
Mode: 0
LetterboxInBreaks: 0
WidescreenStoryboard: 1

[Editor]
DistanceSpacing: 1
BeatDivisor: 2
GridSize: 16
TimelineZoom: 1

[Metadata]
Title:Can't Do It Without You (Austin & Ally Main Title) (TV Size)
TitleUnicode:Can't Do It Without You (Austin & Ally Main Title) (TV Size)
Artist:Ross Lynch
ArtistUnicode:Ross Lynch
Creator:AJT
Version:Normal
Source:Austin & Ally
Tags:cant and laura marano raini rodriguez calum worthy disney channel english pop rock sirmirai cacturne vespirit hydrocannon13 -_ascended_- ascended -ascended-
BeatmapID:2941968
BeatmapSetID:1429021

[Difficulty]
HPDrainRate:3
CircleSize:3
OverallDifficulty:4
ApproachRate:6
SliderMultiplier:1.14999990463257
SliderTickRate:1

[Events]
//Background and Video events
0,0,"bg.jpg",0,0
Video,-50,"intro.mp4"
//Break Periods
//Storyboard Layer 0 (Background)
//Storyboard Layer 1 (Fail)
//Storyboard Layer 2 (Pass)
//Storyboard Layer 3 (Foreground)
//Storyboard Layer 4 (Overlay)
//Storyboard Sound Samples

[TimingPoints]
-3972,387.096774193548,4,2,1,65,1,0
22349,387.096774193548,4,2,1,80,1,1
22349,-90.9090909090909,4,2,1,80,0,1
22736,-90.9090909090909,4,2,2,80,0,1
23123,-90.9090909090909,4,2,1,80,0,1
23510,-90.9090909090909,4,2,2,80,0,1
23897,-90.9090909090909,4,2,1,80,0,1
24284,-90.9090909090909,4,2,2,80,0,1
24671,-90.9090909090909,4,2,1,80,0,1
25058,-90.9090909090909,4,2,2,80,0,1
25445,-90.9090909090909,4,2,1,80,0,1
25832,-90.9090909090909,4,2,2,80,0,1
26219,-90.9090909090909,4,2,1,80,0,1
26607,-90.9090909090909,4,2,2,80,0,1
26994,-90.9090909090909,4,2,1,80,0,1
27381,-90.9090909090909,4,2,2,80,0,1
27768,-90.9090909090909,4,2,1,80,0,1
28155,-90.9090909090909,4,2,2,80,0,1
28542,-90.9090909090909,4,2,1,80,0,1
28929,-90.9090909090909,4,2,2,80,0,1
29316,-90.9090909090909,4,2,1,80,0,1
29703,-90.9090909090909,4,2,2,80,0,1
30090,-90.9090909090909,4,2,1,80,0,1
30478,-90.9090909090909,4,2,2,80,0,1
30865,-90.9090909090909,4,2,1,80,0,1
31252,-90.9090909090909,4,2,2,80,0,1
31639,-90.9090909090909,4,2,1,80,0,1
32026,-90.9090909090909,4,2,2,80,0,1
32413,-90.9090909090909,4,2,1,80,0,1
32800,-90.9090909090909,4,2,2,80,0,1
33187,-90.9090909090909,4,2,1,80,0,1
33574,-90.9090909090909,4,2,2,80,0,1
33961,-90.9090909090909,4,2,1,80,0,1
34349,-90.9090909090909,4,2,2,80,0,1
34736,-90.9090909090909,4,2,1,80,0,1
35123,-90.9090909090909,4,2,2,80,0,1
35316,-90.9090909090909,4,2,1,80,0,1
35897,-90.9090909090909,4,2,2,80,0,1
36284,-90.9090909090909,4,2,1,80,0,1
36671,-90.9090909090909,4,2,2,80,0,1
36865,-90.9090909090909,4,2,1,80,0,1
37445,-90.9090909090909,4,2,2,80,0,1
37832,-90.9090909090909,4,2,1,80,0,1
38219,-90.9090909090909,4,2,2,80,0,1
38413,-90.9090909090909,4,2,1,80,0,1
38994,-90.9090909090909,4,2,2,80,0,1
39381,-90.9090909090909,4,2,1,80,0,1
39768,-90.9090909090909,4,2,2,80,0,1
39961,-90.9090909090909,4,2,1,80,0,1
40542,-90.9090909090909,4,2,2,80,0,1
40929,-90.9090909090909,4,2,1,80,0,1
41316,-90.9090909090909,4,2,2,80,0,1
41703,-90.9090909090909,4,2,1,80,0,1
42090,-90.9090909090909,4,2,2,80,0,1
42478,-90.9090909090909,4,2,1,80,0,1
42865,-90.9090909090909,4,2,2,80,0,1
43252,-90.9090909090909,4,2,1,80,0,1
43639,-90.9090909090909,4,2,2,80,0,1
44026,-90.9090909090909,4,2,1,80,0,1
44413,-90.9090909090909,4,2,2,80,0,1
44800,-90.9090909090909,4,2,1,80,0,1
45187,-90.9090909090909,4,2,2,80,0,1
45574,-90.9090909090909,4,2,1,80,0,1
45961,-90.9090909090909,4,2,2,80,0,1
46155,-90.9090909090909,4,2,1,80,0,1
46736,-90.9090909090909,4,2,2,80,0,1
47123,-100,4,2,1,80,0,0

[Colours]
Combo1 : 173,48,241
Combo2 : 6,156,168
Combo3 : 253,49,49
Combo4 : 251,168,244

[HitObjects]
78,46,1834,6,0,L|80:117,1,57.4999952316284,10|2,0:2|0:2,0:0:0:0:
47,151,2221,2,0,B|34:172|34:172|41:282,2,114.999995231628,6|10|2,3:2|0:2|0:2,0:0:0:0:
161,165,3383,1,8,0:2:0:0:
245,242,3770,2,0,L|243:312,1,57.4999976158142,2|2,3:2|0:2,0:0:0:0:
287,345,4157,1,10,0:2:0:0:
287,345,4350,2,0,B|308:358|308:358|418:351,2,114.999995231628,2|0|2,3:2|0:0|0:2,0:0:0:0:
254,297,5318,5,2,3:2:0:0:
286,186,5705,1,10,0:2:0:0:
209,100,6092,1,2,0:2:0:0:
300,30,6479,2,0,L|370:32,1,57.4999976158142,10|2,0:2|0:2,0:0:0:0:
414,37,6866,1,2,3:2:0:0:
414,37,7060,2,0,L|412:107,1,57.4999976158142,2|10,0:2|0:2,0:0:0:0:
440,144,7447,2,0,B|453:165|453:165|446:275,1,114.999995231628,2|0,3:2|0:0,0:0:0:0:
421,306,8028,2,0,L|351:304,1,57.4999976158142,10|2,0:2|0:2,0:0:0:0:
305,306,8415,5,2,3:2:0:0:
212,237,8802,2,0,L|142:235,1,57.4999976158142,10|2,0:2|3:2,0:0:0:0:
96,237,9189,1,2,0:2:0:0:
97,122,9576,2,0,L|167:120,1,57.4999976158142,10|2,0:2|0:2,0:0:0:0:
185,71,9963,2,0,L|276:70,1,86.2499964237214,2|2,3:2|0:2,0:0:0:0:
339,123,10544,2,0,B|326:102|326:102|333:-8,2,114.999995231628,2|0|2,3:2|0:0|0:2,0:0:0:0:
395,135,11512,6,0,L|397:205,1,57.4999976158142,2|2,3:2|0:2,0:0:0:0:
380,247,11899,2,0,L|310:249,1,57.4999976158142,10|2,0:2|3:2,0:0:0:0:
272,220,12286,2,0,L|202:222,1,57.4999976158142,2|2,0:2|0:2,0:0:0:0:
156,222,12673,1,10,0:2:0:0:
156,222,12866,1,2,0:2:0:0:
61,285,13254,1,2,0:2:0:0:
61,285,13447,1,10,0:2:0:0:
126,379,13834,1,2,0:2:0:0:
221,315,14221,5,10,0:2:0:0:
274,336,14415,1,2,0:2:0:0:
327,313,14608,2,0,B|380:297|380:297|450:311,2,114.999995231628,4|10|2,3:2|0:2|0:2,0:0:0:0:
273,211,15770,1,10,0:2:0:0:
291,156,15963,1,2,0:2:0:0:
261,106,16157,2,0,B|208:90|208:90|138:104,2,114.999995231628,0|10|2,3:0|0:2|0:2,0:0:0:0:
356,40,17318,5,10,0:2:0:0:
356,40,17512,2,0,B|236:6,1,114.999995231628,2|2,0:2|0:2,0:0:0:0:
188,8,18092,2,0,B|122:21,1,57.4999976158142,10|0,0:2|3:0,0:0:0:0:
76,36,18479,1,2,0:2:0:0:
83,155,18866,5,10,0:2:0:0:
83,155,19060,2,0,B|38:237|38:237|49:275,2,114.999995231628,2|2|2,0:2|0:2|3:2,0:0:0:0:
195,129,20221,2,0,B|224:133|224:133|289:210,1,114.999995231628,2|0,0:2|0:0,0:0:0:0:
266,254,20802,2,0,B|322:265,1,57.4999976158142,0|0,3:0|3:0,0:0:0:0:
374,289,21189,2,0,B|385:345,1,57.4999976158142,0|2,3:0|3:2,0:0:0:0:
428,383,21576,1,0,3:0:0:0:
482,363,21770,1,0,3:0:0:0:
489,306,21963,1,8,0:2:0:0:
381,238,22350,6,0,B|395:171,1,63.2499993076325,6|0,3:2|0:0,0:0:0:0:
457,171,22737,1,10,0:2:0:0:
474,46,23124,1,2,3:2:0:0:
354,9,23511,1,10,0:2:0:0:
297,37,23704,1,2,0:2:0:0:
297,37,23898,2,0,B|290:108,2,63.2499993076325,2|2|10,3:2|0:2|0:2,0:0:0:0:
239,10,24479,1,2,0:2:0:0:
146,96,24866,1,2,0:2:0:0:
154,158,25059,1,8,0:2:0:0:
34,192,25446,6,0,B|27:121,2,63.2499993076325,6|2|10,3:2|0:2|0:2,0:0:0:0:
40,255,26027,1,2,0:2:0:0:
131,342,26414,1,2,0:2:0:0:
191,360,26608,1,8,0:2:0:0:
194,232,26995,6,0,B|265:225,1,63.2499993076325,2|2,3:2|0:2,0:0:0:0:
319,218,27382,1,10,0:2:0:0:
319,218,27575,2,0,B|312:147,1,63.2499993076325,2|0,0:2|3:0,0:0:0:0:
291,95,27962,1,2,0:2:0:0:
228,83,28156,1,8,0:2:0:0:
99,95,28543,6,0,B|85:162,1,63.2499993076325,6|0,3:2|0:0,0:0:0:0:
22,162,28930,1,10,0:2:0:0:
1,286,29317,1,2,3:2:0:0:
123,297,29704,1,10,0:2:0:0:
174,333,29898,1,2,0:2:0:0:
174,333,30091,2,0,B|245:313,2,63.2499993076325,2|2|10,3:2|0:2|0:2,0:0:0:0:
123,297,30672,1,2,0:2:0:0:
169,179,31059,1,2,0:2:0:0:
161,115,31253,1,8,0:2:0:0:
258,26,31640,6,0,B|329:46,2,63.2499993076325,6|2|10,3:2|0:2|0:2,0:0:0:0:
194,24,32220,1,2,0:2:0:0:
84,87,32608,1,2,0:2:0:0:
59,145,32801,1,8,0:2:0:0:
28,268,33188,6,0,B|99:275,1,63.2499993076325,2|0,3:2|0:0,0:0:0:0:
126,333,33575,1,10,0:2:0:0:
126,333,33768,2,0,B|197:340,1,63.2499993076325,2|0,0:2|3:0,0:0:0:0:
252,347,34156,1,2,0:2:0:0:
295,301,34348,1,8,0:2:0:0:
233,185,34737,6,0,B|166:171,1,63.2499993076325,6|2,3:2|0:2,0:0:0:0:
108,159,35124,1,10,0:2:0:0:
46,146,35317,1,2,3:2:0:0:
54,83,35511,2,0,B|68:16,1,63.2499993076325,2|2,0:2|0:2,0:0:0:0:
130,19,35898,1,10,0:2:0:0:
192,32,36091,1,2,0:2:0:0:
179,94,36285,6,0,B|217:132|270:83|310:127,1,126.499998615265,2|10,3:2|0:2,0:0:0:0:
313,179,36866,1,2,3:2:0:0:
204,240,37253,1,2,3:2:0:0:
204,240,37446,1,10,0:2:0:0:
273,345,37833,6,0,B|340:359,1,63.2499993076325,6|2,3:2|0:2,0:0:0:0:
383,317,38220,2,0,B|397:250,1,63.2499993076325,10|2,0:2|3:2,0:0:0:0:
391,191,38608,2,0,B|324:177,1,63.2499993076325,2|2,0:2|0:2,0:0:0:0:
266,166,38995,1,10,0:2:0:0:
203,55,39382,6,0,B|165:93|112:44|72:88,1,126.499998615265,2|10,3:2|0:2,0:0:0:0:
29,43,39962,2,0,B|-9:81|40:134|-4:174,1,126.499998615265,2|2,3:2|3:2,0:0:0:0:
1,226,40543,1,10,0:2:0:0:
4,352,40930,6,0,B|71:338,1,63.2499993076325,6|0,3:2|0:0,0:0:0:0:
123,311,41317,1,10,0:2:0:0:
109,185,41704,1,2,3:2:0:0:
235,200,42091,1,10,0:2:0:0:
284,161,42284,1,2,0:2:0:0:
336,195,42478,2,0,B|329:266,2,63.2499993076325,2|2|10,3:2|0:2|0:2,0:0:0:0:
389,161,43059,1,2,0:2:0:0:
339,44,43446,1,2,0:2:0:0:
391,79,43640,1,8,0:2:0:0:
483,166,44027,6,0,B|476:237,1,63.2499993076325,6|2,3:2|0:2,0:0:0:0:
465,291,44414,1,10,0:2:0:0:
465,291,44608,2,0,B|394:284,1,63.2499993076325,2|0,0:2|3:0,0:0:0:0:
344,311,44995,1,2,0:2:0:0:
285,287,45188,1,8,0:2:0:0:
194,198,45575,6,0,B|201:127,1,63.2499993076325,2|2,3:2|0:2,0:0:0:0:
182,74,45962,1,10,0:2:0:0:
228,31,46156,2,0,B|299:38,1,63.2499993076325,2|0,3:2|0:0,0:0:0:0:
340,76,46543,1,2,3:2:0:0:
400,56,46736,1,8,0:2:0:0:
486,132,47124,1,4,3:2:0:0:
