osu file format v14

[General]
AudioFilename: audio.mp3
AudioLeadIn: 0
PreviewTime: -1
Countdown: 1
SampleSet: Normal
StackLeniency: 0.7
Mode: 0
LetterboxInBreaks: 0
WidescreenStoryboard: 0

[Editor]
Bookmarks: 22262,64262
DistanceSpacing: 1
BeatDivisor: 4
GridSize: 16
TimelineZoom: 1.8

[Metadata]
Title:Momentary Madness
TitleUnicode:Momentary Madness
Artist:Ross Lara (Feat. Valoriz, Taylor Carson)
ArtistUnicode:Ross Lara (Feat. Valoriz, Taylor Carson)
Creator:- Apollo -
Version:Extra
Source:
Tags:
BeatmapID:2054318
BeatmapSetID:981621

[Difficulty]
HPDrainRate:8
CircleSize:4
OverallDifficulty:8
ApproachRate:9
SliderMultiplier:2
SliderTickRate:2

[Events]
//Background and Video events
0,0,"cold_winds_by_mhandt_dd8dxd5-fullview.jpg",0,0
//Break Periods
//Storyboard Layer 0 (Background)
//Storyboard Layer 1 (Fail)
//Storyboard Layer 2 (Pass)
//Storyboard Layer 3 (Foreground)
//Storyboard Sound Samples

[TimingPoints]
1715,428.571428571429,4,1,0,100,1,0
64262,-133.333333333333,4,1,0,100,0,0
66833,-100,4,1,0,100,0,0
68333,-133.333333333333,4,1,0,100,0,0
70262,-66.6666666666667,4,1,0,100,0,0
71119,-100,4,1,0,100,0,0
71548,-200,4,1,0,100,0,0
73262,-66.6666666666667,4,1,0,100,0,0
76262,-100,4,1,0,100,0,0
77119,-66.6666666666667,4,1,0,100,0,0
77976,-100,4,1,0,100,0,0
78405,-200,4,1,0,100,0,0
80119,-66.6666666666667,4,1,0,100,0,0
81405,-100,4,1,0,100,0,0
83119,-66.6666666666667,4,1,0,100,0,0
85048,-100,4,1,0,100,0,0
85262,-200,4,1,0,100,0,0
86976,-66.6666666666667,4,1,0,100,0,0
88691,-100,4,1,0,100,0,0
89976,-133.333333333333,4,1,0,100,0,0
90833,-66.6666666666667,4,1,0,100,0,0
91691,-100,4,1,0,100,0,0
91905,-66.6666666666667,4,1,0,100,0,0
92119,-133.333333333333,4,1,0,100,0,0
93833,-66.6666666666667,4,1,0,100,0,0
95762,-100,4,1,0,100,0,0
99191,-133.333333333333,4,1,0,100,0,0
141429,-100,4,1,0,100,0,0
152572,-66.6666666666667,4,1,0,100,0,0
153429,-100,4,1,0,100,0,0
153857,-66.6666666666667,4,1,0,100,0,0
156857,-100,4,1,0,100,0,0
158572,-66.6666666666667,4,1,0,100,0,0
160715,-133.333333333333,4,1,0,100,0,0
162429,-66.6666666666667,4,1,0,100,0,0
163715,-100,4,1,0,100,0,0
164143,-66.6666666666667,4,1,0,100,0,0
166286,-66.6666666666667,4,1,0,100,0,0
167143,-100,4,1,0,100,0,0
169286,-66.6666666666667,4,1,0,100,0,0
171000,-133.333333333333,4,1,0,100,0,0
172286,-66.6666666666667,4,1,0,100,0,0

[HitObjects]
256,192,22286,12,0,28286,0:0:0:0:
84,38,29143,6,0,P|52:82|47:151,1,100
108,136,29572,2,0,P|76:180|71:249,1,100
132,234,30000,2,0,P|100:278|95:347,1,100
178,303,30429,1,0,0:0:0:0:
236,255,30643,2,0,P|284:253|398:147,1,200
481,160,31286,1,0,0:0:0:0:
423,256,31500,1,0,0:0:0:0:
301,245,31715,1,0,0:0:0:0:
234,115,31929,1,0,0:0:0:0:
380,121,32143,1,0,0:0:0:0:
475,47,32572,6,0,P|417:33|333:29,1,100
400,102,33000,2,0,P|338:93|280:59,1,100
225,29,33429,2,0,P|183:66|192:146,1,100
243,170,33857,1,0,0:0:0:0:
310,232,34072,2,0,P|257:276|214:256,1,100
149,210,34500,1,0,0:0:0:0:
92,131,34715,2,0,P|91:72|155:47,1,100
222,40,35143,2,0,P|279:33|334:56,1,100
410,129,35572,1,0,0:0:0:0:
303,191,36000,6,0,P|269:234|206:248,1,100
276,127,36429,2,0,P|212:117|171:173,1,100
171,205,36857,2,0,L|79:248,1,100
92,160,37286,1,0,0:0:0:0:
110,31,37500,1,0,0:0:0:0:
213,112,37715,1,0,0:0:0:0:
315,192,38357,1,0,0:0:0:0:
194,240,38572,1,0,0:0:0:0:
73,288,39215,5,0,0:0:0:0:
58,173,39429,1,0,0:0:0:0:
75,247,40072,1,0,0:0:0:0:
58,37,40286,1,0,0:0:0:0:
136,36,40500,1,0,0:0:0:0:
97,108,40715,2,0,B|215:137|215:137|300:224,1,200
324,283,41357,1,0,0:0:0:0:
375,192,41572,1,0,0:0:0:0:
426,101,41786,1,0,0:0:0:0:
321,97,42000,6,0,B|286:77|259:52|259:52|202:87|156:122,2,200
442,178,43072,1,0,0:0:0:0:
350,318,43286,1,0,0:0:0:0:
210,226,43500,1,0,0:0:0:0:
302,86,43715,1,0,0:0:0:0:
326,202,44143,1,0,0:0:0:0:
326,202,44357,2,0,P|341:265|295:316,1,100
217,296,44786,5,0,0:0:0:0:
57,243,45000,1,0,0:0:0:0:
110,84,45215,1,0,0:0:0:0:
269,136,45429,1,0,0:0:0:0:
163,190,45857,6,0,L|224:294,1,100
265,295,46286,1,0,0:0:0:0:
402,226,46500,1,0,0:0:0:0:
275,174,46715,1,0,0:0:0:0:
402,122,46929,1,0,0:0:0:0:
228,175,47143,2,0,P|174:182|166:132,1,100
76,100,47572,1,0,0:0:0:0:
166,49,47786,2,0,P|239:31|280:47,1,100
392,77,48215,5,0,0:0:0:0:
449,221,48429,1,0,0:0:0:0:
296,198,48643,1,0,0:0:0:0:
206,45,48857,2,0,L|193:162,1,100
111,135,49286,2,0,L|122:35,1,100
40,36,49715,1,0,0:0:0:0:
37,158,49929,5,0,0:0:0:0:
65,305,50143,1,0,0:0:0:0:
118,67,50357,1,0,0:0:0:0:
146,214,50572,2,0,L|251:207,1,100
277,147,51215,5,0,0:0:0:0:
243,323,51429,1,0,0:0:0:0:
179,37,51643,1,0,0:0:0:0:
146,214,51857,2,0,B|105:184|74:116,1,100
179,37,52286,5,0,0:0:0:0:
249,351,52500,1,0,0:0:0:0:
287,158,52714,1,0,0:0:0:0:
256,192,53143,12,0,55715,0:0:0:0:
218,220,56143,6,0,P|110:199|2:122,1,200
30,36,56786,1,0,0:0:0:0:
30,162,57000,1,0,0:0:0:0:
30,288,57215,1,0,0:0:0:0:
119,376,57429,1,0,0:0:0:0:
199,348,57643,6,0,P|252:377|311:372,1,100
375,357,58072,2,0,P|429:313|495:304,1,100
476,224,58500,1,0,0:0:0:0:
478,61,58715,1,0,0:0:0:0:
438,224,58929,1,0,0:0:0:0:
348,225,59143,2,0,P|258:173|236:98,1,150
210,51,59572,2,0,P|300:103|322:178,1,150
323,169,60000,5,0,0:0:0:0:
328,343,60215,1,0,0:0:0:0:
174,260,60429,1,0,0:0:0:0:
20,177,60643,1,0,0:0:0:0:
169,86,60857,1,0,0:0:0:0:
248,33,61072,2,0,P|299:10|354:21,1,100
401,68,61500,2,0,P|362:131|215:144,1,200
143,201,62143,5,0,0:0:0:0:
54,163,62357,1,0,0:0:0:0:
87,78,62572,2,0,P|170:15|247:18,1,150
288,34,63000,2,0,P|205:97|128:94,1,150
133,97,63429,6,0,L|137:153,1,50,0|0,2:2|2:2,2:2:0:0:
209,105,63643,2,0,L|205:55,1,50,0|0,2:2|2:2,2:2:0:0:
282,110,63857,2,0,L|328:91,1,50,0|0,2:2|2:2,2:2:0:0:
399,142,64072,2,0,L|404:92,1,50,0|0,2:2|2:2,2:2:0:0:
459,212,64286,2,0,L|443:274,1,37.5000014305115,0|0,2:2|2:2,2:2:0:0:
371,252,64500,2,0,L|385:294,1,37.5000014305115,0|0,2:2|2:2,2:2:0:0:
461,316,64715,2,0,L|445:378,1,37.5000014305115,0|0,2:2|2:2,2:2:0:0:
381,361,64929,2,0,L|336:375,1,37.5000014305115,0|0,2:2|2:2,2:2:0:0:
304,373,65143,5,0,0:0:0:0:
144,286,65357,1,0,0:0:0:0:
231,126,65572,1,0,0:0:0:0:
231,126,66000,5,0,0:0:0:0:
144,286,66215,1,0,0:0:0:0:
304,373,66429,1,0,0:0:0:0:
56,216,66857,6,0,L|43:150,1,50,0|0,2:0|2:0,2:0:0:0:
124,211,67072,2,0,L|111:145,1,50,0|0,2:0|2:0,2:0:0:0:
191,193,67286,2,0,L|200:143,1,50,0|0,2:0|2:0,2:0:0:0:
259,198,67501,2,0,L|268:148,1,50,0|0,2:0|2:0,2:0:0:0:
274,85,67715,2,0,L|349:79,1,50,0|0,2:0|2:0,2:0:0:0:
389,29,67929,2,0,L|401:84,1,50,0|0,2:0|2:0,2:0:0:0:
400,148,68143,2,0,L|389:207,1,50,0|0,2:0|2:0,2:0:0:0:
406,269,68357,2,0,P|318:330|252:331,1,150.000005722046
176,331,69000,5,0,0:0:0:0:
45,274,69215,1,0,0:0:0:0:
102,186,69429,2,0,P|148:132|207:121,1,112.500004291535
261,140,69857,2,0,P|215:194|156:205,1,112.500004291535
132,162,70286,6,0,B|156:170|156:170|132:178|132:178|156:186|156:186|132:194|132:194|156:202|156:202|132:210|132:210|156:218|156:218|132:226|132:226|156:234,1,225.000008583069
380,222,70715,2,0,B|356:214|356:214|380:206|380:206|356:198|356:198|380:190|380:190|356:182|356:182|380:174|380:174|356:166|356:166|380:158|380:158|356:150,1,225.000008583069
259,108,71143,2,0,P|240:134|239:170,1,50
281,212,71357,2,0,P|282:249|307:266,1,50
375,321,71572,2,0,P|365:349|328:346,1,50
275,311,72000,2,0,P|238:297|218:318,1,50
198,360,72429,2,0,P|172:351|155:328,1,50
93,359,72857,2,0,P|63:331|41:332,1,50
60,41,73286,2,0,B|89:62|130:40|130:40|203:58|283:36,1,225.000008583069
286,68,73715,6,0,B|278:92|278:92|270:68|270:68|262:92|262:92|253:68|253:68|245:92|245:92|237:68|237:68|230:92|230:92|222:68|222:68|214:92,1,225.000008583069
226,316,74144,2,0,B|234:292|234:292|242:316|242:316|250:292|250:292|258:316|258:316|266:292|266:292|274:316|274:316|282:292|282:292|290:316|290:316|298:292,1,225.000008583069
180,237,74572,2,0,P|158:201|159:147,1,75.0000028610231
157,49,74786,2,0,P|223:56|252:96,1,75.0000028610231
256,112,75000,2,0,B|240:120|240:120|272:128|272:128|240:136|240:136|272:144|272:144|240:152|240:152|272:160|272:160|240:168|240:168|272:176,1,225.000008583069
256,112,75429,6,0,B|240:120|240:120|272:128|272:128|240:136|240:136|272:144|272:144|240:152|240:152|272:160|272:160|240:168|240:168|272:176,1,225.000008583069
256,112,75857,2,0,B|240:120|240:120|272:128|272:128|240:136|240:136|272:144|272:144|240:152|240:152|272:160|272:160|240:168|240:168|272:176,1,225.000008583069
313,275,76286,2,0,L|413:270,1,100
198,108,76715,2,0,L|99:114,1,100
256,288,77143,6,0,B|257:305|257:305|234:282|234:282|243:313|243:313|220:290|220:290|229:321|229:321|206:298|206:298|215:329|215:329|192:306|192:306,1,225.000008583069
256,96,77572,2,0,B|254:78|254:78|277:101|277:101|268:70|268:70|291:93|291:93|282:62|282:62|305:85|305:85|296:54|296:54|319:77|319:77,1,225.000008583069
385,42,78000,2,0,P|415:37|441:56,1,50
436,147,78215,2,0,P|404:157|394:201,1,50
466,244,78429,2,0,P|459:278|441:295,1,50
343,243,78857,2,0,P|319:245|298:272,1,50
232,293,79286,2,0,P|199:281|203:252,1,50
121,232,79715,2,0,P|82:237|67:260,1,50
53,40,80143,2,0,B|177:40|109:78|324:84,1,225.000008583069
380,162,80572,6,0,B|356:170|356:170|380:178|380:178|356:186|356:186|380:194|380:194|356:202|356:202|380:210|380:210|356:218|356:218|380:226|380:226|356:234,1,225.000008583069
132,162,81001,2,0,B|156:170|156:170|132:178|132:178|156:186|156:186|132:194|132:194|156:202|156:202|132:210|132:210|156:218|156:218|132:226|132:226|156:234,1,225.000008583069
226,217,81429,2,0,P|255:204|246:163,1,50
271,68,81643,2,0,P|298:35|343:51,1,50
369,138,81857,2,0,P|340:181|348:146,1,150
337,165,82286,2,0,P|389:192|369:138,1,150
369,138,82715,2,0,P|340:181|348:146,1,150
327,48,83143,2,0,P|226:23|84:68,1,225.000008583069
110,179,83572,2,0,P|211:204|353:159,1,225.000008583069
416,299,84000,6,0,B|397:282|397:282|402:307|402:307|383:290|383:290|388:315|388:315|369:298|369:298|374:323|374:323|355:306|355:306|360:331|360:331|341:314,1,225.000008583069
168,68,84429,2,0,B|151:53|151:53|156:77|156:77|137:61|137:61|142:85|142:85|123:69|123:69|128:93|128:93|109:77|109:77|114:101|114:101|96:85,1,225.000008583069
38,58,84857,2,0,P|19:90|38:165,1,75.0000028610231
42,205,85072,2,0,P|59:232|45:283,1,50
28,325,85286,2,0,P|56:342|58:378,1,50
142,352,85715,2,0,P|159:332|157:302,1,50
282,309,86143,2,0,P|298:342|286:372,1,50
429,355,86572,2,0,P|455:334|454:302,1,50
480,64,87000,2,0,B|337:31|337:31|376:106,1,225.000008583069
428,106,87429,6,0,B|404:114|404:114|428:122|428:122|404:130|404:130|428:138|428:138|404:146|404:146|428:154|428:154|404:162|404:162|428:170|428:170|404:178,1,225.000008583069
104,178,87858,2,0,B|83:170|83:170|107:162|107:162|83:154|83:154|107:146|107:146|83:138|83:138|107:130|107:130|83:122|83:122|107:114|107:114|83:106,1,225.000008583069
111,37,88286,2,0,P|162:24|207:32,1,75.0000028610231
217,101,88500,2,0,P|253:111|239:164,1,75.0000028610231
176,248,88715,2,0,B|256:256|344:248,1,150
325,246,89143,2,0,B|256:240|176:248,1,150
176,248,89572,2,0,B|256:256|344:248,1,150
407,232,90000,2,0,P|442:196|446:132,1,112.500004291535
373,161,90429,2,0,P|318:142|327:88,1,112.500004291535
428,195,90857,6,0,B|404:203|404:203|428:211|428:211|404:219|404:219|428:227|428:227|404:235|404:235|428:243|428:243|404:251|404:251|428:259|428:259|404:267,1,225.000008583069
104,119,91286,2,0,B|83:127|83:127|107:135|107:135|83:143|83:143|107:151|107:151|83:159|83:159|107:167|107:167|83:175|83:175|107:183|107:183|83:191,1,225.000008583069
206,186,91715,2,0,P|226:164|227:134,1,50
235,63,91929,2,0,P|258:30|291:68,1,75.0000028610231
321,168,92143,2,0,P|324:210|302:244,1,75.0000028610231
328,312,92572,2,0,P|363:303|389:276,1,75.0000028610231
426,208,93000,2,0,P|463:226|482:262,1,75.0000028610231
389,276,93429,2,0,P|363:303|328:312,1,75.0000028610231
61,83,93857,2,0,P|197:62|338:86,1,225.000008583069
114,91,94286,6,0,B|139:99|139:99|124:78|124:78|148:86|148:86|133:65|133:65|157:72|157:72|142:52|142:52|166:59|166:59|151:39|151:39|173:45,1,225.000008583069
395,293,94715,2,0,B|370:285|370:285|385:306|385:306|361:299|361:299|376:319|376:319|352:312|352:312|367:332|367:332|343:325|343:325|358:345|358:345|336:339,1,225.000008583069
266,329,95143,2,0,P|237:291|240:242,1,75.0000028610231
244,156,95357,2,0,P|262:121|264:58,1,75.0000028610231
355,113,95572,2,0,P|377:152|368:202,1,75.0000028610231
368,337,95786,2,0,P|304:315|159:302,1,200
40,234,96429,1,0,0:0:0:0:
165,152,96643,1,0,0:0:0:0:
161,242,96857,2,0,L|264:243,1,100
395,86,97286,2,0,L|285:82,1,100
257,191,97715,5,0,0:0:0:0:
348,304,97929,1,0,0:0:0:0:
401,169,98143,1,0,0:0:0:0:
454,34,98357,2,0,L|318:34,2,100
401,169,99000,1,0,0:0:0:0:
258,152,99215,2,0,P|206:127|190:87,1,75.0000028610231
90,40,99643,5,0,0:0:0:0:
91,182,99857,1,0,0:0:0:0:
214,111,100072,1,0,0:0:0:0:
215,253,100286,1,0,0:0:0:0:
92,324,100501,1,0,0:0:0:0:
256,191,100715,1,0,0:0:0:0:
255,71,101036,1,0,0:0:0:0:
262,91,101143,5,0,0:0:0:0:
292,160,101572,1,0,0:0:0:0:
296,307,101786,1,0,0:0:0:0:
166,236,102000,2,0,P|144:205|102:166,1,75.0000028610231
56,52,102429,1,0,0:0:0:0:
196,60,102643,2,0,L|208:163,1,75.0000028610231
344,142,103072,6,0,L|336:68,1,75.0000028610231
471,64,103500,1,0,0:0:0:0:
435,199,103715,1,0,0:0:0:0:
326,339,103929,1,0,0:0:0:0:
260,175,104143,1,0,0:0:0:0:
260,175,104357,1,0,0:0:0:0:
260,175,104572,5,0,0:0:0:0:
140,58,104786,1,0,0:0:0:0:
81,170,105000,2,0,L|124:256,1,75.0000028610231
245,261,105429,1,0,0:0:0:0:
253,128,105857,1,0,0:0:0:0:
140,58,106072,1,0,0:0:0:0:
81,170,106286,6,0,L|124:256,1,75.0000028610231
245,261,106715,1,0,0:0:0:0:
254,134,107143,1,0,0:0:0:0:
172,33,107357,1,0,0:0:0:0:
71,115,107572,1,0,0:0:0:0:
153,216,107786,1,0,0:0:0:0:
168,235,107893,1,0,0:0:0:0:
182,253,108000,6,0,L|248:327,1,75.0000028610231
291,262,108429,2,0,L|242:207,1,75.0000028610231
301,160,108857,2,0,L|351:216,1,75.0000028610231
392,135,109286,1,0,0:0:0:0:
368,40,109500,2,0,P|339:30|290:37,1,75.0000028610231
195,114,109929,5,0,0:0:0:0:
131,220,110143,1,0,0:0:0:0:
67,326,110357,1,0,0:0:0:0:
191,328,110572,1,0,0:0:0:0:
315,331,110786,1,0,0:0:0:0:
329,163,111000,1,0,0:0:0:0:
329,163,111215,1,0,0:0:0:0:
329,163,111429,5,0,0:0:0:0:
283,175,111536,1,0,0:0:0:0:
233,187,111643,1,0,0:0:0:0:
183,202,111750,1,0,0:0:0:0:
196,150,111857,2,0,L|195:118,6,18.7500007152558
329,163,112286,2,0,L|418:175,1,75.0000028610231
403,297,112715,1,0,0:0:0:0:
251,296,112929,2,0,P|180:282|156:261,1,75.0000028610231
85,169,113357,5,0,0:0:0:0:
128,32,113572,1,0,0:0:0:0:
265,75,113786,1,0,0:0:0:0:
222,212,114000,1,0,0:0:0:0:
222,212,114215,1,0,0:0:0:0:
222,212,114429,1,0,0:0:0:0:
254,177,114750,1,0,0:0:0:0:
259,157,114857,6,0,L|266:58,1,75.0000028610231
442,40,115286,2,0,L|434:123,1,75.0000028610231
415,241,115715,2,0,L|323:249,1,75.0000028610231
149,262,116143,1,0,0:0:0:0:
149,262,116357,2,0,L|92:172,1,75.0000028610231
44,101,116786,5,0,0:0:0:0:
179,34,117000,1,0,0:0:0:0:
311,106,117215,1,0,0:0:0:0:
327,255,117429,1,0,0:0:0:0:
214,353,117643,1,0,0:0:0:0:
196,193,117857,1,0,0:0:0:0:
196,193,118072,1,0,0:0:0:0:
349,189,118286,6,0,L|358:107,1,75.0000028610231
126,32,118715,2,0,L|117:106,1,75.0000028610231
83,304,119143,2,0,L|157:312,1,75.0000028610231
157,312,119572,1,0,0:0:0:0:
246,202,119786,1,0,0:0:0:0:
85,122,120000,5,0,0:0:0:0:
114,137,120643,1,0,0:0:0:0:
332,245,120857,1,0,0:0:0:0:
197,332,121500,1,0,0:0:0:0:
263,30,121715,5,0,0:0:0:0:
447,201,122357,1,0,0:0:0:0:
64,164,122572,1,0,0:0:0:0:
227,279,123000,1,0,0:0:0:0:
221,49,123215,2,0,P|263:22|305:32,1,75.0000028610231
412,148,123643,5,0,0:0:0:0:
376,294,123857,1,0,0:0:0:0:
218,290,124072,1,0,0:0:0:0:
127,74,124286,2,0,L|136:173,1,75.0000028610231
299,357,124715,2,0,L|310:275,1,75.0000028610231
184,240,125357,5,0,0:0:0:0:
157,127,125572,1,0,0:0:0:0:
270,100,125786,1,0,0:0:0:0:
297,213,126000,1,0,0:0:0:0:
136,232,126643,2,0,P|110:188|125:144,1,75.0000028610231
154,76,127072,5,0,0:0:0:0:
247,37,127286,2,0,P|300:21|337:38,1,75.0000028610231
426,81,127715,1,0,0:0:0:0:
337,317,128143,1,0,0:0:0:0:
316,249,128786,5,0,0:0:0:0:
348,113,129001,1,0,0:0:0:0:
212,80,129215,1,0,0:0:0:0:
180,216,129429,1,0,0:0:0:0:
183,317,130072,2,0,P|203:355|246:364,1,75.0000028610231
368,348,130500,5,0,0:0:0:0:
464,258,130715,2,0,P|496:211|487:171,1,75.0000028610231
461,85,131143,1,0,0:0:0:0:
192,35,131572,1,0,0:0:0:0:
309,95,132215,5,0,0:0:0:0:
348,259,132430,1,0,0:0:0:0:
185,298,132644,1,0,0:0:0:0:
146,135,132858,1,0,0:0:0:0:
191,76,133500,5,0,0:0:0:0:
145,272,133715,1,0,0:0:0:0:
341,319,133929,1,0,0:0:0:0:
388,123,134143,1,0,0:0:0:0:
425,96,134572,1,0,0:0:0:0:
364,350,134786,1,0,0:0:0:0:
110,289,135000,1,0,0:0:0:0:
256,192,135215,12,0,138000,0:0:0:0:
253,230,138429,6,0,B|193:199|230:194|187:154,1,75.0000028610231
176,58,138857,1,0,0:0:0:0:
341,83,139072,1,0,0:0:0:0:
237,22,139286,1,0,0:0:0:0:
347,147,139501,1,0,0:0:0:0:
241,130,139715,1,0,0:0:0:0:
179,205,139929,2,0,P|198:251|242:255,1,75.0000028610231
343,253,140357,2,0,P|396:250|437:213,1,75.0000028610231
463,130,140786,5,0,0:0:0:0:
394,31,141000,1,0,0:0:0:0:
343,141,141215,1,0,0:0:0:0:
250,305,141429,2,0,P|183:297|104:261,1,150
82,189,141857,2,0,P|149:197|228:233,1,150
248,242,142286,5,0,0:0:0:0:
391,182,142500,1,0,0:0:0:0:
414,45,142715,1,0,0:0:0:0:
277,22,142929,1,0,0:0:0:0:
254,159,143143,2,0,P|190:162|127:185,1,100
50,221,143572,1,0,0:0:0:0:
46,102,143786,2,0,P|77:38|132:35,1,100
233,36,144215,5,0,0:0:0:0:
213,139,144429,1,0,0:0:0:0:
193,242,144643,1,0,0:0:0:0:
204,350,144857,2,0,P|331:344|383:306,1,150
390,261,145286,2,0,P|263:267|211:305,1,150
219,290,145715,5,0,0:0:0:0:
102,204,145929,1,0,0:0:0:0:
149,79,146143,1,0,0:0:0:0:
196,204,146357,1,0,0:0:0:0:
243,79,146572,1,0,0:0:0:0:
290,204,146786,1,0,0:0:0:0:
337,79,147000,1,0,0:0:0:0:
384,204,147214,1,0,0:0:0:0:
431,79,147429,5,0,0:0:0:0:
478,204,147643,1,0,0:0:0:0:
402,353,147857,1,0,0:0:0:0:
218,251,148286,1,0,0:0:0:0:
327,73,148500,1,0,0:0:0:0:
313,288,148715,1,0,0:0:0:0:
256,192,149143,12,0,150857,0:0:0:0:
315,43,151072,5,0,0:0:0:0:
171,103,151286,1,0,0:0:0:0:
137,255,151500,1,0,0:0:0:0:
281,246,151715,2,0,P|338:235|363:200,1,100
157,43,152143,2,0,P|91:43|62:93,1,100
114,91,152572,6,0,B|139:99|139:99|124:78|124:78|148:86|148:86|133:65|133:65|157:72|157:72|142:52|142:52|166:59|166:59|151:39|151:39|173:45,1,225.000008583069
395,293,153001,2,0,B|370:285|370:285|385:306|385:306|361:299|361:299|376:319|376:319|352:312|352:312|367:332|367:332|343:325|343:325|358:345|358:345|336:339,1,225.000008583069
241,313,153429,2,0,P|211:306|193:285,1,50
193,194,153643,2,0,P|170:168|124:177,1,50
378,176,153857,2,0,P|374:105|446:77,1,150.000005722046
378,176,154286,2,0,P|449:172|477:244,1,150.000005722046
378,176,154715,2,0,P|382:247|310:275,1,150.000005722046,0|0,0:0|0:0,0:0:0:0:
378,176,155143,2,0,P|307:180|279:108,1,150.000005722046,0|0,0:0|0:0,0:0:0:0:
35,50,155572,2,0,B|107:51|135:17|135:17|218:31|285:78|285:78,1,225.000008583069
227,20,156000,6,0,B|239:43|239:43|243:18|243:18|254:40|254:40|258:15|258:15|270:37|270:37|274:12|274:12|286:34|286:34|289:9|289:9|301:29,1,225.000008583069
282,361,156429,2,0,B|270:338|270:338|266:363|266:363|254:341|254:341|251:366|251:366|239:344|239:344|235:369|235:369|223:347|223:347|219:372|219:372|208:352,1,225.000008583069
67,269,156857,2,0,P|38:237|53:205,1,50
150,114,157072,2,0,P|182:143|214:128,1,50
268,225,157286,2,0,P|326:172|380:228,1,150
375,205,157715,2,0,P|317:258|263:201,1,150
268,225,158143,2,0,P|326:172|380:228,1,150
485,130,158572,2,0,P|379:56|222:29,1,225.000008583069
292,117,159000,2,0,P|398:191|555:218,1,225.000008583069
316,28,159429,6,0,B|315:54|315:54|331:34|331:34|330:59|330:59|346:39|346:39|345:64|345:64|361:45|361:45|360:70|360:70|376:50|376:50|376:73,1,225.000008583069
194,351,159858,2,0,B|195:325|195:325|179:345|179:345|179:320|179:320|164:340|164:340|165:315|165:315|149:334|149:334|149:309|149:309|133:329|133:329|134:306,1,225.000008583069
118,210,160286,2,0,P|120:177|156:124,1,75.0000028610231
235,115,160500,2,0,P|267:142|288:192,1,75.0000028610231
258,263,160715,2,0,P|250:304|217:347,1,75.0000028610231
327,306,161143,6,0,P|346:273|352:237,1,75.0000028610231
418,315,161572,2,0,P|399:282|393:245,1,75.0000028610231
446,169,162000,2,0,P|427:136|421:99,1,75.0000028610231
165,31,162429,2,0,B|322:7|322:7|385:30,1,225.000008583069
389,79,162857,6,0,B|376:101|376:101|399:92|399:92|386:113|386:113|410:104|410:104|397:125|397:125|420:117|420:117|407:138|407:138|430:129|430:129|419:148,1,225.000008583069
122,298,163286,2,0,B|136:276|136:276|112:286|112:286|125:264|125:264|102:274|102:274|115:253|115:253|92:261|92:261|104:239|104:239|80:249|80:249|93:229,1,225.000008583069
93,144,163715,2,0,P|89:110|106:74,1,50
204,54,163929,2,0,P|231:77|235:109,1,50
243,211,164143,2,0,B|211:163|211:163|275:163|339:163|339:163|307:211,1,225.000008583069
317,195,164572,2,0,B|339:163|339:163|275:163|211:163|211:163|243:211,1,225.000008583069
243,211,165000,2,0,B|211:163|211:163|275:163|339:163|339:163|307:211,1,225.000008583069
279,47,165429,2,0,P|183:29|52:77,1,225.000008583069
126,115,165857,2,0,L|125:347,1,225.000008583069
427,160,166286,6,0,B|405:173|405:173|429:176|429:176|408:188|408:188|433:192|433:192|411:204|411:204|435:209|435:209|413:220|413:220|438:224|438:224|419:235,1,225.000008583069
86,216,166715,2,0,B|110:204|110:204|84:201|84:201|106:188|106:188|81:186|81:186|103:174|103:174|79:169|79:169|100:156|100:156|75:153|75:153|96:142,1,225.000008583069
171,137,167143,2,0,P|175:100|211:81,1,50
246,56,167357,2,0,P|277:66|296:100,1,50
261,254,167572,2,0,P|283:210|278:161,1,100
442,245,168000,6,0,P|413:259|335:244,1,100
379,138,168429,2,0,P|417:107|433:61,1,100
277,160,168857,2,0,P|283:210|261:254,1,100
262,30,169286,2,0,B|176:38|152:57|152:57|91:58|77:130,1,225.000008583069
97,128,169715,6,0,B|123:130|123:130|102:114|102:114|128:114|128:114|107:99|107:99|132:100|132:100|114:84|114:84|139:83|139:83|118:68|118:68|140:69,1,225.000008583069
420,250,170144,2,0,B|394:250|394:250|414:265|414:265|389:265|389:265|409:281|409:281|384:280|384:280|402:296|402:296|378:295|378:295|397:311|397:311|371:311,1,225.000008583069
275,330,170572,2,0,P|214:299|215:243,1,75.0000028610231
162,142,170786,2,0,P|169:63|211:68,1,75.0000028610231
266,110,171000,6,0,B|256:152|256:152|304:157|304:157|285:204,1,112.500004291535
266,109,171429,2,0,B|224:122|224:122|244:166|244:166|194:173,1,112.500004291535
266,109,171857,2,0,B|234:80|234:80|206:119|206:119|175:79,1,112.500004291535
286,42,172286,2,0,P|402:70|469:182,1,225.000008583069
392,178,172715,2,0,P|276:150|209:38,1,225.000008583069
