osu file format v14

[General]
AudioFilename: audio.mp3
AudioLeadIn: 0
PreviewTime: 35381
Countdown: 0
SampleSet: Soft
StackLeniency: 0.7
Mode: 0
LetterboxInBreaks: 0
WidescreenStoryboard: 1

[Editor]
DistanceSpacing: 0.6
BeatDivisor: 8
GridSize: 8
TimelineZoom: 3.599999

[Metadata]
Title:If Tomorrow Never Comes (Nightcore Ver.)
TitleUnicode:If Tomorrow Never Comes (Nightcore Ver.)
Artist:Rosmah Mansor
ArtistUnicode:Rosmah Mansor
Creator:Jerry
Version:ZheVulture's Hopes and Dreams
Source:Malaysia
Tags:Trappy-kun blufir_ Cheeeeeeeeeew TsukinoseTillot arronlim13 King Hong PurpleSatanWeed ZheVulture Kival Evan [Zeth] angki Aasheda_ Wen4ng3L KecHik445
BeatmapID:1939354
BeatmapSetID:927564

[Difficulty]
HPDrainRate:5
CircleSize:4.5
OverallDifficulty:9
ApproachRate:9.8
SliderMultiplier:3.5
SliderTickRate:1

[Events]
//Background and Video events
0,0,"bg.jpg",0,0
//Break Periods
//Storyboard Layer 0 (Background)
//Storyboard Layer 1 (Fail)
//Storyboard Layer 2 (Pass)
//Storyboard Layer 3 (Foreground)
//Storyboard Sound Samples

[TimingPoints]
4228,512.820512820513,4,2,0,40,1,0
4228,-66.6666666666667,4,2,0,40,0,0
15510,-58.8235294117647,4,2,0,40,0,0
16407,-66.6666666666667,4,2,0,40,0,0
37048,-58.8235294117647,4,2,0,60,0,1
48330,-66.6666666666667,4,2,0,60,0,1
49356,-58.8235294117647,4,2,0,60,0,1
51407,-58.8235294117647,4,2,0,60,0,0
53458,-58.8235294117647,4,2,0,60,0,1
59612,-200,4,2,0,60,0,0
66535,-200,4,2,0,40,0,0
67048,-200,4,2,0,30,0,0
67304,-200,4,2,0,20,0,0
67561,-200,4,2,0,10,0,0

[HitObjects]
73,245,4227,6,0,L|61:58,1,175
338,117,4612,1,0,0:0:0:0:
305,6,4740,2,0,P|349:65|327:133,1,131.25000500679
226,254,4997,2,0,P|182:195|204:127,1,131.25000500679
455,165,5253,2,0,B|358:155|352:220|356:279|200:251,1,262.500010013581
98,217,5638,1,0,0:0:0:0:
434,254,5766,2,0,L|450:399,1,131.25000500679
295,22,6022,2,0,L|279:167,1,131.25000500679
218,360,6279,6,0,P|231:269|57:227,1,262.500010013581
332,358,6663,1,0,0:0:0:0:
132,300,6792,2,0,B|114:207|114:207|155:31,1,262.500010013581
380,300,7176,2,0,B|398:207|398:207|359:43,1,262.500010013581
256,331,7561,1,0,0:0:0:0:
255,169,7689,1,0,0:0:0:0:
161,289,7817,2,0,P|95:321|24:292,1,131.25000500679
256,53,8074,2,0,P|322:21|393:50,1,131.25000500679
256,311,8330,5,0,0:0:0:0:
171,192,8458,1,0,0:0:0:0:
341,193,8586,1,0,0:0:0:0:
256,53,8715,1,0,0:0:0:0:
295,321,8843,5,0,0:0:0:0:
210,202,8971,1,0,0:0:0:0:
380,203,9099,1,0,0:0:0:0:
295,63,9228,1,0,0:0:0:0:
156,284,9356,5,0,0:0:0:0:
267,145,9484,1,0,0:0:0:0:
60,196,9612,1,0,0:0:0:0:
295,321,9740,1,0,0:0:0:0:
157,195,9869,5,0,0:0:0:0:
268,56,9997,1,0,0:0:0:0:
61,107,10125,1,0,0:0:0:0:
296,232,10253,1,0,0:0:0:0:
407,31,10381,6,0,P|384:119|470:271,1,262.500010013581
201,94,10766,1,0,0:0:0:0:
284,358,10894,2,0,P|312:262|298:198,1,131.25000500679
76,128,11151,2,0,P|48:224|62:288,1,131.25000500679
377,286,11407,1,0,0:0:0:0:
176,209,11535,1,0,0:0:0:0:
303,93,11663,2,0,L|451:96,1,131.25000500679
124,140,11920,2,0,P|100:82|126:19,1,131.25000500679
434,142,12176,5,0,0:0:0:0:
212,273,12304,1,0,0:0:0:0:
319,33,12433,6,0,L|313:306,1,262.500010013581
133,81,12817,1,0,0:0:0:0:
28,295,12945,2,0,L|38:145,1,131.25000500679
44,93,13138,1,0,0:0:0:0:
44,93,13202,1,0,0:0:0:0:
189,348,13330,2,0,P|261:365|344:215,1,262.500010013581
104,82,13715,1,0,0:0:0:0:
249,262,13843,1,0,0:0:0:0:
298,37,13971,2,0,P|371:6|442:34,1,131.25000500679
249,262,14228,5,0,0:0:0:0:
249,262,14356,2,0,L|241:109,1,131.25000500679
106,98,14612,2,0,L|114:251,1,131.25000500679
359,303,14869,2,0,L|351:150,1,131.25000500679
1,33,15125,2,0,L|9:186,2,131.25000500679
454,100,15510,6,0,P|367:137|295:125,1,148.750002837181,2|0,0:0|0:0,0:0:0:0:
349,260,15766,6,0,P|257:240|204:189,1,148.750002837181,2|0,0:0|0:0,0:0:0:0:
183,346,16022,6,0,P|107:289|81:220,1,148.750002837181,2|0,0:0|0:0,0:0:0:0:
467,284,16279,5,2,0:0:0:0:
15,141,16407,6,0,B|56:100|108:109|108:109|147:141|196:124|196:124|246:48|325:57|378:109,1,393.750015020371,2|0,0:0|0:0,0:0:0:0:
259,365,16920,1,0,0:0:0:0:
290,170,17048,1,0,0:0:0:0:
379,269,17176,1,0,0:0:0:0:
379,269,17240,1,0,0:0:0:0:
379,269,17304,1,0,0:0:0:0:
366,98,17433,1,0,0:0:0:0:
61,198,17561,6,0,P|42:270|203:319,1,262.500010013581
436,215,17945,1,0,0:0:0:0:
133,258,18074,1,0,0:0:0:0:
408,94,18202,1,0,0:0:0:0:
136,118,18330,1,0,0:0:0:0:
298,29,18458,1,0,0:0:0:0:
261,293,18586,1,0,0:0:0:0:
74,64,20125,5,10,0:0:0:0:
51,356,20253,1,10,0:0:0:0:
267,74,20381,1,10,0:0:0:0:
244,365,20509,1,10,0:0:0:0:
412,172,20638,5,0,0:0:0:0:
385,171,20702,1,0,0:0:0:0:
361,182,20766,1,0,0:0:0:0:
344,202,20830,1,0,0:0:0:0:
334,226,20894,1,0,0:0:0:0:
331,252,20958,1,0,0:0:0:0:
338,277,21022,1,0,0:0:0:0:
354,297,21086,1,0,0:0:0:0:
374,313,21151,6,0,L|220:296,1,131.25000500679,8|0,0:0|0:0,0:0:0:0:
169,289,21343,1,0,0:0:0:0:
169,289,21407,1,0,0:0:0:0:
26,162,21535,1,0,0:0:0:0:
230,70,21663,2,0,P|276:130|270:190,1,131.25000500679
62,286,21920,2,0,P|16:226|22:166,1,131.25000500679
293,14,22176,2,0,L|442:26,1,131.25000500679,8|0,0:0|0:0,0:0:0:0:
182,154,22433,2,0,L|33:166,1,131.25000500679
266,308,22689,6,0,B|290:267|297:217|256:174|256:174|270:130|322:117|359:146,1,262.500010013581
440,335,23074,1,0,0:0:0:0:
183,246,23202,2,0,P|103:274|81:342,1,131.25000500679,8|0,0:0|0:0,0:0:0:0:
62,384,23394,1,0,0:0:0:0:
62,384,23458,1,0,0:0:0:0:
314,351,23586,1,0,0:0:0:0:
43,226,23715,2,0,B|31:133|31:133|53:85,1,131.25000500679
275,0,23971,2,0,B|287:93|287:93|265:141,1,131.25000500679
271,127,24228,1,8,0:0:0:0:
271,127,24484,5,0,0:0:0:0:
371,357,24612,1,0,0:0:0:0:
381,159,24740,2,0,P|390:125|405:92,2,65.6250025033952
168,225,24997,5,0,0:0:0:0:
344,257,25125,1,0,0:0:0:0:
133,328,25253,2,0,P|95:320|61:303,2,65.6250025033952,8|0|0,0:0|0:0|0:0,0:0:0:0:
144,120,25510,5,0,0:0:0:0:
214,314,25639,1,0,0:0:0:0:
272,83,25766,2,0,P|275:49|268:17,2,65.6250025033952
334,316,26022,2,0,P|361:335|393:345,2,65.6250025033952
140,180,26279,2,0,P|109:194|84:216,2,65.6250025033952,8|0|0,0:0|0:0|0:0,0:0:0:0:
372,180,26535,2,0,P|402:194|427:216,2,65.6250025033952
175,291,26792,5,0,0:0:0:0:
192,289,26856,1,0,0:0:0:0:
209,285,26920,1,0,0:0:0:0:
225,279,26984,1,0,0:0:0:0:
241,271,27048,1,0,0:0:0:0:
255,260,27112,1,0,0:0:0:0:
268,248,27176,1,0,0:0:0:0:
279,235,27240,1,0,0:0:0:0:
288,220,27304,1,8,0:0:0:0:
295,204,27368,1,0,0:0:0:0:
301,187,27433,1,0,0:0:0:0:
303,170,27497,1,0,0:0:0:0:
304,153,27561,1,0,0:0:0:0:
302,135,27625,1,0,0:0:0:0:
298,118,27689,1,0,0:0:0:0:
292,102,27753,1,0,0:0:0:0:
279,80,27817,5,0,0:0:0:0:
245,101,27881,1,0,0:0:0:0:
230,137,27945,1,0,0:0:0:0:
228,176,28010,1,0,0:0:0:0:
237,214,28074,1,0,0:0:0:0:
242,252,28138,1,0,0:0:0:0:
234,290,28202,1,0,0:0:0:0:
212,323,28266,1,0,0:0:0:0:
185,352,28330,6,0,P|144:358|106:355,1,65.6250025033952,8|0,0:0|0:0,0:0:0:0:
18,299,28458,2,0,P|12:258|15:220,1,65.6250025033952
99,155,28586,2,0,P|140:149|178:152,1,65.6250025033952
261,211,28715,2,0,P|293:211|326:205,1,65.6250025033952
469,151,28843,6,0,L|460:10,1,131.25000500679
187,43,29099,1,0,0:0:0:0:
358,109,29228,1,0,0:0:0:0:
135,173,29356,2,0,P|87:150|62:72,1,131.25000500679,8|0,0:0|0:0,0:0:0:0:
87,14,29548,1,0,0:0:0:0:
87,14,29612,1,0,0:0:0:0:
113,260,29740,1,0,0:0:0:0:
331,48,29869,6,0,P|402:25|457:51,2,131.25000500679
209,263,30253,1,0,0:0:0:0:
453,166,30381,2,0,P|474:105|450:45,1,131.25000500679,8|0,0:0|0:0,0:0:0:0:
209,263,30638,2,0,P|187:323|211:383,1,131.25000500679
498,245,30894,2,0,B|448:272|408:253|379:233|365:190|365:190|323:175|268:186|233:231,1,262.500010013581
279,325,31279,1,0,0:0:0:0:
85,214,31407,2,0,P|98:137|156:111,1,131.25000500679,8|0,0:0|0:0,0:0:0:0:
279,325,31663,2,0,L|121:285,1,131.25000500679
402,173,31920,5,2,0:0:0:0:
172,198,32048,1,2,0:0:0:0:
274,61,32176,1,2,0:0:0:0:
308,295,32304,1,2,0:0:0:0:
466,138,32433,2,0,P|466:71|425:20,1,131.25000500679,8|0,0:0|0:0,0:0:0:0:
241,185,32689,1,0,0:0:0:0:
114,39,32817,1,0,0:0:0:0:
114,39,32881,1,0,0:0:0:0:
114,39,32945,6,0,L|263:24,1,131.25000500679
206,174,33202,6,0,L|57:159,1,131.25000500679
265,110,33458,6,0,L|439:154,1,131.25000500679,8|0,0:0|0:0,0:0:0:0:
300,321,33715,6,0,L|138:242,1,131.25000500679
204,98,33971,6,0,L|352:199,1,131.25000500679
122,332,34228,6,0,L|-3:203,1,131.25000500679
301,61,34484,6,0,L|405:206,1,131.25000500679,8|0,0:0|0:0,0:0:0:0:
64,222,34741,6,0,L|-10:58,1,131.25000500679
360,262,34997,5,0,0:0:0:0:
334,255,35061,1,0,0:0:0:0:
307,252,35125,1,0,0:0:0:0:
280,253,35189,1,0,0:0:0:0:
254,258,35253,1,0,0:0:0:0:
228,265,35317,1,0,0:0:0:0:
206,280,35381,1,0,0:0:0:0:
186,297,35445,1,0,0:0:0:0:
163,311,35510,1,0,0:0:0:0:
138,319,35574,1,0,0:0:0:0:
111,320,35638,1,0,0:0:0:0:
85,316,35702,1,0,0:0:0:0:
61,303,35766,1,0,0:0:0:0:
41,285,35830,1,0,0:0:0:0:
29,261,35894,1,0,0:0:0:0:
24,235,35958,1,0,0:0:0:0:
23,195,36022,5,2,0:0:0:0:
59,180,36086,1,2,0:0:0:0:
98,183,36151,1,2,0:0:0:0:
134,196,36215,1,2,0:0:0:0:
167,216,36279,1,2,0:0:0:0:
204,228,36343,1,2,0:0:0:0:
243,232,36407,1,2,0:0:0:0:
280,219,36471,1,2,0:0:0:0:
310,194,36535,5,2,0:0:0:0:
268,162,36599,1,2,0:0:0:0:
216,172,36663,1,2,0:0:0:0:
187,216,36728,1,2,0:0:0:0:
191,268,36792,1,2,0:0:0:0:
229,303,36856,1,2,0:0:0:0:
280,314,36920,1,2,0:0:0:0:
328,294,36984,1,2,0:0:0:0:
360,234,37048,6,0,L|338:69,1,148.750002837181,6|0,0:0|0:0,0:0:0:0:
330,19,37240,1,0,0:0:0:0:
330,19,37304,1,0,0:0:0:0:
20,139,37433,1,0,0:0:0:0:
191,207,37561,2,0,P|218:290|178:354,1,148.750002837181,8|0,0:0|0:0,0:0:0:0:
172,72,37817,1,0,0:0:0:0:
329,294,37945,1,0,0:0:0:0:
374,93,38074,5,2,0:0:0:0:
85,187,38202,1,2,0:0:0:0:
272,46,38330,5,2,0:0:0:0:
201,318,38458,1,2,0:0:0:0:
380,182,38586,5,10,0:0:0:0:
84,115,38715,1,2,0:0:0:0:
376,92,38843,5,2,0:0:0:0:
84,265,38971,1,2,0:0:0:0:
206,30,39099,6,0,B|254:30|281:62|281:62|329:30|406:20|406:20|435:48|505:41,1,297.500005674362,2|0,0:0|0:0,0:0:0:0:
320,280,39484,1,0,0:0:0:0:
66,204,39612,2,0,P|47:120|98:63,1,148.750002837181,8|0,0:0|0:0,0:0:0:0:
136,42,39804,1,0,0:0:0:0:
136,42,39869,1,0,0:0:0:0:
126,334,39997,1,0,0:0:0:0:
336,191,40125,6,0,P|318:285|341:342,1,148.750002837181,4|0,0:0|0:0,0:0:0:0:
80,149,40381,2,0,P|170:117|208:69,1,148.750002837181,4|0,0:0|0:0,0:0:0:0:
193,355,40638,2,0,P|120:292|59:283,1,148.750002837181,12|0,0:0|0:0,0:0:0:0:
298,98,40894,1,4,0:0:0:0:
52,216,41022,1,0,0:0:0:0:
379,11,41151,6,0,B|425:69|410:171|358:219|358:219|346:265|380:312,1,297.500005674362,4|0,0:0|0:0,0:0:0:0:
298,98,41535,1,0,0:0:0:0:
298,98,41599,1,0,0:0:0:0:
298,98,41663,2,0,P|206:85|135:109,1,148.750002837181,8|0,0:0|0:0,0:0:0:0:
347,219,41920,1,0,0:0:0:0:
145,237,42048,1,0,0:0:0:0:
330,85,42176,5,2,0:0:0:0:
285,333,42304,1,2,0:0:0:0:
203,71,42433,5,2,0:0:0:0:
192,331,42561,1,2,0:0:0:0:
68,100,42689,5,10,0:0:0:0:
97,322,42817,1,2,0:0:0:0:
217,65,42945,5,2,0:0:0:0:
196,335,43074,1,2,0:0:0:0:
356,46,43202,6,0,L|364:220,1,148.750002837181,2|0,0:0|0:0,0:0:0:0:
278,350,43458,1,0,0:0:0:0:
503,248,43586,1,0,0:0:0:0:
156,233,43715,2,0,P|127:196|158:102,1,148.750002837181,8|0,0:0|0:0,0:0:0:0:
414,97,43971,5,0,0:0:0:0:
228,328,44099,1,0,0:0:0:0:
153,105,44228,2,0,P|58:91|11:127,1,148.750002837181
359,212,44484,2,0,P|418:136|410:78,1,148.750002837181
149,217,44740,2,0,P|184:306|239:328,1,148.750002837181,8|0,0:0|0:0,0:0:0:0:
456,328,44997,5,0,0:0:0:0:
457,290,45061,1,0,0:0:0:0:
459,252,45125,1,0,0:0:0:0:
461,214,45189,1,0,0:0:0:0:
463,176,45253,6,0,L|448:21,1,148.750002837181,4|0,0:0|0:0,0:0:0:0:
203,137,45510,1,0,0:0:0:0:
324,268,45638,1,0,0:0:0:0:
312,38,45766,1,8,0:0:0:0:
312,38,45894,1,0,0:0:0:0:
59,105,46022,6,0,P|38:199|67:241,1,148.750002837181
339,310,46279,2,0,L|523:278,1,148.750002837181,4|0,0:0|0:0,0:0:0:0:
218,162,46535,1,0,0:0:0:0:
174,362,46663,1,0,0:0:0:0:
383,204,46792,2,0,P|389:140|346:66,1,148.750002837181,8|0,0:0|0:0,0:0:0:0:
112,66,47048,5,0,0:0:0:0:
85,92,47112,1,0,0:0:0:0:
72,127,47176,1,0,0:0:0:0:
65,164,47241,1,0,0:0:0:0:
67,201,47305,6,0,B|91:230|96:250|96:250|156:240|224:265,1,148.750002837181,4|0,0:0|0:0,0:0:0:0:
342,57,47561,2,0,P|288:132|291:189,1,148.750002837181
443,360,47817,2,0,L|447:44,1,297.500005674362,8|0,0:0|0:0,0:0:0:0:
287,315,48202,1,0,0:0:0:0:
192,55,48330,6,0,B|180:25|180:25|194:61,2,65.6250025033952,2|0|0,0:0|0:0|0:0,0:0:0:0:
307,345,48586,6,0,B|319:375|319:375|305:339,2,65.6250025033952,2|0|0,0:0|0:0|0:0,0:0:0:0:
72,277,48843,6,0,B|42:289|42:289|78:275,2,65.6250025033952,14|0|0,0:0|0:0|0:0,0:0:0:0:
415,128,49099,6,0,B|445:116|445:116|409:130,2,65.6250025033952,6|0|0,0:0|0:0|0:0,0:0:0:0:
48,58,49356,6,0,P|18:137|180:231,1,297.500005674362,6|0,0:0|0:0,0:0:0:0:
334,0,49740,1,0,0:0:0:0:
334,0,49804,1,0,0:0:0:0:
334,0,49869,2,0,P|280:70|275:137,1,148.750002837181,8|0,0:0|0:0,0:0:0:0:
306,346,50125,1,0,0:0:0:0:
332,198,50253,1,0,0:0:0:0:
192,355,50381,6,0,B|128:349|128:349|75:357|75:357|17:350,1,148.750002837181
356,194,50638,2,0,B|420:200|420:200|473:192|473:192|531:199,1,148.750002837181
176,62,50894,2,0,B|112:56|112:56|59:64|59:64|1:57,1,148.750002837181,8|0,0:0|0:0,0:0:0:0:
356,62,51151,2,0,P|381:154|332:209,1,148.750002837181
89,228,51407,5,0,0:0:0:0:
89,228,51471,1,0,0:0:0:0:
89,228,51535,1,0,0:0:0:0:
89,228,51599,1,0,0:0:0:0:
89,228,51663,2,0,P|143:248|179:241,1,74.3750014185906,2|0,0:0|0:0,0:0:0:0:
241,211,51792,1,0,0:0:0:0:
268,198,51856,1,0,0:0:0:0:
297,191,51920,1,0,0:0:0:0:
326,190,51984,1,0,0:0:0:0:
355,193,52048,6,0,P|398:201|429:217,1,74.3750014185906,2|0,0:0|0:0,0:0:0:0:
474,296,52176,2,0,P|466:339|450:370,1,74.3750014185906,2|0,0:0|0:0,0:0:0:0:
331,374,52304,1,0,0:0:0:0:
331,374,52369,1,0,0:0:0:0:
331,374,52433,2,0,P|288:366|257:350,3,74.3750014185906,4|0|0|0,0:0|0:0|0:0|0:0,0:0:0:0:
229,273,52689,2,0,P|195:257|158:251,3,74.3750014185906,4|0|0|0,0:0|0:0|0:0|0:0,0:0:0:0:
59,321,52945,5,6,0:0:0:0:
81,281,53010,1,2,0:0:0:0:
85,236,53074,1,2,0:0:0:0:
72,193,53138,1,2,0:0:0:0:
54,152,53202,1,6,0:0:0:0:
57,107,53266,1,2,0:0:0:0:
71,64,53330,1,2,0:0:0:0:
108,39,53394,1,2,0:0:0:0:
171,23,53458,6,0,L|336:37,1,148.750002837181,6|0,0:0|0:0,0:0:0:0:
324,209,53715,1,0,0:0:0:0:
474,48,53843,1,0,0:0:0:0:
231,158,53971,2,0,P|212:235|255:300,1,148.750002837181,8|0,0:0|0:0,0:0:0:0:
357,112,54228,1,0,0:0:0:0:
92,119,54356,1,0,0:0:0:0:
297,59,54484,5,2,0:0:0:0:
337,297,54612,1,2,0:0:0:0:
415,63,54740,5,2,0:0:0:0:
195,303,54869,1,2,0:0:0:0:
192,72,54997,5,10,0:0:0:0:
266,347,55125,1,2,0:0:0:0:
291,64,55253,5,2,0:0:0:0:
106,300,55381,1,2,0:0:0:0:
426,293,55510,6,0,B|445:227|389:185|389:185|417:139|409:90|409:90|364:59|380:2,1,297.500005674362,2|0,0:0|0:0,0:0:0:0:
243,361,55894,1,0,0:0:0:0:
243,361,55958,1,0,0:0:0:0:
243,361,56022,2,0,P|329:381|390:337,1,148.750002837181,8|0,0:0|0:0,0:0:0:0:
256,87,56279,1,0,0:0:0:0:
306,293,56407,1,0,0:0:0:0:
45,189,56535,6,0,B|78:177|99:154|99:154|141:149|195:163,1,148.750002837181,4|0,0:0|0:0,0:0:0:0:
417,333,56792,2,0,B|390:310|359:303|359:303|334:269|319:216,1,148.750002837181,4|0,0:0|0:0,0:0:0:0:
309,0,57048,2,0,B|302:34|312:64|312:64|295:103|256:142,1,148.750002837181,4|0,0:0|0:0,0:0:0:0:
132,40,57304,1,4,0:0:0:0:
445,92,57433,1,0,0:0:0:0:
235,280,57561,6,0,L|78:269,1,148.750002837181,4|0,0:0|0:0,0:0:0:0:
18,270,57753,1,0,0:0:0:0:
18,270,57817,1,0,0:0:0:0:
182,125,57945,1,0,0:0:0:0:
327,293,58074,2,0,P|391:309|465:264,1,148.750002837181,8|0,0:0|0:0,0:0:0:0:
214,163,58330,1,0,0:0:0:0:
172,354,58458,1,0,0:0:0:0:
349,65,58586,5,2,0:0:0:0:
104,267,58715,1,2,0:0:0:0:
400,289,58843,5,2,0:0:0:0:
160,56,58971,1,2,0:0:0:0:
224,351,59099,5,10,0:0:0:0:
416,104,59228,1,2,0:0:0:0:
106,117,59356,5,2,0:0:0:0:
385,296,59484,1,2,0:0:0:0:
162,111,59612,6,0,B|122:35|80:123|112:151|112:151|114:197|150:232|150:233|150:235|150:235|175:213|204:181|204:181|234:149|250:120|250:120|232:94|230:74|214:76|203:87|198:96|192:108|192:108,1,459.375,6|0,0:0|0:0,0:0:0:0:
50,239,61151,2,0,P|80:282|124:312,1,87.5
347,347,61663,6,0,B|352:300|352:299|357:273|329:261|329:261|298:225|298:189,1,175,2|0,0:0|0:0,0:0:0:0:
313,99,62433,1,0,0:0:0:0:
395,140,62689,2,0,B|447:141|447:156|475:92,1,87.5,2|0,0:0|0:0,0:0:0:0:
432,35,63202,2,0,B|390:27|373:36|373:36|348:35|329:33,1,87.5,2|0,0:0|0:0,0:0:0:0:
226,48,63715,2,0,P|166:58|151:82,1,87.5,2|0,0:0|0:0,0:0:0:0:
134,182,64228,1,0,0:0:0:0:
134,182,64484,1,0,0:0:0:0:
162,252,64740,2,0,B|136:274|105:269|79:299,1,87.5,2|0,0:0|0:0,0:0:0:0:
213,344,65253,2,0,B|245:336|246:336|251:309|251:309|276:336,1,87.5,2|0,0:0|0:0,0:0:0:0:
336,359,65766,1,2,0:0:0:0:
256,192,65830,12,0,67817,0:0:0:0:
