osu file format v14

[General]
AudioFilename: audio.mp3
AudioLeadIn: 0
PreviewTime: 35381
Countdown: 0
SampleSet: Normal
StackLeniency: 0.7
Mode: 0
LetterboxInBreaks: 0
WidescreenStoryboard: 1

[Editor]
DistanceSpacing: 1.5
BeatDivisor: 16
GridSize: 8
TimelineZoom: 3.299999

[Metadata]
Title:If Tomorrow Never Comes (Nightcore Ver.)
TitleUnicode:If Tomorrow Never Comes (Nightcore Ver.)
Artist:Rosmah Mansor
ArtistUnicode:Rosmah Mansor
Creator:Jerry
Version:Arron's Only One
Source:Malaysia
Tags:Trappy-kun blufir_ Cheeeeeeeeeew TsukinoseTillot arronlim13 King Hong PurpleSatanWeed ZheVulture Kival Evan [Zeth] angki Aasheda_ Wen4ng3L KecHik445
BeatmapID:1938481
BeatmapSetID:927564

[Difficulty]
HPDrainRate:4
CircleSize:4
OverallDifficulty:4
ApproachRate:9
SliderMultiplier:2.99999990463257
SliderTickRate:1

[Events]
//Background and Video events
0,0,"bg.jpg",0,0
//Break Periods
//Storyboard Layer 0 (Background)
//Storyboard Layer 1 (Fail)
//Storyboard Layer 2 (Pass)
//Storyboard Layer 3 (Foreground)
//Storyboard Sound Samples

[TimingPoints]
116,512.820512820513,4,1,0,60,1,0
2167,4000,4,1,0,60,1,0
2167,-133.333333333333,4,1,0,60,0,0
4228,512.820512820513,4,1,0,60,1,0
4228,-133.333333333333,4,1,0,60,0,0
8394,-200,4,1,0,60,0,0
10381,-133.333333333333,4,1,0,60,0,0
20620,512.820512820513,4,1,0,60,1,0
35363,-1000,4,1,0,60,0,0
35684,-333.333333333333,4,1,0,60,0,0
35940,-200,4,1,0,60,0,0
36325,-50,4,1,0,60,0,0
37030,-76.9230769230769,4,1,0,60,0,1
38042,-50,4,2,0,60,0,1
38825,-181.818181818181,4,2,0,60,0,1
39081,-50,4,2,0,60,0,1
41132,-38.4615384615385,4,2,0,60,0,1
42671,-27.027027027027,4,2,0,60,0,1
42927,-50,4,2,0,60,0,1
46004,-133.333333333333,4,2,0,60,0,1
46261,-50,4,2,0,60,0,1
49337,-38.4615384615385,4,2,0,60,0,1
51393,-100,4,1,0,60,0,0
51719,-1000,4,1,0,60,0,0
52040,-333.333333333333,4,1,0,60,0,0
52296,-200,4,1,0,60,0,0
52617,-50,4,1,0,60,0,0
52681,-50,4,1,0,60,0,0
53129,-66.6666666666667,4,1,0,60,0,0
53444,-50,4,1,0,60,0,1
55235,-200,4,1,0,60,0,1
55491,-50,4,1,0,60,0,1
59530,-666.666666666667,4,1,0,60,0,0
61645,-100,4,1,0,60,0,0
67799,-200,4,1,0,60,0,0

[HitObjects]
119,41,2167,6,0,B|127:85|182:32|210:92,1,112.500000715256,2|0,0:0|0:0,0:0:0:0:
220,101,4228,6,0,B|248:145|235:185|199:207,1,112.500000715256
107,148,4740,1,2,0:0:0:0:
129,267,4997,1,0,0:0:0:0:
185,147,5253,1,2,0:0:0:0:
59,233,5510,1,0,0:0:0:0:
242,303,5766,2,0,P|167:343|103:307,1,112.500000715256,0|2,0:0|0:0,0:0:0:0:
63,132,6279,5,0,0:0:0:0:
186,164,6535,2,0,P|228:210|212:283,1,112.500000715256
307,337,7048,2,0,B|328:333|328:333|343:323,1,28.125000178814
307,337,7176,2,0,B|358:327|396:296|353:255|367:205|440:184,1,168.750001072884,2|0,0:0|0:0,0:0:0:0:
457,130,7817,1,2,0:0:0:0:
459,280,8074,1,0,0:0:0:0:
329,157,8266,6,0,P|315:145|301:137,1,28.125000178814,0|2,0:0|0:0,0:0:0:0:
329,157,8394,2,0,B|295:127|259:111|257:144|229:144|194:153|350:244|141:192|141:222|147:235|150:269,1,262.49999165535
156,276,9356,1,0,0:0:0:0:
161,282,9420,1,2,0:0:0:0:
185,101,9612,1,0,0:0:0:0:
293,210,9869,1,0,0:0:0:0:
99,180,10125,1,0,0:0:0:0:
263,314,10381,6,0,P|346:311|370:283,2,112.500000715256,0|0|2,0:0|0:0|0:0,0:0:0:0:
162,244,11151,1,0,0:0:0:0:
352,163,11407,2,0,P|324:204|266:207,2,112.500000715256,0|0|2,0:0|0:0|0:0,0:0:0:0:
115,133,12176,5,0,0:0:0:0:
115,133,12304,1,0,0:0:0:0:
115,133,12433,2,0,P|143:76|209:72,2,112.500000715256,0|0|2,0:0|0:0|0:0,0:0:0:0:
117,308,13202,2,0,L|169:326,1,28.125000178814,0|2,0:0|0:0,0:0:0:0:
117,308,13330,6,0,B|167:345|218:264|287:315,1,168.750001072884
402,241,13907,1,2,0:0:0:0:
349,78,14163,1,0,0:0:0:0:
277,201,14356,2,0,P|246:216|217:210,1,56.2500003576279
164,87,14740,2,0,P|203:75|229:82,1,56.2500003576279
217,77,14997,1,2,0:0:0:0:
390,182,15253,6,0,B|394:244|367:253|345:283|346:283,1,112.500000715256
233,171,15766,1,0,0:0:0:0:
346,281,16022,1,2,0:0:0:0:
405,148,16279,1,0,0:0:0:0:
405,148,16407,1,0,0:0:0:0:
405,148,16535,6,0,P|367:81|305:75,1,112.500000715256
195,198,17048,1,2,0:0:0:0:
335,273,17304,1,0,0:0:0:0:
170,320,17497,6,0,L|205:326,1,28.125000178814,0|2,0:0|0:0,0:0:0:0:
314,172,17817,1,0,0:0:0:0:
409,250,18074,1,0,0:0:0:0:
194,171,18330,1,2,0:0:0:0:
313,66,18522,6,0,L|341:45,2,28.125000178814,0|0|2,0:0|0:0|0:0,0:0:0:0:
355,85,20620,6,0,B|405:112|448:159|378:230,1,149.999995231629,4|0,0:0|0:0,0:0:0:0:
290,281,21132,1,0,0:0:0:0:
181,130,21389,1,0,0:0:0:0:
127,238,21645,1,2,0:0:0:0:
308,166,21902,1,0,0:0:0:0:
211,305,22158,1,0,0:0:0:0:
254,103,22414,1,2,0:0:0:0:
72,149,22671,6,0,B|165:176|41:211|134:261,1,149.999995231629,4|0,0:0|0:0,0:0:0:0:
304,321,23184,2,0,B|336:322|381:284|286:240|392:258|375:204,2,149.999995231629,2|0|0,0:0|0:0|0:0,0:0:0:0:
299,327,23953,1,0,0:0:0:0:
224,230,24209,1,2,0:0:0:0:
392,113,24466,5,0,0:0:0:0:
392,113,24594,1,0,0:0:0:0:
392,113,24722,2,0,B|317:63|253:109|253:109|178:134|103:92,1,299.999990463257,4|2,0:0|0:0,0:0:0:0:
42,213,25491,1,0,0:0:0:0:
214,247,25748,1,0,0:0:0:0:
153,147,26004,1,0,0:0:0:0:
100,312,26261,1,2,0:0:0:0:
76,156,26517,1,0,0:0:0:0:
251,318,26773,6,0,P|339:311|372:249,1,149.999995231629,4|0,0:0|0:0,0:0:0:0:
452,153,27286,2,0,P|395:85|325:98,1,149.999995231629,2|0,0:0|0:0,0:0:0:0:
137,76,27799,1,0,0:0:0:0:
277,192,28055,1,0,0:0:0:0:
90,138,28312,1,2,0:0:0:0:
330,141,28568,1,0,0:0:0:0:
453,256,28825,6,0,B|429:347|329:337,1,149.999995231629,4|0,0:0|0:0,0:0:0:0:
169,334,29337,2,0,B|99:301|148:250|70:222,1,149.999995231629,2|0,0:0|0:0,0:0:0:0:
44,165,29722,1,0,0:0:0:0:
68,103,29850,2,0,B|130:54|147:55|199:128,1,149.999995231629,4|0,0:0|0:0,0:0:0:0:
177,229,30363,1,2,0:0:0:0:
370,53,30620,6,0,P|337:94|345:117,1,74.9999976158143
368,175,30876,2,0,B|385:221|476:176|475:261,1,149.999995231629,4|0,0:0|0:0,0:0:0:0:
429,318,31389,2,0,P|362:334|373:264,2,149.999995231629,2|0|4,0:0|0:0|0:0,0:0:0:0:
444,191,32158,1,0,0:0:0:0:
313,324,32414,1,2,0:0:0:0:
204,118,32671,5,0,0:0:0:0:
204,118,32799,1,0,0:0:0:0:
204,118,32927,2,0,B|129:84|92:171|147:202,1,149.999995231629,4|0,0:0|0:0,0:0:0:0:
235,198,33440,5,2,0:0:0:0:
177,264,33696,1,0,0:0:0:0:
265,161,33953,5,4,0:0:0:0:
145,296,34209,1,0,0:0:0:0:
278,116,34466,5,2,0:0:0:0:
103,316,34722,1,0,0:0:0:0:
286,82,34914,6,0,P|305:71|312:87,1,37.4999988079071,4|2,0:0|0:0,0:0:0:0:
68,326,35363,6,0,L|77:313,1,14.9999995231629,4|0,0:0|0:0,0:0:0:0:
90,297,35684,2,0,P|110:291|116:280,1,33.7499978971482
132,277,35940,2,0,B|153:301|186:272|225:300,1,93.7499970197678,2|0,0:0|0:0,0:0:0:0:
235,304,36325,2,0,B|282:338|282:338|330:309|330:309|400:346|400:346|447:273|447:273|398:222|398:222|468:160|468:160|429:85,1,524.9999833107
394,46,36837,1,0,0:0:0:0:
338,35,36902,1,0,0:0:0:0:
283,52,36966,1,0,0:0:0:0:
257,104,37030,6,0,B|232:85|229:80|192:65|136:45|118:-10|39:162|60:259|140:168|163:183|185:184|195:199|210:214|227:230|241:246|253:270|256:282|259:292|260:343|265:296|265:294|265:293|266:286|269:248|271:241|279:229|292:212|302:206|330:192|355:180|368:174|384:231|436:221|406:148|388:99|444:12|315:38|276:79|258:101|257:110,1,779.999939498905,4|4,0:0|0:0,0:0:0:0:
187,287,38312,2,0,P|267:293|324:254,1,149.999995231629
372,213,38568,1,2,0:0:0:0:
339,71,38825,2,0,P|317:33|293:37,1,72.1874999082089,4|0,0:0|0:0,0:3:0:0:
275,49,39081,6,0,B|299:70|208:116|208:116|127:100|64:88|38:150,1,262.49999165535,4|0,0:0|0:0,0:0:0:0:
47,148,39337,2,0,B|4:186|104:201|102:230|-41:284|-3:326|171:395|140:246,1,299.999990463257,0|2,0:0|0:0,0:0:0:0:
229,293,39850,6,0,P|280:312|333:297,1,112.499996423721,4|0,0:0|0:0,0:0:0:0:
346,279,39978,2,0,P|380:235|386:180,1,112.499996423721
372,162,40107,2,0,B|280:271|345:45|237:-30|161:78,1,299.999990463257,4|0,0:0|0:0,0:0:0:0:
162,60,40395,2,0,B|18:46|276:87|184:225|26:176|71:215|69:230|70:238,1,224.999992847443
83,233,40620,2,0,B|180:251|86:331|156:293|101:348|201:359|243:324,1,224.999992847443,2|0,0:0|0:0,0:0:0:0:
259,321,40844,2,0,B|395:244|93:145|461:168|276:80,1,299.999990463257,0|0,0:0|0:0,2:0:0:0:
259,80,41132,6,0,B|232:60|229:55|192:40|136:20|118:-35|39:137|60:234|140:143|163:158|185:159|195:174|210:189|227:205|241:221|253:245|256:257|259:267|260:318|265:271|265:269|265:268|266:261|269:223|271:216|279:204|292:187|302:181|330:167|355:155|368:149|384:206|436:196|406:123|388:74|444:-13|315:13|276:54|258:76|254:87,1,779.999939498905,4|2,0:0|0:0,0:0:0:0:
68,76,41902,6,0,B|64:289|70:246|68:271|70:278|70:262|74:236|76:219|86:204|97:195|108:191|115:191|125:191|138:197|153:215|155:235|157:253|159:264|159:282|159:297|159:297,1,341.249973530771,4|0,0:0|0:0,0:0:0:0:
189,263,42158,2,0,P|191:183|194:111,1,146.249988656045
195,53,42382,1,4,0:0:0:0:
276,94,42671,2,0,B|280:318|285:283|285:243|288:208|283:168|317:87|336:56|351:145|357:231|376:272|380:282|375:248|385:216|380:179|396:83|427:123|457:155|461:214|466:268|467:290,1,536.249958405497,2|4,0:0|0:0,0:0:0:0:
105,186,43184,6,0,B|39:220|7:321|96:384|172:377|202:294,1,299.999990463257,4|0,0:0|0:0,0:0:0:0:
278,226,43696,1,2,0:0:0:0:
435,131,43921,6,0,P|386:137|339:97,1,112.499996423721
336,76,44049,2,0,B|276:53|268:124|187:129|177:52,1,187.499994039536,4|0,0:0|0:0,0:0:0:0:
164,46,44241,2,0,B|65:44|-38:26|389:302|57:134|-13:128|58:306|105:304|192:253,1,412.499986886978
204,247,44626,2,0,B|212:460|210:364|257:60|242:286|279:293|279:363|285:367|305:189|346:188|350:344|357:369,1,374.999988079071,2|0,0:0|0:0,0:0:0:0:
374,338,44978,2,0,P|437:295|431:270,1,112.499996423721
435,244,45107,2,0,P|451:202|410:143,1,112.499996423721
401,137,45235,2,0,B|409:83|373:30|315:5|262:4|197:-4|208:34|137:147|139:137|195:178|273:230|305:252|334:180|326:171|345:136|341:111|300:85|269:108,1,599.999980926514,4|2,0:0|0:0,0:0:0:0:
66,245,46004,6,0,P|61:268|111:310,1,98.4375006258488,4|0,0:0|0:0,0:0:0:0:
132,304,46261,6,0,B|175:211|297:268|244:334|250:383|325:387|357:297|332:259,1,299.999990463257,4|0,0:0|0:0,0:0:0:0:
343,262,46549,2,0,B|269:230|245:180|342:234|346:141|207:43|221:168|143:379|113:146|189:106|128:58|55:127|23:149|120:224|36:252|19:162|-4:82|55:60|102:41,1,524.9999833107,2|0,0:0|0:0,0:0:0:0:
129,37,47030,2,0,B|190:30|150:91|221:82,1,112.499996423721
240,74,47158,2,0,B|273:41|316:118|348:50,1,112.499996423721,4|0,0:0|0:0,0:0:0:0:
356,51,47286,2,0,B|466:19|503:105|294:103|287:132|479:176|612:134|536:282|424:219|643:346|25:-73|717:387|510:339|500:343|403:349|564:315|458:43|241:305|260:356|505:24|360:203|326:268|238:222,1,599.999980926514,0|2,0:0|0:0,0:0:0:0:
79,188,48055,6,0,B|158:245|88:344|74:338|124:330|215:310,1,262.49999165535
252,315,48312,2,0,B|304:342|372:334|320:292|294:276|388:341|512:344|438:256,1,262.49999165535,4|0,0:0|0:0,0:0:0:0:
440,246,48568,2,0,B|424:206|391:229|371:235|341:225|458:127|392:155|307:140|254:214,1,262.49999165535
245,238,48825,2,0,B|187:189|183:272|162:267|160:323|103:274|103:274|51:311|60:245,1,262.49999165535,2|0,0:0|0:0,0:0:0:0:
66,223,49081,2,0,B|132:195|71:134|81:91|161:93|174:159|204:199|258:129|251:93,1,262.49999165535
257,104,49337,6,0,B|232:85|229:80|192:65|136:45|118:-10|39:162|60:259|140:168|163:183|185:184|195:199|210:214|227:230|241:246|253:270|256:282|259:292|260:343|265:296|265:294|265:293|266:286|269:248|271:241|279:229|292:212|302:206|330:192|355:180|368:174|384:231|436:221|406:148|388:99|444:12|315:38|276:79|258:101|254:112,4,779.999939498905,0|2|4|2|4,0:0|0:0|0:0|0:0|0:0,0:0:0:0:
440,71,51773,6,0,L|453:82,1,16.8749994635582,4|0,0:0|0:0,0:0:0:0:
464,99,52094,2,0,P|464:125|453:131,1,39.3749975466729
437,142,52350,2,0,B|405:146|373:161|369:196,1,93.7499970197678,2|0,0:0|0:0,0:0:0:0:
364,216,52703,2,0,B|423:218|474:269|411:316|458:120|439:306|366:331|354:330|348:329|182:324|358:141|266:-130|327:294|258:307|84:282|232:198|127:207|198:170|72:166|38:131|98:105|165:87,1,562.499982118607
190,64,53247,1,0,0:0:0:0:
246,53,53312,1,0,0:0:0:0:
301,70,53376,1,0,0:0:0:0:
356,94,53440,2,0,B|437:121|370:301|270:600|335:0|353:375|428:292|286:37|240:14|174:24|35:293|184:81|96:610|269:-12|108:-12|124:-25|36:145|203:430|96:177|146:243|6:230|-5:339|44:385|24:316|31:357|172:247|120:285|48:300|244:286|111:408|276:310,1,900.000005722047,0|4,0:0|0:0,0:0:0:0:
262,48,54722,6,0,P|219:76|136:58,1,112.499996423721,4|0,0:0|0:0,0:0:0:0:
97,37,54978,1,2,0:0:0:0:
55,262,55235,6,0,B|61:297|61:297|88:315,1,65.6249979138375
102,319,55491,6,0,B|253:372|88:208|259:305|299:340|392:358|456:337|295:256|243:259|388:206|443:260|545:66|525:215|396:128|457:328,1,599.999980926514,4|2,0:0|0:0,0:0:0:0:
283,240,56261,6,0,B|301:206|277:201|340:162|357:157,1,112.499996423721,4|0,0:0|0:0,0:0:0:0:
364,151,56389,2,0,B|415:129|369:113|414:110|445:95|375:75,1,112.499996423721
368,76,56517,2,0,B|275:67|310:94|277:106|246:64|177:72|237:138|219:138|128:95|148:51|88:73,1,262.49999165535
105,64,56773,2,0,B|72:88|94:132|146:145|123:159|70:167|52:189|97:230|46:240|58:252|155:223|150:178|192:206|194:224,1,262.49999165535
187,208,57030,2,0,B|242:258|158:272|139:291|155:320|84:327|254:320|193:300|264:252|313:262|261:327|381:335|286:366|541:298|397:231|324:260|368:217,1,412.499986886978,2|0,0:0|0:0,0:0:0:0:
355,235,57414,2,0,B|316:180|466:175|370:142,1,112.499996423721
394,133,57543,2,0,B|414:64|458:35|417:27|402:88|357:87|341:73|343:26|339:108|289:82|301:152|228:92,1,262.49999165535,4|0,0:0|0:0,0:0:0:0:
234,95,57799,2,0,B|203:68|171:52|154:48|139:52|124:92|136:107|174:135|191:154|189:187|108:146|81:74|34:-17|-34:-28|35:119|48:161|92:200|-29:237|49:373|221:123|193:199|286:36|299:118|263:208|254:246|146:258|-40:311|63:405|258:403|321:287|294:247|299:205|215:-37|252:38|326:229|502:237|446:220|516:274|475:289|479:323|465:347|448:359|418:358|405:356|399:351,2,899.999971389771,0|0|2,0:0|0:0|0:0,0:0:0:0:
301,332,59594,6,0,B|268:292|225:374|210:357|156:327,1,157.499990186692
102,268,61645,6,0,P|71:167|101:136,1,149.999995231629,4|0,0:0|0:0,0:0:0:0:
249,90,62158,1,2,0:0:0:0:
375,209,62414,1,0,0:0:0:0:
248,233,62671,2,0,P|243:303|313:332,2,149.999995231629,4|0|2,0:0|0:0|0:0,0:0:0:0:
103,289,63440,1,4,0:0:0:0:
87,141,63696,6,0,B|140:61|185:169|249:54,1,149.999995231629,4|0,0:0|0:0,0:0:0:0:
368,52,64209,2,0,P|429:95|431:189,1,149.999995231629,2|0,0:0|0:0,0:0:0:0:
438,191,64594,1,0,0:0:0:0:
434,209,64722,2,0,B|458:303|373:331|309:311,1,149.999995231629
249,222,65235,1,2,0:0:0:0:
150,332,65491,5,0,0:0:0:0:
150,332,65620,1,0,0:0:0:0:
150,332,65748,2,0,P|105:353|117:251,1,149.999995231629
225,120,66261,1,2,0:0:0:0:
126,202,66517,1,0,0:0:0:0:
293,146,66773,1,0,0:0:0:0:
67,171,67030,1,0,0:0:0:0:
319,215,67286,1,2,0:0:0:0:
94,102,67543,1,0,0:0:0:0:
299,284,67735,2,0,L|270:318,2,37.4999988079071,0|0|2,0:0|0:0|0:0,0:0:0:0:
