osu file format v14

[General]
AudioFilename: audio.mp3
AudioLeadIn: 0
PreviewTime: 2648
Countdown: 0
SampleSet: Normal
StackLeniency: 0.7
Mode: 0
LetterboxInBreaks: 1
WidescreenStoryboard: 1

[Editor]
Bookmarks: 55343
DistanceSpacing: 1
BeatDivisor: 4
GridSize: 4
TimelineZoom: 0.8999998

[Metadata]
Title:Nightmare -Overture-
TitleUnicode:Nightmare -Overture-
Artist:Roses Epicurian
ArtistUnicode:Roses Epicurian
Creator:Intelli
Version:Hard
Source:
Tags:ArMin A_r_M_i_N spooky naitomea -jokyoku- yami no kodomo tachi 闇童話工房 キラ星ひかる kiraboshi hikaru 葉月ゆら hatsuki yura
BeatmapID:1122713
BeatmapSetID:524633

[Difficulty]
HPDrainRate:5
CircleSize:4.5
OverallDifficulty:5.5
ApproachRate:6
SliderMultiplier:1.4
SliderTickRate:1

[Events]
//Background and Video events
0,0,"spookybg.jpg",0,0
//Break Periods
//Storyboard Layer 0 (Background)
//Storyboard Layer 1 (Fail)
//Storyboard Layer 2 (Pass)
//Storyboard Layer 3 (Foreground)
//Storyboard Sound Samples

[TimingPoints]
2648,521.739130434783,4,1,1,65,1,0
18300,-133.333333333333,4,1,1,72,0,0
19082,-100,4,1,1,80,0,1
34995,-133.333333333333,4,1,1,72,0,1
36039,-100,4,1,1,65,0,0
51691,-175.438596491228,4,1,1,5,0,0

[Colours]
Combo1 : 55,155,255
Combo2 : 135,130,145
Combo3 : 68,0,119
Combo4 : 255,135,15
Combo5 : 255,0,0

[HitObjects]
48,110,2648,6,0,P|97:138|186:137,1,140,2|0,0:0|0:0,0:0:0:0:
247,122,3430,1,0,0:0:0:0:
313,100,3691,2,0,P|377:97|416:166,1,140
306,241,4734,6,0,P|235:280|238:346,1,140,2|0,0:0|0:0,0:0:0:0:
299,311,5517,1,0,0:0:0:0:
306,241,5778,2,0,P|269:168|203:169,1,140,2|0,0:0|0:0,0:0:0:0:
78,180,6821,6,0,P|120:250|185:244,1,140,2|0,0:0|0:0,0:0:0:0:
237,230,7604,1,0,0:0:0:0:
295,191,7865,2,0,P|355:168|431:199,1,140
360,310,8908,21,2,0:0:0:0:
360,168,9430,1,0,0:0:0:0:
332,102,9691,1,0,0:0:0:0:
285,49,9952,2,0,P|230:24|152:66,1,140,2|0,0:0|0:0,0:0:0:0:
78,166,10995,6,0,P|92:248|162:240,1,140,2|0,0:0|0:0,0:0:0:0:
204,237,11778,1,0,0:0:0:0:
267,208,12039,2,0,P|307:188|415:202,2,140,0|0|2,0:0|0:0|0:0,0:0:0:0:
277,347,13604,1,0,0:0:0:0:
202,336,13865,1,0,0:0:0:0:
140,301,14126,2,0,P|103:251|126:161,1,140,2|0,0:0|0:0,0:0:0:0:
167,48,15169,6,0,L|214:127,1,70,2|0,0:0|0:0,0:0:0:0:
266,79,15691,2,0,L|273:170,1,70
340,162,16213,2,0,L|318:228,1,70,2|0,0:0|0:0,0:0:0:0:
371,274,16734,2,0,L|320:322,1,70
257,354,17256,1,2,0:0:0:0:
187,343,17517,1,0,0:0:0:0:
127,306,17778,2,0,P|103:275|94:231,1,70
87,175,18300,22,0,P|100:137|111:180,1,105.000004005432,2|2,0:0|0:0,0:0:0:0:
69,79,19343,54,0,P|110:70|156:93,1,70,2|0,0:0|0:0,0:0:0:0:
210,117,19865,1,0,0:0:0:0:
249,191,20126,1,0,0:0:0:0:
294,261,20387,2,0,P|329:286|385:296,1,70,2|0,0:0|0:0,0:0:0:0:
394,220,20908,2,0,P|359:195|303:185,1,70
249,191,21430,21,2,0:0:0:0:
177,234,21691,1,0,0:0:0:0:
115,291,21952,2,0,P|88:326|85:366,1,70
167,357,22474,1,2,0:0:0:0:
250,346,22734,1,0,0:0:0:0:
330,321,22995,2,0,P|369:299|386:273,1,70
413,200,23517,5,2,0:0:0:0:
339,159,23778,1,0,0:0:0:0:
308,237,24039,1,0,0:0:0:0:
383,278,24300,1,0,0:0:0:0:
413,200,24561,2,0,L|433:116,1,70,2|0,0:0|0:0,0:0:0:0:
355,90,25082,2,0,L|338:158,1,70
308,237,25604,5,2,0:0:0:0:
229,267,25865,1,0,0:0:0:0:
145,275,26126,2,0,P|105:266|69:236,1,70
141,190,26648,1,2,0:0:0:0:
169,111,26908,1,0,0:0:0:0:
165,26,27169,2,0,P|204:34|240:64,1,70
276,120,27691,5,2,0:0:0:0:
308,197,27952,1,0,0:0:0:0:
332,277,28213,2,0,P|368:293|410:286,1,70
481,286,28734,1,2,0:0:0:0:
435,215,28995,1,0,0:0:0:0:
397,290,29256,2,0,P|378:324|341:345,1,70
269,349,29778,21,2,0:0:0:0:
186,333,30039,1,0,0:0:0:0:
134,266,30300,2,0,P|122:220|130:169,1,70
140,115,30821,2,0,P|161:86|204:80,1,70,2|0,0:0|0:0,0:0:0:0:
277,91,31343,2,0,P|316:108|367:91,1,70
424,86,31865,5,2,0:0:0:0:
401,167,32126,1,0,0:0:0:0:
334,218,32387,1,0,0:0:0:0:
253,243,32648,1,0,0:0:0:0:
169,250,32908,2,0,P|125:244|87:215,1,70,2|0,0:0|0:0,0:0:0:0:
140,155,33430,2,0,P|183:160|221:189,1,70
253,243,33952,5,2,0:0:0:0:
296,314,34213,1,0,0:0:0:0:
359,334,34474,1,0,0:0:0:0:
402,319,34734,1,0,0:0:0:0:
418,295,34995,22,0,P|432:258|426:173,1,105.000004005432,2|2,0:0|0:0,0:0:0:0:
269,38,36039,54,0,P|250:87|259:203,1,140,2|0,0:0|0:0,0:0:0:0:
265,242,36821,1,0,0:0:0:0:
317,288,37082,2,0,B|328:310|356:328|356:328|309:376|258:350,1,140
143,332,38126,22,0,P|97:291|95:191,1,140,2|0,0:0|0:0,0:0:0:0:
91,146,38908,1,0,0:0:0:0:
127,85,39169,2,0,B|147:61|167:54|167:54|202:102|263:94,1,140,2|0,0:0|0:0,0:0:0:0:
382,85,40213,6,0,P|346:147|370:210,1,140,2|0,0:0|0:0,0:0:0:0:
406,265,40995,1,0,0:0:0:0:
336,268,41256,2,0,P|266:283|236:344,1,140
100,305,42300,6,0,P|169:289|199:228,1,140,2|0,0:0|0:0,0:0:0:0:
199,162,43082,1,0,0:0:0:0:
196,92,43343,2,0,P|173:52|165:118,1,140,2|0,0:0|0:0,0:0:0:0:
199,232,44387,6,0,P|254:279|341:272,1,140,2|0,0:0|0:0,0:0:0:0:
384,257,45169,1,0,0:0:0:0:
441,216,45430,2,0,P|459:172|388:124,1,140
255,130,46474,21,2,0:0:0:0:
150,36,46995,1,0,0:0:0:0:
81,50,47256,1,0,0:0:0:0:
82,120,47517,2,0,B|125:172|33:189|90:246,1,140,2|0,0:0|0:0,0:0:0:0:
194,340,48561,6,0,L|258:283,1,70,2|0,0:0|0:0,0:0:0:0:
307,328,49082,2,0,L|319:243,1,70
386,247,49604,2,0,L|340:174,1,70,2|0,0:0|0:0,0:0:0:0:
397,136,50126,2,0,L|315:109,1,70
261,98,50648,1,2,0:0:0:0:
192,106,50908,1,0,0:0:0:0:
148,161,51169,1,0,0:0:0:0:
155,231,51430,1,0,0:0:0:0:
207,277,51691,38,0,B|290:336|370:232|370:232|345:177|418:142|418:142|418:20|342:80|285:23|259:104,1,538.649993424683,2|0,0:0|0:0,0:0:0:0:
