osu file format v14

[General]
AudioFilename: audio.mp3
AudioLeadIn: 0
PreviewTime: 36039
Countdown: 0
SampleSet: None
StackLeniency: 0.7
Mode: 0
LetterboxInBreaks: 0
WidescreenStoryboard: 0

[Editor]
DistanceSpacing: 1.5
BeatDivisor: 4
GridSize: 4
TimelineZoom: 1.7

[Metadata]
Title:Yoru no Kodomo-tachi
TitleUnicode:夜の子供たち
Artist:Roses Epicurean
ArtistUnicode:Roses Epicurean
Creator:Gordon123
Version:tutuhara's Hard
Source:
Tags:Hatsuki Yura 葉月ゆら 闇童話工房 バラエピキュリアン Instrumental Japanese -Space- tutuhara Mortem Pjecoo
BeatmapID:1005949
BeatmapSetID:439731

[Difficulty]
HPDrainRate:5
CircleSize:4
OverallDifficulty:6
ApproachRate:7.4
SliderMultiplier:1.6
SliderTickRate:1

[Events]
//Background and Video events
0,0,"bg.jpg",0,0
//Break Periods
//Storyboard Layer 0 (Background)
//Storyboard Layer 1 (Fail)
//Storyboard Layer 2 (Pass)
//Storyboard Layer 3 (Foreground)
//Storyboard Layer 4 (Overlay)
//Storyboard Sound Samples

[TimingPoints]
696,659.340659340659,4,3,1,15,1,0
1355,-100,4,3,1,20,0,0
2014,-100,4,3,1,25,0,0
2652,521.739130434783,4,3,1,40,1,0
19347,-100,4,3,1,40,0,1
36043,-100,4,3,1,40,0,0
52217,-100,4,3,1,15,0,0

[Colours]
Combo1 : 95,82,108
Combo2 : 84,77,48
Combo3 : 110,24,35
Combo4 : 130,86,111
SliderTrackOverride : 34,28,40
SliderBorder : 229,211,207

[HitObjects]
124,272,696,6,0,P|164:328|173:268,2,160,8|8|8,0:0|0:0|0:0,0:0:0:0:
140,100,2652,6,0,P|180:72|288:80,1,160,2|10,0:2|0:0,0:0:0:0:
324,180,3434,1,0,0:0:0:0:
308,284,3695,2,0,P|260:324|160:312,1,160,2|10,0:2|0:0,0:0:0:0:
96,76,4738,6,0,P|148:88|188:128,1,80,2|0,0:2|0:0,0:0:0:0:
248,196,5260,1,10,0:0:0:0:
324,104,5521,1,0,0:0:0:0:
368,216,5782,2,0,P|324:296|232:324,1,160,2|10,0:2|0:0,0:0:0:0:
248,196,6565,1,0,0:0:0:0:
299,82,6825,6,0,P|369:177|354:248,1,160,2|10,0:2|0:0,0:0:0:0:
248,196,7608,1,0,0:0:0:0:
210,83,7869,2,0,P|172:105|148:137,1,80,2|0,0:2|0:0,0:0:0:0:
148,272,8391,2,0,P|180:308|220:320,1,80,10|0,0:0|0:0,0:0:0:0:
346,223,8912,6,0,P|350:135|276:81,1,160,2|10,0:2|0:0,0:0:0:0:
268,180,9695,1,0,0:0:0:0:
268,180,9956,1,2,0:2:0:0:
351,266,10217,2,0,L|429:335,2,80,0|10|0,0:0|0:0|0:0,0:0:0:0:
235,297,10999,6,0,P|158:289|108:227,1,160,6|10,0:0|0:0,0:0:0:0:
210,191,11782,1,0,0:0:0:0:
322,141,12043,2,8,L|330:37,1,80,2|0,0:2|0:0,0:0:0:0:
412,220,12565,2,0,L|404:320,1,80,10|0,0:0|0:0,0:0:0:0:
284,332,13086,6,0,P|220:332|196:320,1,80,2|0,0:2|0:0,0:0:0:0:
172,216,13608,1,10,0:0:0:0:
224,116,13869,1,0,0:0:0:0:
104,124,14130,2,0,P|52:180|80:276,1,160,2|10,0:2|0:0,0:0:0:0:
304,256,15173,5,2,0:2:0:0:
304,156,15434,1,0,0:0:0:0:
204,156,15695,1,10,0:0:0:0:
204,256,15956,1,0,0:0:0:0:
328,136,16217,5,2,0:2:0:0:
257,65,16478,1,0,0:0:0:0:
186,136,16739,1,10,0:0:0:0:
257,206,17000,1,0,0:0:0:0:
255,348,17260,5,2,0:2:0:0:
185,276,17521,1,0,0:0:0:0:
257,206,17782,1,10,0:0:0:0:
326,278,18043,1,0,0:0:0:0:
190,170,18304,2,0,B|255:121|255:121|321:166,1,160,2|10,0:2|0:0,0:0:0:0:
190,170,19347,6,0,P|150:210|102:214,1,80,2|0,0:2|0:0,0:0:0:0:
319,165,19869,2,0,P|359:205|407:209,1,80,10|0,0:0|0:0,0:0:0:0:
252,288,20391,2,0,L|252:376,2,80,2|0|2,0:2|0:0|0:2,0:0:0:0:
252,208,21173,1,0,0:0:0:0:
251,96,21434,6,0,P|229:128|193:143,1,80,2|0,0:2|0:0,0:0:0:0:
72,144,21956,2,0,P|34:131|8:96,1,80,10|0,0:0|0:0,0:0:0:0:
252,96,22478,2,0,P|316:144|340:140,1,80,2|0,0:2|0:0,0:0:0:0:
432,144,22999,2,0,P|469:131|496:96,1,80,2|0,0:2|0:0,0:0:0:0:
432,264,23521,6,0,L|408:348,1,80,2|0,0:2|0:0,0:0:0:0:
316,264,24043,1,10,0:0:0:0:
193,269,24304,2,0,L|217:353,2,80,0|2|0,0:0|0:2|0:0,0:0:0:0:
86,324,25086,1,2,0:2:0:0:
109,206,25347,1,0,0:0:0:0:
191,115,25608,6,0,P|163:88|155:50,1,80,2|0,0:2|0:0,0:0:0:0:
311,116,26130,2,0,P|347:68|343:32,1,80,10|0,0:0|0:0,0:0:0:0:
163,175,26652,2,0,P|135:148|127:110,1,80,2|0,0:2|0:0,0:0:0:0:
340,176,27173,2,0,P|376:128|372:92,1,80,2|0,0:2|0:0,0:0:0:0:
469,228,27695,6,0,P|464:285|451:318,2,80,14|0|10,0:0|0:0|0:0,0:0:0:0:
361,281,28478,1,0,0:0:0:0:
250,341,28738,2,0,P|254:278|276:234,3,80,2|0|2|0,0:2|0:0|0:2|0:0,0:0:0:0:
143,240,29782,6,0,P|109:277|93:314,2,80,2|0|10,0:2|0:0|0:0,0:0:0:0:
240,195,30565,1,0,0:0:0:0:
143,165,30825,2,0,P|114:137|100:99,3,80,2|0|2|0,0:2|0:0|0:2|0:0,0:0:0:0:
300,128,31869,6,0,P|339:137|373:159,1,80,2|0,0:2|0:0,0:0:0:0:
200,184,32391,2,0,P|161:174|127:153,1,80,10|0,0:0|0:0,0:0:0:0:
296,204,32912,2,0,P|311:240|314:280,1,80,2|0,0:2|0:0,0:0:0:0:
228,116,33434,2,0,P|212:79|209:39,1,80,2|0,0:2|0:0,0:0:0:0:
220,244,33956,6,0,P|218:283|203:320,1,80,2|0,0:2|0:0,0:0:0:0:
300,116,34478,2,0,P|310:77|332:44,1,80,10|0,0:0|0:0,0:0:0:0:
464,128,34999,2,0,P|480:205|435:269,1,160,2|10,0:2|0:0,0:0:0:0:
244,122,36043,6,0,P|229:198|271:268,1,160,2|10,0:2|0:0,0:0:0:0:
358,177,36825,1,0,0:0:0:0:
339,58,37086,2,0,P|279:10|183:38,1,160,2|10,0:2|0:0,0:0:0:0:
136,153,38130,6,0,P|140:213|184:245,1,80,2|0,0:2|0:0,0:0:0:0:
253,290,38652,1,10,0:0:0:0:
351,224,38912,1,0,0:0:0:0:
250,158,39173,2,0,P|290:106|390:118,1,160,2|10,0:2|0:0,0:0:0:0:
351,224,39956,1,0,0:0:0:0:
252,300,40217,6,0,P|303:357|380:349,1,160,2|10,0:2|0:0,0:0:0:0:
424,248,40999,1,0,0:0:0:0:
376,140,41260,2,0,B|300:148|292:80|204:104,1,160,2|10,0:2|0:0,0:0:0:0:
106,125,42043,1,0,0:0:0:0:
95,244,42304,6,0,B|171:236|179:304|267:280,1,160,2|10,0:2|0:0,0:0:0:0:
358,242,43086,1,0,0:0:0:0:
318,128,43347,1,2,0:2:0:0:
412,96,43608,2,0,P|452:120|476:172,2,80,0|10|0,0:0|0:0|0:0,0:0:0:0:
252,80,44391,6,0,L|252:176,1,80,14|0,0:0|0:0,0:0:0:0:
176,272,44912,2,0,P|146:244|132:204,1,80,10|0,0:0|0:0,0:0:0:0:
323,273,45434,2,0,P|352:246|372:212,1,80,2|0,0:2|0:0,0:0:0:0:
252,160,45956,2,0,L|252:64,1,80,10|0,0:0|0:0,0:0:0:0:
368,52,46478,6,0,P|442:68|481:172,1,160,2|10,0:2|0:0,0:0:0:0:
404,208,47260,1,0,0:0:0:0:
400,312,47521,1,2,0:2:0:0:
292,360,47782,2,0,P|252:368|192:348,2,80,0|10|0,0:0|0:0|0:0,0:0:0:0:
316,208,48565,5,2,0:2:0:0:
220,132,48825,1,0,0:0:0:0:
212,252,49086,1,10,0:0:0:0:
332,120,49347,1,0,0:0:0:0:
340,252,49608,5,2,0:2:0:0:
188,132,49869,1,0,0:0:0:0:
156,272,50130,1,10,0:0:0:0:
332,120,50391,1,0,0:0:0:0:
404,248,50652,6,0,L|404:336,1,80,2|0,0:2|0:0,0:0:0:0:
252,264,51173,2,0,L|252:168,1,80,2|0,0:2|0:0,0:0:0:0:
104,88,51695,1,10,0:0:0:0:
256,192,51956,12,8,54173,0:0:0:0:
