osu file format v14

[General]
AudioFilename: audio.mp3
AudioLeadIn: 0
PreviewTime: 36039
Countdown: 0
SampleSet: None
StackLeniency: 0.7
Mode: 0
LetterboxInBreaks: 0
WidescreenStoryboard: 0

[Editor]
DistanceSpacing: 1.2
BeatDivisor: 4
GridSize: 4
TimelineZoom: 1

[Metadata]
Title:Yoru no Kodomo-tachi
TitleUnicode:夜の子供たち
Artist:Roses Epicurean
ArtistUnicode:Roses Epicurean
Creator:Gordon123
Version:Space's Normal
Source:
Tags:Hatsuki Yura 葉月ゆら 闇童話工房 バラエピキュリアン Instrumental Japanese -Space- tutuhara Mortem Pjecoo
BeatmapID:1070112
BeatmapSetID:439731

[Difficulty]
HPDrainRate:4
CircleSize:3.5
OverallDifficulty:4
ApproachRate:5
SliderMultiplier:1.4
SliderTickRate:1

[Events]
//Background and Video events
0,0,"bg.jpg",0,0
//Break Periods
//Storyboard Layer 0 (Background)
//Storyboard Layer 1 (Fail)
//Storyboard Layer 2 (Pass)
//Storyboard Layer 3 (Foreground)
//Storyboard Layer 4 (Overlay)
//Storyboard Sound Samples

[TimingPoints]
696,659.340659340659,4,3,1,5,1,0
2652,521.739130434783,4,3,1,40,1,0
19347,-100,4,3,1,40,0,1
36043,-100,4,3,1,40,0,0
52217,-100,4,3,1,15,0,0

[Colours]
Combo1 : 95,82,108
Combo2 : 84,77,48
Combo3 : 110,24,35
Combo4 : 130,86,111
SliderTrackOverride : 34,28,40
SliderBorder : 229,211,207

[HitObjects]
156,64,2652,6,0,P|116:136|144:200,1,140,2|10,0:2|0:0,0:0:0:0:
200,136,3434,1,0,0:0:0:0:
216,220,3695,2,0,P|168:268|84:264,1,140,2|10,0:2|0:0,0:0:0:0:
200,136,4738,1,2,0:2:0:0:
328,244,5260,2,0,L|408:236,1,70,10|0,0:0|0:0,0:0:0:0:
444,308,5782,2,0,L|295:323,1,140,2|10,0:2|0:0,0:0:0:0:
356,164,6825,5,2,0:2:0:0:
200,100,7347,2,0,L|120:96,1,70,10|0,0:0|0:0,0:0:0:0:
64,152,7869,2,0,P|52:224|80:304,1,140,2|10,0:2|0:0,0:0:0:0:
220,212,8912,1,2,0:2:0:0:
372,284,9434,2,0,L|448:280,1,70,10|0,0:0|0:0,0:0:0:0:
504,224,9956,2,0,P|481:166|438:219,1,140,2|10,0:2|0:0,0:0:0:0:
416,372,10999,5,6,0:0:0:0:
260,304,11521,2,0,L|180:300,1,70,10|0,0:0|0:0,0:0:0:0:
152,224,12043,2,0,L|232:220,1,70,2|0,0:2|0:0,0:0:0:0:
260,144,12565,2,0,L|180:140,1,70,10|0,0:0|0:0,0:0:0:0:
108,140,13086,1,2,0:2:0:0:
256,52,13608,2,0,L|336:56,1,70,10|0,0:0|0:0,0:0:0:0:
388,116,14130,2,0,B|405:152|388:185|388:185|372:218|395:262,1,140,2|10,0:2|0:0,0:0:0:0:
236,316,15173,6,0,L|84:320,1,140,2|10,0:2|0:0,0:0:0:0:
52,248,15956,1,0,0:0:0:0:
92,172,16217,2,0,L|244:168,1,140,2|10,0:2|0:0,0:0:0:0:
276,240,16999,1,0,0:0:0:0:
328,308,17260,2,0,P|416:340|468:300,1,140,2|10,0:2|0:0,0:0:0:0:
396,256,18043,1,0,0:0:0:0:
340,192,18304,2,0,P|404:170|463:204,1,140,2|10,0:2|0:0,0:0:0:0:
332,304,19347,6,0,B|296:292|260:308|260:308|224:324|180:304,1,140,2|10,0:2|0:0,0:0:0:0:
112,164,20391,1,2,0:2:0:0:
152,92,20652,2,0,L|236:88,2,70,0|2|0,0:0|0:2|0:0,0:0:0:0:
68,92,21434,5,2,0:2:0:0:
40,256,21956,2,0,L|44:332,1,70,10|0,0:0|0:0,0:0:0:0:
120,360,22478,2,0,B|188:368|188:368|256:340,1,140,2|2,0:2|0:2,0:0:0:0:
324,292,23260,1,0,0:0:0:0:
324,208,23521,5,2,0:2:0:0:
192,108,24043,1,10,0:0:0:0:
144,176,24304,1,0,0:0:0:0:
108,100,24565,2,0,P|144:40|240:36,1,140,2|2,0:2|0:2,0:0:0:0:
292,44,25347,1,0,0:0:0:0:
360,96,25608,6,0,L|364:180,2,70,2|0|10,0:2|0:0|0:0,0:0:0:0:
428,40,26391,1,0,0:0:0:0:
496,88,26652,2,0,L|500:172,2,70,2|0|2,0:2|0:0|0:2,0:0:0:0:
428,40,27434,1,0,0:0:0:0:
360,96,27695,6,0,B|308:104|308:104|276:92|276:92|204:100,1,140,14|10,0:0|0:0,0:0:0:0:
108,220,28738,2,0,P|96:280|108:316,1,70,2|0,0:2|0:0,0:0:0:0:
168,336,29260,2,0,P|180:276|168:240,1,70,2|0,0:2|0:0,0:0:0:0:
244,216,29782,6,0,B|286:212|286:212|334:224|334:224|382:220,1,140,2|10,0:2|0:0,0:0:0:0:
396,52,30825,2,0,L|296:56,1,70,2|0,0:2|0:0,0:0:0:0:
280,128,31347,2,0,L|180:132,1,70,2|0,0:2|0:0,0:0:0:0:
152,192,31869,6,0,P|124:128|168:60,1,140,2|10,0:2|0:0,0:0:0:0:
236,216,32912,2,0,P|208:260|168:276,1,70,2|0,0:2|0:0,0:0:0:0:
108,260,33434,1,2,0:2:0:0:
56,196,33695,1,0,0:0:0:0:
70,110,33956,6,0,L|210:126,1,140,2|10,0:2|0:0,0:0:0:0:
256,196,34738,1,0,0:0:0:0:
304,264,34999,2,0,L|444:280,1,140,2|10,0:2|0:0,0:0:0:0:
404,120,36043,5,2,0:2:0:0:
260,204,36565,2,0,L|168:192,1,70,10|0,0:0|0:0,0:0:0:0:
148,268,37086,2,0,P|96:272|132:204,1,140,2|10,0:2|0:0,0:0:0:0:
240,308,38130,1,2,0:2:0:0:
380,216,38652,2,0,P|396:168|384:136,1,70,10|0,0:0|0:0,0:0:0:0:
332,92,39173,2,0,P|388:68|464:112,1,140,2|10,0:2|0:0,0:0:0:0:
304,168,40217,5,2,0:2:0:0:
348,328,40738,2,0,L|444:320,1,70,10|0,0:0|0:0,0:0:0:0:
444,244,41260,2,0,L|304:254,1,140,2|10,0:2|0:0,0:0:0:0:
232,104,42304,1,2,0:2:0:0:
96,204,42825,2,0,P|100:272|104:284,1,70,10|0,0:0|0:0,0:0:0:0:
156,336,43347,2,0,B|196:348|224:328|224:328|256:304|296:320,1,140,2|10,0:2|0:0,0:0:0:0:
460,308,44391,6,0,L|468:156,1,140,14|10,0:0|0:0,0:0:0:0:
408,108,45173,1,0,0:0:0:0:
344,164,45434,2,0,P|300:164|264:144,1,70,2|0,0:2|0:0,0:0:0:0:
212,100,45956,2,0,P|179:87|144:89,1,70,10|0,0:0|0:0,0:0:0:0:
76,136,46478,1,2,0:2:0:0:
64,304,46999,2,0,L|140:316,1,70,10|0,0:0|0:0,0:0:0:0:
208,276,47521,2,0,P|221:207|209:139,1,140,2|10,0:2|0:0,0:0:0:0:
145,88,48304,1,0,0:0:0:0:
220,52,48565,6,0,P|272:76|288:104,1,70,2|0,0:2|0:0,0:0:0:0:
324,156,49086,2,0,P|349:179|382:188,1,70,10|0,0:0|0:0,0:0:0:0:
468,188,49608,1,2,0:2:0:0:
424,260,49869,1,0,0:0:0:0:
472,328,50130,2,0,P|432:344|392:336,1,70,10|0,0:0|0:0,0:0:0:0:
332,300,50652,2,0,L|188:308,1,140,2|2,0:2|0:2,0:0:0:0:
136,148,51695,1,10,0:0:0:0:
256,192,51956,12,8,54173,0:0:0:0:
