osu file format v14

[General]
AudioFilename: audio.mp3
AudioLeadIn: 0
PreviewTime: 36039
Countdown: 0
SampleSet: None
StackLeniency: 0.7
Mode: 0
LetterboxInBreaks: 0
WidescreenStoryboard: 0

[Editor]
Bookmarks: 6821
DistanceSpacing: 1.4
BeatDivisor: 4
GridSize: 4
TimelineZoom: 1.7

[Metadata]
Title:Yoru no Kodomo-tachi
TitleUnicode:夜の子供たち
Artist:Roses Epicurean
ArtistUnicode:Roses Epicurean
Creator:Gordon123
Version:Mortem's Nocturnal
Source:
Tags:Hatsuki Yura 葉月ゆら 闇童話工房 バラエピキュリアン Instrumental Japanese -Space- tutuhara Mortem Pjecoo
BeatmapID:1674283
BeatmapSetID:439731

[Difficulty]
HPDrainRate:6.6
CircleSize:5.3
OverallDifficulty:7.3
ApproachRate:8.4
SliderMultiplier:2
SliderTickRate:1

[Events]
//Background and Video events
0,0,"bg.jpg",0,0
//Break Periods
//Storyboard Layer 0 (Background)
//Storyboard Layer 1 (Fail)
//Storyboard Layer 2 (Pass)
//Storyboard Layer 3 (Foreground)
//Storyboard Layer 4 (Overlay)
//Storyboard Sound Samples

[TimingPoints]
696,659.340659340659,4,3,1,15,1,0
1355,-100,4,3,1,20,0,0
2014,-100,4,3,1,25,0,0
2652,521.739130434783,4,3,1,40,1,0
8130,-100,4,3,1,5,0,0
8391,-100,4,3,1,40,0,0
18304,-200,4,3,1,40,0,0
19086,-200,4,3,1,5,0,0
19347,-100,4,3,1,40,0,1
36043,-100,4,3,1,40,0,0
41521,-100,4,3,1,5,0,0
41782,-100,4,3,1,40,0,0
52217,-100,4,3,1,15,0,0

[Colours]
Combo1 : 95,82,108
Combo2 : 84,77,48
Combo3 : 110,24,35
Combo4 : 130,86,111
SliderTrackOverride : 34,28,40
SliderBorder : 229,211,207

[HitObjects]
254,69,696,5,8,0:0:0:0:
41,281,1355,1,8,0:0:0:0:
471,281,2014,1,8,0:0:0:0:
83,49,2652,6,0,P|92:95|74:156,1,100,2|0,0:2|0:0,0:0:0:0:
157,285,3173,2,0,P|148:239|166:178,1,100,10|0,0:0|0:0,0:0:0:0:
246,52,3695,1,2,0:2:0:0:
394,111,3956,1,0,0:0:0:0:
236,139,4217,1,10,0:0:0:0:
89,74,4478,1,0,0:0:0:0:
321,189,4738,6,0,P|370:181|437:197,1,100,2|0,0:2|0:0,0:0:0:0:
302,300,5260,1,10,0:0:0:0:
146,263,5521,1,0,0:0:0:0:
302,300,5782,2,0,P|349:313|418:304,1,100,2|0,0:2|0:0,0:0:0:0:
243,272,6304,2,0,P|195:258|126:267,1,100,10|0,0:0|0:0,0:0:0:0:
391,177,6825,6,0,P|377:129|386:60,1,100,2|0,0:2|0:0,0:0:0:0:
326,230,7347,2,0,P|339:277|330:346,1,100,10|0,0:0|0:0,0:0:0:0:
196,246,7869,2,0,P|139:237|41:253,1,150,2|0,0:2|0:0,0:0:0:0:
105,306,8391,2,0,P|171:306|215:318,1,100,10|0,0:0|0:0,0:0:0:0:
255,58,8912,6,0,P|208:65|129:53,1,100,2|0,0:2|0:0,0:0:0:0:
24,153,9434,1,10,0:0:0:0:
203,313,9695,1,0,0:0:0:0:
303,136,9956,2,0,P|361:134|418:137,1,100,2|0,0:2|0:0,0:0:0:0:
487,272,10478,2,0,P|429:274|372:271,1,100,10|0,0:0|0:0,0:0:0:0:
139,191,10999,6,0,P|68:188|26:194,1,100,6|0,0:0|0:0,0:0:0:0:
159,298,11521,2,0,P|230:301|272:295,1,100,10|0,0:0|0:0,0:0:0:0:
344,161,12043,1,2,0:2:0:0:
463,267,12304,1,0,0:0:0:0:
495,110,12565,1,10,0:0:0:0:
344,161,12825,1,0,0:0:0:0:
152,337,13086,6,0,P|166:281|156:220,1,100,2|0,0:2|0:0,0:0:0:0:
79,101,13608,2,0,P|65:157|75:218,2,100,10|0|2,0:0|0:0|0:2,0:0:0:0:
223,30,14391,1,0,0:0:0:0:
366,101,14652,2,0,P|380:157|370:218,1,100,10|0,0:0|0:0,0:0:0:0:
155,336,15173,5,2,0:2:0:0:
91,272,15434,1,0,0:0:0:0:
154,208,15695,1,10,0:0:0:0:
217,271,15956,1,0,0:0:0:0:
313,169,16217,5,2,0:2:0:0:
412,268,16478,1,0,0:0:0:0:
510,169,16738,1,10,0:0:0:0:
410,69,16999,1,0,0:0:0:0:
261,217,17260,5,2,0:2:0:0:
112,365,17521,1,0,0:0:0:0:
14,178,17782,1,10,0:0:0:0:
163,30,18043,1,0,0:0:0:0:
352,178,18304,6,0,B|327:218|316:253|329:303|329:303|309:285|286:277,1,175,2|0,0:2|0:0,0:0:0:0:
236,232,19347,5,2,0:2:0:0:
85,230,19608,1,0,0:0:0:0:
232,168,19869,1,10,0:0:0:0:
66,126,20130,1,0,0:0:0:0:
223,60,20391,5,2,0:2:0:0:
374,112,20652,1,0,0:0:0:0:
271,221,20912,1,2,0:2:0:0:
401,271,21173,1,0,0:0:0:0:
284,348,21434,5,2,0:2:0:0:
158,248,21695,1,0,0:0:0:0:
322,173,21956,1,10,0:0:0:0:
443,331,22217,1,0,0:0:0:0:
502,139,22478,5,2,0:2:0:0:
331,81,22738,1,0,0:0:0:0:
445,193,22999,1,2,0:2:0:0:
308,225,23260,1,0,0:0:0:0:
224,112,23521,5,2,0:2:0:0:
366,158,23782,1,0,0:0:0:0:
310,308,24043,1,10,0:0:0:0:
477,268,24304,1,0,0:0:0:0:
310,308,24565,5,2,0:2:0:0:
138,272,24826,1,0,0:0:0:0:
241,163,25086,1,2,0:2:0:0:
111,113,25347,1,0,0:0:0:0:
228,36,25608,5,2,0:2:0:0:
354,136,25869,1,0,0:0:0:0:
190,211,26130,1,10,0:0:0:0:
69,53,26391,1,0,0:0:0:0:
96,337,26652,6,0,P|103:282|88:223,1,100,2|0,0:2|0:0,0:0:0:0:
170,40,27173,2,0,P|163:95|178:154,1,100,2|0,0:2|0:0,0:0:0:0:
331,318,27695,5,14,0:0:0:0:
480,237,27956,1,0,0:0:0:0:
361,114,28217,1,10,0:0:0:0:
429,338,28478,1,0,0:0:0:0:
236,233,28738,5,2,0:2:0:0:
469,177,28999,1,0,0:0:0:0:
322,313,29260,1,2,0:2:0:0:
197,180,29521,1,0,0:0:0:0:
43,337,29782,5,2,0:2:0:0:
251,265,30043,1,0,0:0:0:0:
33,233,30304,1,10,0:0:0:0:
240,354,30565,1,0,0:0:0:0:
380,136,30825,5,2,0:2:0:0:
459,352,31086,1,0,0:0:0:0:
499,155,31347,1,2,0:2:0:0:
375,272,31608,1,0,0:0:0:0:
264,170,31869,5,2,0:2:0:0:
103,226,32130,1,0,0:0:0:0:
240,80,32391,1,10,0:0:0:0:
311,298,32652,1,0,0:0:0:0:
436,143,32912,5,2,0:2:0:0:
273,192,33173,1,0,0:0:0:0:
172,94,33434,1,2,0:2:0:0:
80,155,33695,1,0,0:0:0:0:
171,286,33956,5,2,0:2:0:0:
298,344,34217,1,0,0:0:0:0:
402,284,34478,1,10,0:0:0:0:
491,328,34738,1,0,0:0:0:0:
471,240,34999,2,0,B|501:174|474:138|445:97|486:28,1,200,2|10,0:2|0:0,0:0:0:0:
376,301,36043,6,0,P|367:255|385:194,1,100,2|0,0:2|0:0,0:0:0:0:
302,65,36564,2,0,P|311:111|293:172,1,100,10|0,0:0|0:0,0:0:0:0:
266,332,37086,1,2,0:2:0:0:
118,273,37347,1,0,0:0:0:0:
276,245,37608,1,10,0:0:0:0:
423,310,37869,1,0,0:0:0:0:
191,195,38130,6,0,P|142:203|75:187,1,100,2|0,0:2|0:0,0:0:0:0:
210,84,38651,1,10,0:0:0:0:
366,121,38912,1,0,0:0:0:0:
210,84,39173,2,0,P|163:71|94:80,1,100,2|0,0:2|0:0,0:0:0:0:
269,112,39695,2,0,P|317:126|386:117,1,100,10|0,0:0|0:0,0:0:0:0:
121,207,40217,6,0,P|135:255|126:324,1,100,2|0,0:2|0:0,0:0:0:0:
186,154,40738,2,0,P|173:107|182:38,1,100,10|0,0:0|0:0,0:0:0:0:
316,138,41260,2,0,P|373:147|471:131,1,150,2|0,0:2|0:0,0:0:0:0:
499,73,41782,2,0,P|433:73|389:85,1,100,10|0,0:0|0:0,0:0:0:0:
257,326,42304,6,0,P|304:319|383:331,1,100,2|0,0:2|0:0,0:0:0:0:
488,231,42825,1,10,0:0:0:0:
344,163,43086,1,0,0:0:0:0:
209,248,43347,2,0,P|151:250|94:247,1,100,2|0,0:2|0:0,0:0:0:0:
25,112,43869,2,0,P|83:110|140:113,1,100,10|0,0:0|0:0,0:0:0:0:
373,193,44391,6,0,P|444:196|486:190,1,100,14|0,0:0|0:0,0:0:0:0:
353,86,44912,2,0,P|282:83|240:89,1,100,10|0,0:0|0:0,0:0:0:0:
168,223,45434,1,2,0:2:0:0:
49,117,45695,1,0,0:0:0:0:
17,274,45956,1,10,0:0:0:0:
168,223,46216,1,0,0:0:0:0:
360,47,46477,6,0,P|346:103|356:164,1,100,2|0,0:2|0:0,0:0:0:0:
433,283,46999,2,0,P|447:227|437:166,2,100,10|0|2,0:0|0:0|0:2,0:0:0:0:
289,354,47782,1,0,0:0:0:0:
146,283,48043,2,0,P|132:227|142:166,1,100,10|0,0:0|0:0,0:0:0:0:
357,48,48564,5,2,0:2:0:0:
421,112,48825,1,0,0:0:0:0:
358,176,49086,1,10,0:0:0:0:
295,113,49347,1,0,0:0:0:0:
199,215,49608,5,2,0:2:0:0:
100,116,49869,1,0,0:0:0:0:
2,215,50129,1,10,0:0:0:0:
102,315,50390,1,0,0:0:0:0:
251,167,50651,5,2,0:2:0:0:
400,19,50912,1,0,0:0:0:0:
498,206,51173,1,2,0:2:0:0:
349,354,51434,1,0,0:0:0:0:
91,63,51695,5,10,0:0:0:0:
256,192,51825,12,8,54173,0:0:0:0:
