osu file format v14

[General]
AudioFilename: audio.mp3
AudioLeadIn: 0
PreviewTime: 36039
Countdown: 0
SampleSet: None
StackLeniency: 0.7
Mode: 0
LetterboxInBreaks: 0
WidescreenStoryboard: 0

[Editor]
Bookmarks: 6821
DistanceSpacing: 1.2
BeatDivisor: 4
GridSize: 4
TimelineZoom: 1.7

[Metadata]
Title:Yoru no Kodomo-tachi
TitleUnicode:夜の子供たち
Artist:Roses Epicurean
ArtistUnicode:Roses Epicurean
Creator:Gordon123
Version:Collab Hyper
Source:
Tags:Hatsuki Yura 葉月ゆら 闇童話工房 バラエピキュリアン Instrumental Japanese -Space- tutuhara Mortem Pjecoo
BeatmapID:2145933
BeatmapSetID:439731

[Difficulty]
HPDrainRate:6
CircleSize:4.5
OverallDifficulty:6.5
ApproachRate:8
SliderMultiplier:1.8
SliderTickRate:1

[Events]
//Background and Video events
0,0,"bg.jpg",0,0
//Break Periods
//Storyboard Layer 0 (Background)
//Storyboard Layer 1 (Fail)
//Storyboard Layer 2 (Pass)
//Storyboard Layer 3 (Foreground)
//Storyboard Layer 4 (Overlay)
//Storyboard Sound Samples

[TimingPoints]
696,659.340659340659,4,3,1,15,1,0
1355,-100,4,3,1,20,0,0
2014,-100,4,3,1,25,0,0
2652,521.739130434783,4,3,1,40,1,0
8130,-100,4,3,1,5,0,0
8391,-100,4,3,1,40,0,0
19347,-100,4,3,1,40,0,1
36043,-100,4,3,1,40,0,0
41521,-100,4,3,1,5,0,0
41782,-100,4,3,1,40,0,0
52217,-100,4,3,1,15,0,0

[Colours]
Combo1 : 95,82,108
Combo2 : 84,77,48
Combo3 : 110,24,35
Combo4 : 130,86,111
SliderTrackOverride : 34,28,40
SliderBorder : 229,211,207

[HitObjects]
126,50,2652,6,0,L|141:162,1,90,2|0,0:2|0:0,0:0:0:0:
191,233,3173,1,10,0:0:0:0:
145,331,3434,1,0,0:0:0:0:
306,316,3695,1,2,0:2:0:0:
407,353,3956,1,0,0:0:0:0:
318,290,4217,2,0,P|346:246|347:185,1,90,10|0,0:0|0:0,0:0:0:0:
304,53,4738,6,0,P|360:83|401:84,1,90,2|0,0:2|0:0,0:0:0:0:
492,65,5260,1,10,0:0:0:0:
394,111,5521,1,0,0:0:0:0:
386,218,5782,2,0,L|400:322,2,90,2|0|10,0:2|0:0|0:0,0:0:0:0:
285,258,6565,1,0,0:0:0:0:
181,133,6825,6,0,P|187:183|162:246,1,90,2|0,0:2|0:0,0:0:0:0:
109,305,7347,1,10,0:0:0:0:
215,323,7608,1,0,0:0:0:0:
315,363,7869,2,0,B|349:342|349:342|455:326,1,135,2|0,0:2|0:0,0:0:0:0:
496,320,8391,1,10,0:0:0:0:
436,229,8652,1,0,0:0:0:0:
505,82,8912,6,0,P|463:105|410:111,1,90,2|0,0:2|0:0,0:0:0:0:
315,88,9434,2,0,L|334:-15,2,90,10|0|2,0:0|0:0|0:2,0:0:0:0:
238,165,10217,1,0,0:0:0:0:
289,260,10478,1,10,0:0:0:0:
228,348,10738,1,0,0:0:0:0:
98,249,10999,6,0,L|3:263,1,90,6|0,0:0|0:0,0:0:0:0:
71,173,11521,1,10,0:0:0:0:
68,64,11782,1,0,0:0:0:0:
160,119,12043,2,0,P|228:140|272:131,2,90,2|0|10,0:2|0:0|0:0,0:0:0:0:
68,64,12825,1,0,0:0:0:0:
114,219,13086,6,0,L|132:332,1,90,2|0,0:2|0:0,0:0:0:0:
233,283,13608,1,10,0:0:0:0:
323,341,13869,1,0,0:0:0:0:
253,258,14130,2,0,P|270:205|267:152,1,90,2|0,0:2|0:0,0:0:0:0:
164,197,14652,2,0,P|166:152|181:110,1,90,10|0,0:0|0:0,0:0:0:0:
324,33,15173,5,2,0:2:0:0:
421,79,15434,1,0,0:0:0:0:
342,153,15695,1,10,0:0:0:0:
434,286,15956,1,0,0:0:0:0:
339,338,16217,1,2,0:2:0:0:
411,257,16478,1,0,0:0:0:0:
267,182,16738,2,0,L|172:186,1,90,10|0,0:0|0:0,0:0:0:0:
25,126,17260,6,0,P|36:177|27:215,2,90,2|0|10,0:2|0:0|0:0,0:0:0:0:
123,171,18043,1,0,0:0:0:0:
226,139,18304,1,2,0:2:0:0:
291,224,18565,1,0,0:0:0:0:
260,52,18825,1,0,0:0:0:0:
123,171,19086,1,0,0:0:0:0:
57,41,19347,6,0,L|33:137,1,90,2|0,0:2|0:0,0:0:0:0:
92,248,19869,1,10,0:0:0:0:
196,272,20130,1,0,0:0:0:0:
220,168,20391,1,2,0:2:0:0:
92,248,20652,2,0,P|92:308|116:344,1,90,0|2,0:0|0:2,0:0:0:0:
196,272,21173,1,0,0:0:0:0:
144,176,21434,6,0,P|100:160|44:176,2,90,2|0|10,0:2|0:0|0:0,0:0:0:0:
196,272,22217,1,0,0:0:0:0:
256,184,22478,1,2,0:2:0:0:
268,376,22738,1,0,0:0:0:0:
328,288,22999,1,2,0:2:0:0:
392,376,23260,1,0,0:0:0:0:
436,188,23521,6,0,L|428:288,1,90,2|0,0:2|0:0,0:0:0:0:
340,208,24043,2,0,L|332:118,1,90,10|0,0:0|0:0,0:0:0:0:
256,40,24565,1,2,0:2:0:0:
216,140,24825,1,0,0:0:0:0:
144,60,25086,1,2,0:2:0:0:
104,160,25347,1,0,0:0:0:0:
176,240,25608,6,0,P|192:300|176:340,1,90,2|0,0:2|0:0,0:0:0:0:
28,256,26130,2,0,P|62:284|106:291,1,90,10|0,0:0|0:0,0:0:0:0:
168,152,26652,2,0,P|126:167|98:202,1,90,2|0,0:2|0:0,0:0:0:0:
244,192,27173,1,2,0:2:0:0:
184,325,27434,1,0,0:0:0:0:
336,304,27695,6,0,L|384:116,1,180,14|10,0:0|0:0,0:0:0:0:
300,56,28478,1,0,0:0:0:0:
208,112,28738,2,0,P|144:108|108:80,1,90,2|0,0:2|0:0,0:0:0:0:
56,216,29260,2,0,P|120:212|156:184,1,90,2|0,0:2|0:0,0:0:0:0:
204,308,29782,5,2,0:2:0:0:
240,204,30043,1,0,0:0:0:0:
327,269,30304,2,0,P|368:266|409:238,1,90,10|0,0:0|0:0,0:0:0:0:
424,136,30825,2,0,P|379:140|343:166,1,90,2|0,0:2|0:0,0:0:0:0:
509,208,31347,1,2,0:2:0:0:
492,316,31608,1,0,0:0:0:0:
388,292,31869,6,0,L|268:316,1,90,2|0,0:2|0:0,0:0:0:0:
216,240,32391,1,10,0:0:0:0:
320,216,32652,1,0,0:0:0:0:
144,160,32912,1,2,0:2:0:0:
248,136,33173,1,0,0:0:0:0:
216,240,33434,1,2,0:2:0:0:
320,216,33695,1,0,0:0:0:0:
288,328,33956,6,0,P|244:352|184:348,1,90,2|0,0:2|0:0,0:0:0:0:
100,324,34478,1,10,0:0:0:0:
104,216,34738,1,0,0:0:0:0:
204,353,34999,1,2,0:2:0:0:
212,344,35521,1,10,0:0:0:0:
427,334,36043,6,0,P|411:279|415:223,1,90,2|0,0:2|0:0,0:0:0:0:
453,147,36564,1,10,0:0:0:0:
408,48,36825,1,0,0:0:0:0:
254,100,37086,1,2,0:2:0:0:
151,64,37347,1,0,0:0:0:0:
57,117,37608,2,0,L|67:230,1,90,10|0,0:0|0:0,0:0:0:0:
21,362,38130,6,0,P|74:334|124:332,1,90,2|0,0:2|0:0,0:0:0:0:
211,341,38652,1,10,0:0:0:0:
304,288,38912,1,0,0:0:0:0:
397,234,39173,2,0,L|411:338,2,90,2|0|10,0:2|0:0|0:0,0:0:0:0:
308,171,39956,1,0,0:0:0:0:
152,214,40217,6,0,P|159:155|134:103,1,90,2|0,0:2|0:0,0:0:0:0:
74,49,40738,1,10,0:0:0:0:
181,54,40999,1,0,0:0:0:0:
285,28,41260,2,0,B|314:50|314:50|419:69,1,135,2|0,0:2|0:0,0:0:0:0:
464,73,41782,1,10,0:0:0:0:
422,172,42043,1,0,0:0:0:0:
497,314,42304,6,0,L|366:321,1,90,2|0,0:2|0:0,0:0:0:0:
308,275,42825,2,0,P|314:316|300:368,2,90,10|0|2,0:0|0:0|0:2,0:0:0:0:
241,189,43608,1,0,0:0:0:0:
317,113,43869,1,10,0:0:0:0:
225,169,44129,1,0,0:0:0:0:
120,293,44391,6,0,L|25:307,1,90,14|0,0:0|0:0,0:0:0:0:
77,208,44912,1,10,0:0:0:0:
54,102,45173,1,0,0:0:0:0:
157,134,45434,2,0,P|145:90|148:37,2,90,2|0|10,0:2|0:0|0:0,0:0:0:0:
243,199,46217,1,0,0:0:0:0:
387,272,46478,6,0,L|405:385,1,90,2|0,0:2|0:0,0:0:0:0:
508,344,46999,1,10,0:0:0:0:
460,246,47260,1,0,0:0:0:0:
495,144,47521,2,0,P|504:91|492:43,1,90,2|0,0:2|0:0,0:0:0:0:
395,93,48043,2,0,P|386:146|398:194,1,90,10|0,0:0|0:0,0:0:0:0:
312,253,48564,5,2,0:2:0:0:
290,358,48825,1,0,0:0:0:0:
203,293,49086,1,10,0:0:0:0:
47,340,49347,1,0,0:0:0:0:
85,239,49608,1,2,0:2:0:0:
45,138,49869,1,0,0:0:0:0:
191,69,50130,2,0,P|252:93|298:90,1,90,10|0,0:0|0:0,0:0:0:0:
383,85,50652,6,0,L|403:-8,2,90,2|0|2,0:2|0:0|0:2,0:0:0:0:
335,182,51434,1,0,0:0:0:0:
387,276,51695,1,10,0:0:0:0:
256,192,51956,12,8,54173,0:0:0:0:
