osu file format v14

[General]
AudioFilename: audio.mp3
AudioLeadIn: 0
PreviewTime: 36039
Countdown: 0
SampleSet: None
StackLeniency: 0.7
Mode: 0
LetterboxInBreaks: 0
WidescreenStoryboard: 0

[Editor]
Bookmarks: 45952
DistanceSpacing: 1.2
BeatDivisor: 4
GridSize: 4
TimelineZoom: 1

[Metadata]
Title:Yoru no Kodomo-tachi
TitleUnicode:夜の子供たち
Artist:Roses Epicurean
ArtistUnicode:Roses Epicurean
Creator:Gordon123
Version:Advanced
Source:
Tags:Hatsuki Yura 葉月ゆら 闇童話工房 バラエピキュリアン Instrumental Japanese -Space- tutuhara Mortem Pjecoo
BeatmapID:1510019
BeatmapSetID:439731

[Difficulty]
HPDrainRate:5
CircleSize:4.2
OverallDifficulty:6
ApproachRate:6
SliderMultiplier:1.4
SliderTickRate:1

[Events]
//Background and Video events
0,0,"bg.jpg",0,0
//Break Periods
//Storyboard Layer 0 (Background)
//Storyboard Layer 1 (Fail)
//Storyboard Layer 2 (Pass)
//Storyboard Layer 3 (Foreground)
//Storyboard Layer 4 (Overlay)
//Storyboard Sound Samples

[TimingPoints]
696,659.340659340659,4,3,1,5,1,0
2652,521.739130434783,4,3,1,40,1,0
19347,-100,4,3,1,40,0,1
36043,-100,4,3,1,40,0,0
52217,-100,4,3,1,15,0,0

[Colours]
Combo1 : 95,82,108
Combo2 : 84,77,48
Combo3 : 110,24,35
Combo4 : 130,86,111
SliderTrackOverride : 34,28,40
SliderBorder : 229,211,207

[HitObjects]
92,264,2652,6,0,P|124:244|164:232,1,70,2|0,0:2|0:0,0:0:0:0:
236,224,3173,2,0,P|276:224|316:240,1,70,10|0,0:0|0:0,0:0:0:0:
368,288,3695,1,2,0:2:0:0:
436,132,4217,1,10,0:0:0:0:
286,56,4738,6,0,P|252:41|211:42,1,70,2|0,0:2|0:0,0:0:0:0:
135,47,5260,2,0,P|101:56|75:78,1,70,10|0,0:0|0:0,0:0:0:0:
108,156,5782,2,0,L|194:162,1,70,2|0,0:2|0:0,0:0:0:0:
260,136,6304,2,0,L|356:143,1,70,10|0,0:0|0:0,0:0:0:0:
380,208,6825,6,0,L|360:292,1,70,2|0,0:2|0:0,0:0:0:0:
279,280,7347,2,0,L|255:364,1,70,10|0,0:0|0:0,0:0:0:0:
180,376,7869,1,2,0:2:0:0:
56,261,8391,1,10,0:0:0:0:
221,231,8912,6,0,P|254:210|271:163,1,70,2|0,0:2|0:0,0:0:0:0:
191,148,9434,1,10,0:0:0:0:
115,184,9695,1,0,0:0:0:0:
75,110,9956,2,0,P|63:74|75:18,1,70,2|0,0:2|0:0,0:0:0:0:
145,66,10478,2,0,P|161:30|201:2,1,70,10|0,0:0|0:0,0:0:0:0:
226,82,10999,6,0,P|274:102|370:70,1,140,6|10,0:0|0:0,0:0:0:0:
426,128,11782,1,0,0:0:0:0:
419,211,12043,2,0,P|403:245|349:272,1,70,2|0,0:2|0:0,0:0:0:0:
296,280,12565,2,0,L|212:272,1,70,10|0,0:0|0:0,0:0:0:0:
152,308,13086,6,0,B|56:300|56:300|16:320,1,140,2|10,0:2|0:0,0:0:0:0:
8,236,13869,2,0,P|4:196|12:148,2,70,0|2|0,0:0|0:2|0:0,0:0:0:0:
92,224,14652,2,0,L|184:232,1,70,10|0,0:0|0:0,0:0:0:0:
240,260,15173,6,0,P|252:296|248:328,2,70,2|0|10,0:2|0:0|0:0,0:0:0:0:
224,176,15956,1,0,0:0:0:0:
160,120,16217,2,0,P|152:80|160:32,2,70,2|0|10,0:2|0:0|0:0,0:0:0:0:
224,176,16999,1,0,0:0:0:0:
304,152,17260,6,0,L|396:144,1,70,2|0,0:2|0:0,0:0:0:0:
352,228,17782,2,0,L|268:236,1,70,10|0,0:0|0:0,0:0:0:0:
224,296,18304,2,0,P|153:334|85:317,1,140,2|10,0:2|0:0,0:0:0:0:
8,180,19347,6,0,P|38:161|92:163,1,70,2|0,0:2|0:0,0:0:0:0:
136,212,19869,2,0,L|160:300,1,70,10|0,0:0|0:0,0:0:0:0:
240,284,20391,2,0,L|220:212,1,70,2|0,0:2|0:0,0:0:0:0:
252,140,20912,1,2,0:2:0:0:
330,111,21173,1,0,0:0:0:0:
401,155,21434,6,0,P|449:163|485:159,2,70,2|0|10,0:2|0:0|0:0,0:0:0:0:
330,111,22217,1,0,0:0:0:0:
265,57,22478,2,0,L|185:53,1,70,2|0,0:2|0:0,0:0:0:0:
173,134,22999,2,0,L|81:130,1,70,2|0,0:2|0:0,0:0:0:0:
44,192,23521,6,0,P|46:242|126:294,1,140,2|10,0:2|0:0,0:0:0:0:
126,211,24304,1,0,0:0:0:0:
204,236,24565,2,0,P|248:244|292:232,1,70,2|0,0:2|0:0,0:0:0:0:
312,168,25086,2,0,P|276:160|224:172,1,70,2|0,0:2|0:0,0:0:0:0:
160,148,25608,6,0,L|140:56,1,70,2|0,0:2|0:0,0:0:0:0:
76,128,26130,2,0,L|92:208,1,70,10|0,0:0|0:0,0:0:0:0:
124,272,26652,1,2,0:2:0:0:
204,300,26912,1,0,0:0:0:0:
284,276,27173,2,0,L|300:196,1,70,2|0,0:2|0:0,0:0:0:0:
372,164,27695,6,0,P|368:96|296:48,1,140,14|10,0:0|0:0,0:0:0:0:
296,132,28478,1,0,0:0:0:0:
216,152,28738,2,0,L|116:164,1,70,2|0,0:2|0:0,0:0:0:0:
132,244,29260,2,0,L|216:232,1,70,2|0,0:2|0:0,0:0:0:0:
268,288,29782,6,0,P|312:292|348:280,1,70,2|0,0:2|0:0,0:0:0:0:
408,240,30304,2,0,P|432:208|440:168,1,70,10|0,0:0|0:0,0:0:0:0:
404,104,30825,2,0,P|413:55|397:5,2,70,2|0|2,0:2|0:0|0:2,0:0:0:0:
360,176,31608,1,0,0:0:0:0:
282,208,31869,6,0,L|274:292,1,70,2|0,0:2|0:0,0:0:0:0:
191,286,32391,2,0,L|183:370,1,70,10|0,0:0|0:0,0:0:0:0:
101,368,32912,2,0,P|61:368|27:351,2,70,2|0|2,0:2|0:0|0:2,0:0:0:0:
80,286,33695,1,0,0:0:0:0:
48,208,33956,6,0,P|64:144|144:112,1,140,2|10,0:2|0:0,0:0:0:0:
130,195,34738,1,0,0:0:0:0:
206,229,34999,2,0,L|354:233,1,140,2|10,0:2|0:0,0:0:0:0:
488,144,36043,6,0,P|458:110|423:98,1,70,2|0,0:2|0:0,0:0:0:0:
356,128,36565,2,0,P|325:112|303:84,1,70,10|0,0:0|0:0,0:0:0:0:
256,16,37086,1,2,0:2:0:0:
96,64,37608,1,10,0:0:0:0:
84,232,38130,6,0,L|92:320,1,70,2|0,0:2|0:0,0:0:0:0:
160,256,38652,2,0,L|152:176,1,70,10|0,0:0|0:0,0:0:0:0:
208,124,39173,1,2,0:2:0:0:
376,96,39695,1,10,0:0:0:0:
288,240,40217,6,0,P|328:260|376:264,1,70,2|0,0:2|0:0,0:0:0:0:
436,262,40738,2,0,P|480:250|504:222,1,70,10|0,0:0|0:0,0:0:0:0:
434,176,41260,1,2,0:2:0:0:
326,46,41782,1,10,0:0:0:0:
159,25,42304,6,0,P|117:25|71:55,1,70,2|0,0:2|0:0,0:0:0:0:
137,106,42825,1,10,0:0:0:0:
219,120,43086,1,0,0:0:0:0:
191,200,43347,2,0,P|191:244|211:280,1,70,2|0,0:2|0:0,0:0:0:0:
259,328,43869,2,0,P|291:352|339:356,1,70,10|0,0:0|0:0,0:0:0:0:
393,317,44391,6,0,L|413:165,1,140,14|10,0:0|0:0,0:0:0:0:
366,107,45173,1,0,0:0:0:0:
285,132,45434,2,0,P|244:143|188:123,1,70,2|0,0:2|0:0,0:0:0:0:
179,63,45956,2,0,P|212:53|247:58,1,70,10|0,0:0|0:0,0:0:0:0:
329,75,46478,6,0,B|363:107|363:107|461:111,1,140,2|10,0:2|0:0,0:0:0:0:
503,180,47260,2,0,P|507:232|499:264,2,70,0|2|0,0:0|0:2|0:0,0:0:0:0:
418,184,48043,2,0,L|334:184,1,70,10|0,0:0|0:0,0:0:0:0:
294,248,48565,6,0,L|306:332,2,70,2|0|10,0:2|0:0|0:0,0:0:0:0:
216,220,49347,1,0,0:0:0:0:
164,284,49608,2,0,L|180:380,2,70,2|0|10,0:2|0:0|0:0,0:0:0:0:
216,220,50391,1,0,0:0:0:0:
164,152,50652,6,0,P|152:112|164:64,1,70,2|0,0:2|0:0,0:0:0:0:
240,72,51173,2,0,P|252:112|240:160,1,70,2|0,0:2|0:0,0:0:0:0:
216,220,51695,1,10,0:0:0:0:
256,192,51956,12,8,54173,0:0:0:0:
