osu file format v14

[General]
AudioFilename: audio.mp3
AudioLeadIn: 0
PreviewTime: 2658
Countdown: 1
SampleSet: Normal
StackLeniency: 0.7
Mode: 1
LetterboxInBreaks: 0
WidescreenStoryboard: 1

[Editor]
DistanceSpacing: 0.8
BeatDivisor: 4
GridSize: 32
TimelineZoom: 1.1

[Metadata]
Title:Yoru no Kodomo-tachi
TitleUnicode:夜の子供たち
Artist:Roses Epicurean
ArtistUnicode:Roses Epicurean
Creator:Emre1504
Version:Muzukashii
Source:
Tags:dark Hatsuki Yura 葉月ゆら japanese Roses Epicurean instrumental 闇童話工房 バラエピキュリアン
BeatmapID:1978384
BeatmapSetID:947223

[Difficulty]
HPDrainRate:6
CircleSize:5
OverallDifficulty:4
ApproachRate:7
SliderMultiplier:1.4
SliderTickRate:1

[Events]
//Background and Video events
0,0,"owo uwu.jpg",0,50
//Break Periods
//Storyboard Layer 0 (Background)
//Storyboard Layer 1 (Fail)
//Storyboard Layer 2 (Pass)
//Storyboard Layer 3 (Foreground)
//Storyboard Layer 4 (Overlay)
//Storyboard Sound Samples

[TimingPoints]
2658.74436090226,521.739130434783,4,1,0,30,1,0
19354,-100,4,1,0,60,0,1
36050,-100,4,1,0,30,0,0

[HitObjects]
253,194,2658,5,0,0:0:0:0:
253,194,3180,1,0,0:0:0:0:
253,194,3441,1,8,0:0:0:0:
253,194,3702,1,0,0:0:0:0:
253,194,4223,1,8,0:0:0:0:
253,194,4745,1,0,0:0:0:0:
253,194,5267,1,8,0:0:0:0:
253,194,5528,1,0,0:0:0:0:
253,194,5789,1,8,0:0:0:0:
253,194,6832,1,0,0:0:0:0:
253,194,7354,1,8,0:0:0:0:
253,194,7615,1,0,0:0:0:0:
253,194,7876,1,8,0:0:0:0:
253,194,8397,1,0,0:0:0:0:
253,194,8919,1,8,0:0:0:0:
253,194,9441,1,8,0:0:0:0:
253,194,9702,1,0,0:0:0:0:
253,194,9963,1,8,0:0:0:0:
261,194,10223,1,0,0:0:0:0:
257,196,10484,1,8,0:0:0:0:
253,194,10745,1,0,0:0:0:0:
253,194,11006,1,4,0:0:0:0:
253,194,11528,1,8,0:0:0:0:
253,194,12050,1,0,0:0:0:0:
253,194,12310,1,8,0:0:0:0:
253,194,12571,1,0,0:0:0:0:
253,194,12832,1,0,0:0:0:0:
253,194,13093,1,8,0:0:0:0:
248,196,13615,1,8,0:0:0:0:
244,198,13876,1,0,0:0:0:0:
248,196,14137,1,0,0:0:0:0:
253,194,14658,1,8,0:0:0:0:
253,194,14919,1,0,0:0:0:0:
253,194,15180,1,8,0:0:0:0:
253,194,15702,1,0,0:0:0:0:
253,194,16223,1,8,0:0:0:0:
253,194,16484,1,8,0:0:0:0:
253,194,16745,1,0,0:0:0:0:
253,194,17006,1,0,0:0:0:0:
253,194,17267,1,8,0:0:0:0:
253,194,17528,1,0,0:0:0:0:
253,194,17789,1,8,0:0:0:0:
253,194,18050,1,0,0:0:0:0:
253,194,18310,1,0,0:0:0:0:
253,194,19354,1,8,0:0:0:0:
253,194,19615,1,8,0:0:0:0:
253,194,19876,1,0,0:0:0:0:
244,192,20137,1,0,0:0:0:0:
253,194,20397,1,8,0:0:0:0:
253,194,20658,1,8,0:0:0:0:
253,194,20919,1,8,0:0:0:0:
253,194,21441,1,8,0:0:0:0:
253,194,21702,1,0,0:0:0:0:
253,194,21963,1,8,0:0:0:0:
253,194,22223,1,0,0:0:0:0:
253,194,22484,1,0,0:0:0:0:
253,194,22745,1,8,0:0:0:0:
253,194,23006,1,8,0:0:0:0:
253,194,23528,1,8,0:0:0:0:
253,194,23789,1,8,0:0:0:0:
253,194,24050,1,8,0:0:0:0:
247,203,24310,1,0,0:0:0:0:
253,194,24571,1,0,0:0:0:0:
253,194,24832,1,0,0:0:0:0:
253,194,25093,1,8,0:0:0:0:
253,194,25615,1,0,0:0:0:0:
253,194,25876,1,0,0:0:0:0:
253,194,26137,1,8,0:0:0:0:
253,194,26397,1,0,0:0:0:0:
253,194,26658,1,8,0:0:0:0:
253,194,27180,1,0,0:0:0:0:
253,194,27702,1,12,0:0:0:0:
258,194,28223,1,0,0:0:0:0:
253,194,28484,1,0,0:0:0:0:
253,194,28745,1,8,0:0:0:0:
253,194,29006,1,8,0:0:0:0:
253,194,29267,1,8,0:0:0:0:
253,194,29789,1,8,0:0:0:0:
253,194,30050,1,0,0:0:0:0:
253,194,30310,1,8,0:0:0:0:
253,194,30571,1,0,0:0:0:0:
253,194,30832,1,0,0:0:0:0:
253,194,31093,1,8,0:0:0:0:
253,194,31354,1,8,0:0:0:0:
253,194,31876,1,8,0:0:0:0:
253,194,32137,1,0,0:0:0:0:
253,194,32397,1,8,0:0:0:0:
258,192,32658,1,0,0:0:0:0:
253,194,32919,1,8,0:0:0:0:
253,194,33180,1,0,0:0:0:0:
253,194,33441,1,8,0:0:0:0:
253,194,33963,1,8,0:0:0:0:
253,194,34223,1,0,0:0:0:0:
253,194,34484,1,8,0:0:0:0:
253,194,34745,1,0,0:0:0:0:
251,197,35006,1,0,0:0:0:0:
253,194,36050,1,0,0:0:0:0:
253,194,36572,1,0,0:0:0:0:
253,194,36833,1,8,0:0:0:0:
253,194,37094,1,0,0:0:0:0:
253,194,37615,1,8,0:0:0:0:
253,194,38137,1,0,0:0:0:0:
253,194,38659,1,8,0:0:0:0:
253,194,38920,1,0,0:0:0:0:
253,194,39181,1,8,0:0:0:0:
253,194,40224,1,0,0:0:0:0:
253,194,40746,1,8,0:0:0:0:
253,194,41007,1,0,0:0:0:0:
253,194,41268,1,8,0:0:0:0:
253,194,41789,1,0,0:0:0:0:
253,194,42311,1,8,0:0:0:0:
253,194,42833,1,8,0:0:0:0:
253,194,43094,1,0,0:0:0:0:
253,194,43355,1,8,0:0:0:0:
257,196,43876,1,8,0:0:0:0:
253,194,44137,1,0,0:0:0:0:
253,194,44398,1,4,0:0:0:0:
253,194,44920,1,8,0:0:0:0:
253,194,45442,1,0,0:0:0:0:
253,194,45702,1,8,0:0:0:0:
253,194,45963,1,0,0:0:0:0:
253,194,46224,1,0,0:0:0:0:
253,194,46485,1,8,0:0:0:0:
248,196,47007,1,8,0:0:0:0:
244,198,47268,1,0,0:0:0:0:
248,196,47529,1,0,0:0:0:0:
253,194,48050,1,8,0:0:0:0:
253,194,48310,1,0,0:0:0:0:
253,194,48571,1,8,0:0:0:0:
249,200,48832,1,0,0:0:0:0:
249,200,49093,1,0,0:0:0:0:
242,199,49354,1,0,0:0:0:0:
251,197,49615,1,8,0:0:0:0:
251,197,49876,1,0,0:0:0:0:
251,197,50137,1,8,0:0:0:0:
251,197,50658,1,8,0:0:0:0:
251,197,50919,1,0,0:0:0:0:
251,197,51180,1,8,0:0:0:0:
251,197,51441,1,8,0:0:0:0:
251,197,51702,1,0,0:0:0:0:
256,192,52745,12,0,54832,0:0:0:0:
