osu file format v14

[General]
AudioFilename: audio.mp3
AudioLeadIn: 0
PreviewTime: 2658
Countdown: 1
SampleSet: Normal
StackLeniency: 0.7
Mode: 1
LetterboxInBreaks: 0
WidescreenStoryboard: 0

[Editor]
DistanceSpacing: 0.8
BeatDivisor: 1
GridSize: 32
TimelineZoom: 0.6

[Metadata]
Title:Yoru no Kodomo-tachi
TitleUnicode:夜の子供たち
Artist:Roses Epicurean
ArtistUnicode:Roses Epicurean
Creator:Emre1504
Version:Kantan
Source:
Tags:dark Hatsuki Yura 葉月ゆら japanese Roses Epicurean instrumental 闇童話工房 バラエピキュリアン
BeatmapID:1978383
BeatmapSetID:947223

[Difficulty]
HPDrainRate:8
CircleSize:5
OverallDifficulty:3
ApproachRate:4
SliderMultiplier:1.4
SliderTickRate:1

[Events]
//Background and Video events
0,0,"owo uwu.jpg",0,50
//Break Periods
//Storyboard Layer 0 (Background)
//Storyboard Layer 1 (Fail)
//Storyboard Layer 2 (Pass)
//Storyboard Layer 3 (Foreground)
//Storyboard Layer 4 (Overlay)
//Storyboard Sound Samples

[TimingPoints]
2658.74436090226,521.739130434783,4,1,0,30,1,0
19354,-100,4,1,0,60,0,1
36050,-100,4,1,0,30,0,0

[HitObjects]
228,135,2658,5,0,0:0:0:0:
228,135,3702,1,0,0:0:0:0:
228,135,4745,1,0,0:0:0:0:
228,135,5267,1,8,0:0:0:0:
228,135,5789,1,0,0:0:0:0:
213,172,6832,1,0,0:0:0:0:
213,172,7876,1,8,0:0:0:0:
213,172,8919,1,8,0:0:0:0:
213,172,9441,1,8,0:0:0:0:
213,172,9963,1,0,0:0:0:0:
213,172,11006,1,4,0:0:0:0:
213,172,12050,1,8,0:0:0:0:
213,172,12571,1,8,0:0:0:0:
241,187,13093,1,0,0:0:0:0:
241,187,14137,1,0,0:0:0:0:
241,187,14658,1,0,0:0:0:0:
241,187,15180,1,8,0:0:0:0:
241,187,16223,1,8,0:0:0:0:
241,187,16745,1,0,0:0:0:0:
241,187,17267,1,8,0:0:0:0:
241,187,19354,1,8,0:0:0:0:
241,187,20397,1,0,0:0:0:0:
241,187,20919,1,0,0:0:0:0:
241,187,21441,1,8,0:0:0:0:
241,187,22484,1,0,0:0:0:0:
241,187,23006,1,0,0:0:0:0:
241,187,23528,1,8,0:0:0:0:
241,187,24571,1,8,0:0:0:0:
241,187,25615,1,0,0:0:0:0:
241,187,26137,1,0,0:0:0:0:
241,187,26658,1,8,0:0:0:0:
241,187,27180,1,0,0:0:0:0:
241,187,27702,1,12,0:0:0:0:
241,187,28745,1,0,0:0:0:0:
241,187,29267,1,0,0:0:0:0:
241,187,29789,1,8,0:0:0:0:
241,187,30832,1,0,0:0:0:0:
241,187,31354,1,0,0:0:0:0:
241,187,31876,1,8,0:0:0:0:
241,187,32919,1,0,0:0:0:0:
241,187,33441,1,0,0:0:0:0:
241,187,33963,1,8,0:0:0:0:
241,187,36050,1,0,0:0:0:0:
241,187,37093,1,0,0:0:0:0:
241,187,38137,1,0,0:0:0:0:
241,187,38658,1,8,0:0:0:0:
241,187,39180,1,0,0:0:0:0:
241,187,40223,1,0,0:0:0:0:
241,187,41267,1,8,0:0:0:0:
241,187,41789,1,0,0:0:0:0:
241,187,42310,1,8,0:0:0:0:
241,187,42832,1,8,0:0:0:0:
241,187,43354,1,0,0:0:0:0:
241,187,44397,1,4,0:0:0:0:
241,187,45441,1,8,0:0:0:0:
241,187,45963,1,8,0:0:0:0:
241,187,46484,1,0,0:0:0:0:
241,187,47528,1,0,0:0:0:0:
241,187,48050,1,0,0:0:0:0:
241,187,48571,1,8,0:0:0:0:
241,187,49615,1,8,0:0:0:0:
241,187,50658,1,0,0:0:0:0:
241,187,51180,1,8,0:0:0:0:
241,187,51702,1,0,0:0:0:0:
256,192,52745,12,0,54832,0:0:0:0:
