osu file format v14

[General]
AudioFilename: audio.mp3
AudioLeadIn: 0
PreviewTime: 2658
Countdown: 1
SampleSet: Normal
StackLeniency: 0.7
Mode: 1
LetterboxInBreaks: 0
WidescreenStoryboard: 1

[Editor]
DistanceSpacing: 0.8
BeatDivisor: 2
GridSize: 32
TimelineZoom: 0.4

[Metadata]
Title:Yoru no Kodomo-tachi
TitleUnicode:夜の子供たち
Artist:Roses Epicurean
ArtistUnicode:Roses Epicurean
Creator:Emre1504
Version:Futsuu
Source:
Tags:dark Hatsuki Yura 葉月ゆら japanese Roses Epicurean instrumental 闇童話工房 バラエピキュリアン
BeatmapID:1978382
BeatmapSetID:947223

[Difficulty]
HPDrainRate:7
CircleSize:5
OverallDifficulty:3.5
ApproachRate:5
SliderMultiplier:1.4
SliderTickRate:1

[Events]
//Background and Video events
0,0,"owo uwu.jpg",0,50
//Break Periods
//Storyboard Layer 0 (Background)
//Storyboard Layer 1 (Fail)
//Storyboard Layer 2 (Pass)
//Storyboard Layer 3 (Foreground)
//Storyboard Layer 4 (Overlay)
//Storyboard Sound Samples

[TimingPoints]
2658.74436090226,521.739130434783,4,1,0,30,1,0
19354,-100,4,1,0,60,0,1
36050,-100,4,1,0,30,0,0

[HitObjects]
250,190,2658,5,0,0:0:0:0:
250,190,3180,1,0,0:0:0:0:
250,190,3441,1,8,0:0:0:0:
250,190,3702,1,0,0:0:0:0:
250,190,4223,1,8,0:0:0:0:
250,190,4745,1,0,0:0:0:0:
250,190,5267,1,8,0:0:0:0:
250,190,5528,1,0,0:0:0:0:
250,190,5789,1,8,0:0:0:0:
250,190,6832,1,0,0:0:0:0:
250,190,7354,1,8,0:0:0:0:
250,190,7615,1,0,0:0:0:0:
250,190,7876,1,8,0:0:0:0:
250,190,8397,1,0,0:0:0:0:
250,190,8919,1,8,0:0:0:0:
250,190,9441,1,8,0:0:0:0:
250,190,9702,1,0,0:0:0:0:
250,190,9963,1,8,0:0:0:0:
250,190,11006,1,4,0:0:0:0:
250,190,11528,1,8,0:0:0:0:
250,190,12050,1,8,0:0:0:0:
258,190,12310,1,0,0:0:0:0:
250,190,12571,1,8,0:0:0:0:
250,190,12832,1,0,0:0:0:0:
250,190,13093,1,0,0:0:0:0:
250,190,13615,1,8,0:0:0:0:
250,190,13876,1,0,0:0:0:0:
250,190,14137,1,0,0:0:0:0:
250,190,15180,1,0,0:0:0:0:
250,190,15702,1,8,0:0:0:0:
250,190,16223,1,8,0:0:0:0:
250,190,16484,1,0,0:0:0:0:
250,190,16745,1,8,0:0:0:0:
250,190,17267,1,8,0:0:0:0:
250,190,17528,1,0,0:0:0:0:
250,190,17789,1,8,0:0:0:0:
250,190,18050,1,0,0:0:0:0:
250,190,18310,1,8,0:0:0:0:
250,190,19354,1,8,0:0:0:0:
250,190,19876,1,0,0:0:0:0:
250,190,20397,1,0,0:0:0:0:
250,190,20658,1,0,0:0:0:0:
250,190,20919,1,8,0:0:0:0:
250,190,21441,1,8,0:0:0:0:
250,190,21963,1,0,0:0:0:0:
250,190,22484,1,0,0:0:0:0:
250,190,22745,1,0,0:0:0:0:
250,190,23006,1,8,0:0:0:0:
250,190,23528,1,8,0:0:0:0:
250,190,24050,1,0,0:0:0:0:
250,190,24571,1,0,0:0:0:0:
250,190,24832,1,8,0:0:0:0:
250,190,25093,1,0,0:0:0:0:
250,190,25615,1,8,0:0:0:0:
250,190,26137,1,0,0:0:0:0:
250,190,26658,1,8,0:0:0:0:
250,190,26919,1,0,0:0:0:0:
250,190,27180,1,8,0:0:0:0:
250,190,27441,1,8,0:0:0:0:
250,190,27702,1,12,0:0:0:0:
250,190,28745,1,8,0:0:0:0:
250,190,29006,1,0,0:0:0:0:
250,190,29267,1,8,0:0:0:0:
250,190,29789,1,8,0:0:0:0:
250,190,30310,1,0,0:0:0:0:
250,190,30832,1,8,0:0:0:0:
250,190,31093,1,0,0:0:0:0:
250,190,31354,1,8,0:0:0:0:
250,190,31876,1,8,0:0:0:0:
250,190,32397,1,0,0:0:0:0:
250,190,32919,1,0,0:0:0:0:
250,190,33180,1,0,0:0:0:0:
250,190,33441,1,8,0:0:0:0:
250,190,33963,1,8,0:0:0:0:
250,190,34223,1,0,0:0:0:0:
250,190,34484,1,8,0:0:0:0:
250,190,34745,1,0,0:0:0:0:
250,190,35006,1,0,0:0:0:0:
250,190,36050,1,0,0:0:0:0:
250,190,36572,1,0,0:0:0:0:
250,190,36833,1,8,0:0:0:0:
250,190,37094,1,0,0:0:0:0:
250,190,37615,1,8,0:0:0:0:
250,190,38137,1,0,0:0:0:0:
250,190,38659,1,8,0:0:0:0:
250,190,38920,1,0,0:0:0:0:
250,190,39181,1,8,0:0:0:0:
250,190,40224,1,0,0:0:0:0:
250,190,40745,1,8,0:0:0:0:
250,190,41006,1,0,0:0:0:0:
250,190,41267,1,8,0:0:0:0:
250,190,41789,1,0,0:0:0:0:
250,190,42310,1,8,0:0:0:0:
250,190,42833,1,8,0:0:0:0:
250,190,43094,1,0,0:0:0:0:
250,190,43355,1,8,0:0:0:0:
250,190,44397,1,4,0:0:0:0:
250,190,44919,1,8,0:0:0:0:
250,190,45441,1,8,0:0:0:0:
255,191,45702,1,0,0:0:0:0:
250,190,45962,1,8,0:0:0:0:
254,192,46223,1,0,0:0:0:0:
250,190,46484,1,0,0:0:0:0:
250,190,47006,1,8,0:0:0:0:
250,190,47267,1,0,0:0:0:0:
250,190,47528,1,0,0:0:0:0:
250,190,48571,1,0,0:0:0:0:
250,190,49093,1,8,0:0:0:0:
250,190,49615,1,0,0:0:0:0:
250,190,49876,1,8,0:0:0:0:
250,190,50137,1,0,0:0:0:0:
250,190,50658,1,8,0:0:0:0:
250,190,50919,1,0,0:0:0:0:
250,190,51180,1,8,0:0:0:0:
250,190,51441,1,0,0:0:0:0:
250,190,51702,1,0,0:0:0:0:
256,192,52745,12,8,54832,0:0:0:0:
