osu file format v14

[General]
AudioFilename: audio.mp3
AudioLeadIn: 0
PreviewTime: 2850
Countdown: 0
SampleSet: Soft
StackLeniency: 0.7
Mode: 2
LetterboxInBreaks: 0
WidescreenStoryboard: 0

[Editor]
DistanceSpacing: 1.3
BeatDivisor: 4
GridSize: 8
TimelineZoom: 1

[Metadata]
Title:Nightmare -Overture-
TitleUnicode:Nightmare -Overture-
Artist:Roses Epicurean
ArtistUnicode:Roses Epicurean
Creator:- Magic Bomb -
Version:Salad
Source:
Tags:MBomb Naitomea -jokyoku- Yami no Kodomo Tachi 闇童話工房 キラ星ひかる Kiraboshi Hikaru 葉月ゆら Hatsuki Yura ZiRoX
BeatmapID:988432
BeatmapSetID:461525

[Difficulty]
HPDrainRate:5
CircleSize:3
OverallDifficulty:6.5
ApproachRate:6.5
SliderMultiplier:1.6
SliderTickRate:2

[Events]
//Background and Video events
0,0,"rsz_nightmare.jpg",0,0
//Break Periods
//Storyboard Layer 0 (Background)
//Storyboard Layer 1 (Fail)
//Storyboard Layer 2 (Pass)
//Storyboard Layer 3 (Foreground)
//Storyboard Sound Samples

[TimingPoints]
2850,521.739130434783,4,2,1,50,1,0
19545,-100,4,2,1,50,0,1
36241,-100,4,2,1,50,0,0
52415,-100,4,2,1,40,0,0
52936,-100,4,2,1,35,0,0
53458,-100,4,2,1,30,0,0
53980,-100,4,2,1,25,0,0
54502,-100,4,2,1,20,0,0
55023,-100,4,2,1,15,0,0
55545,-100,4,2,1,10,0,0

[Colours]
Combo1 : 128,64,64
Combo2 : 128,0,0
Combo3 : 255,128,191

[HitObjects]
192,192,2850,6,0,P|112:144|152:104,1,160,2|8,0:0|0:0,0:0:0:0:
224,192,3632,1,0,0:0:0:0:
352,192,3893,2,0,L|168:192,1,160,2|8,0:0|0:0,0:0:0:0:
384,192,4936,6,0,P|456:144|392:88,1,160,2|8,0:0|0:0,0:0:0:0:
320,192,5719,1,0,0:0:0:0:
416,192,5980,2,0,L|248:192,1,160,2|8,0:0|0:0,0:0:0:0:
48,192,7023,6,0,L|208:192,1,160,2|8,0:0|0:0,0:0:0:0:
104,192,7806,1,0,0:0:0:0:
216,192,8067,2,0,L|384:192,1,160,2|8,0:0|0:0,0:0:0:0:
16,192,9110,5,2,0:0:0:0:
256,192,9632,1,8,0:0:0:0:
208,192,9893,1,0,0:0:0:0:
432,192,10154,2,0,P|496:136|448:96,1,160,2|8,0:0|0:0,0:0:0:0:
80,192,11197,6,0,P|16:144|80:104,1,160,6|8,0:0|0:0,0:0:0:0:
152,192,11980,1,0,0:0:0:0:
272,192,12241,2,0,B|352:192|352:192|272:192,1,160,2|8,0:0|0:0,0:0:0:0:
440,192,13284,6,0,L|264:192,1,160,2|8,0:0|0:0,0:0:0:0:
168,192,14067,1,0,0:0:0:0:
280,192,14328,2,0,P|224:152|136:192,1,160,2|8,0:0|0:0,0:0:0:0:
328,192,15371,6,0,L|408:192,1,80,2|0,0:0|0:0,0:0:0:0:
184,192,15893,2,0,L|88:192,1,80,8|0,0:0|0:0,0:0:0:0:
216,192,16415,1,2,0:0:0:0:
336,192,16676,1,0,0:0:0:0:
232,192,16936,1,8,0:0:0:0:
312,192,17197,1,0,0:0:0:0:
176,192,17458,6,0,L|264:192,2,80,2|0|8,0:0|0:0|0:0,0:0:0:0:
56,192,18241,1,0,0:0:0:0:
280,192,18502,2,0,P|400:128|408:96,1,160,2|8,0:0|0:0,0:0:0:0:
40,192,19545,6,0,L|120:160,1,80,2|0,0:0|0:0,0:0:0:0:
224,192,20067,2,0,L|144:160,1,80,8|0,0:0|0:0,0:0:0:0:
272,192,20589,2,0,L|184:192,1,80,2|0,0:0|0:0,0:0:0:0:
304,192,21110,2,0,L|384:192,1,80,8|0,0:0|0:0,0:0:0:0:
152,192,21632,6,0,L|80:144,1,80,2|0,0:0|0:0,0:0:0:0:
192,192,22154,1,8,0:0:0:0:
272,192,22415,1,0,0:0:0:0:
160,192,22676,1,2,0:0:0:0:
224,192,22936,1,0,0:0:0:0:
336,192,23197,2,0,L|416:192,1,80,8|0,0:0|0:0,0:0:0:0:
192,192,23719,6,0,L|96:192,1,80,2|0,0:0|0:0,0:0:0:0:
16,192,24241,2,0,L|96:192,1,80,8|0,0:0|0:0,0:0:0:0:
200,192,24763,2,0,L|128:144,1,80,2|0,0:0|0:0,0:0:0:0:
232,192,25284,2,0,L|136:192,1,80,8|0,0:0|0:0,0:0:0:0:
256,192,25806,6,0,L|328:152,1,80,2|0,0:0|0:0,0:0:0:0:
432,192,26328,2,0,L|344:192,1,80,8|0,0:0|0:0,0:0:0:0:
128,192,26850,1,2,0:0:0:0:
240,192,27110,1,0,0:0:0:0:
456,192,27371,2,0,L|376:168,1,80,8|0,0:0|0:0,0:0:0:0:
152,192,27893,6,0,L|64:192,1,80,6|0,0:0|0:0,0:0:0:0:
192,192,28415,2,0,L|272:152,1,80,8|0,0:0|0:0,0:0:0:0:
144,192,28936,2,0,L|240:192,1,80,2|0,0:0|0:0,0:0:0:0:
320,192,29458,2,0,L|232:144,1,80,8|0,0:0|0:0,0:0:0:0:
472,192,29980,6,0,L|392:160,1,80,2|0,0:0|0:0,0:0:0:0:
504,192,30502,2,0,L|416:192,1,80,8|0,0:0|0:0,0:0:0:0:
304,192,31023,1,2,0:0:0:0:
368,136,31284,1,0,0:0:0:0:
256,192,31545,1,8,0:0:0:0:
336,192,31806,1,0,0:0:0:0:
112,192,32067,6,0,P|72:152|56:128,1,80,2|0,0:0|0:0,0:0:0:0:
152,192,32589,2,0,L|224:144,1,80,8|0,0:0|0:0,0:0:0:0:
320,192,33110,2,0,P|272:144|256:144,1,80,2|0,0:0|0:0,0:0:0:0:
368,192,33632,2,0,L|456:192,1,80,8|0,0:0|0:0,0:0:0:0:
336,192,34154,6,0,L|264:152,1,80,2|0,0:0|0:0,0:0:0:0:
160,192,34676,2,0,L|240:192,1,80,8|0,0:0|0:0,0:0:0:0:
24,192,35197,2,0,B|32:152|28:118|152:112,1,160,2|8,0:0|0:0,0:0:0:0:
488,192,36241,6,0,P|400:120|352:120,1,160,2|8,0:0|0:0,0:0:0:0:
464,192,37023,1,0,0:0:0:0:
352,192,37284,2,0,L|168:192,1,160,2|8,0:0|0:0,0:0:0:0:
384,192,38328,5,2,0:0:0:0:
200,192,38850,1,8,0:0:0:0:
304,192,39110,1,0,0:0:0:0:
424,192,39371,2,0,P|456:160|376:120,1,160,2|8,0:0|0:0,0:0:0:0:
136,192,40415,6,0,L|320:192,1,160,2|8,0:0|0:0,0:0:0:0:
168,192,41197,1,0,0:0:0:0:
56,192,41458,2,0,P|64:136|176:136,1,160,2|8,0:0|0:0,0:0:0:0:
504,192,42502,5,2,0:0:0:0:
272,192,43023,1,8,0:0:0:0:
168,192,43284,1,0,0:0:0:0:
360,192,43545,2,0,P|440:152|392:80,1,160,2|8,0:0|0:0,0:0:0:0:
56,192,44589,6,0,P|112:152|208:192,1,160,6|8,0:0|0:0,0:0:0:0:
96,192,45371,1,0,0:0:0:0:
200,192,45632,2,0,L|40:192,1,160,2|8,0:0|0:0,0:0:0:0:
232,192,46676,6,0,P|304:128|264:88,1,160,2|8,0:0|0:0,0:0:0:0:
176,192,47458,1,0,0:0:0:0:
72,192,47719,2,0,L|240:192,1,160,2|8,0:0|0:0,0:0:0:0:
464,192,48763,5,2,0:0:0:0:
384,192,49023,1,0,0:0:0:0:
176,192,49284,2,0,L|256:144,1,80,8|0,0:0|0:0,0:0:0:0:
128,192,49806,1,2,0:0:0:0:
240,192,50067,1,0,0:0:0:0:
352,192,50328,2,0,L|248:152,1,80,8|0,0:0|0:0,0:0:0:0:
368,192,50850,6,0,L|464:192,2,80,2|0|8,0:0|0:0|0:0,0:0:0:0:
264,192,51632,1,0,0:0:0:0:
56,192,51893,1,4,0:0:0:0:
256,192,52415,12,0,55545,0:0:0:0:
