osu file format v14

[General]
AudioFilename: audio.mp3
AudioLeadIn: 0
PreviewTime: 63817
Countdown: 0
SampleSet: Soft
StackLeniency: 0.7
Mode: 3
LetterboxInBreaks: 0
SpecialStyle: 0
WidescreenStoryboard: 1

[Editor]
Bookmarks: 20202,30048,39894,49740
DistanceSpacing: 2.2
BeatDivisor: 4
GridSize: 16
TimelineZoom: 1.8

[Metadata]
Title:ZEAL of proud
TitleUnicode:ZEAL of proud
Artist:Roselia
ArtistUnicode:Roselia
Creator:FerdiXIA-
Version:Ayase's Hard
Source:バンドリ! ガールズバンドパーティ!
Tags:ERA Zoomi Forthnos SuzumeAyase 11th single Bangdream! BanG Dream! Girls Band Party! Bandori Garupa ガルパ ロゼリア カードファイト!! ヴァンガード Cardfight!! Vanguard overDress 湊友希那 Minato Yukina 相羽あいな Aiba Aina 宇田川あこ Udagawa Ako 櫻川めぐ Sakuragawa Megu 白金燐子 Shirokane Rinko 志崎樺音 Shizaki Kanon 氷川紗夜 Hikawa Sayo 工藤晴香 Kudou Haruka 今井リサ Imai Lisa 中島由貴 Nakashima Yuki 織田あすか Oda Asuka Elements Garden pop jpop j-pop anime video game japanese
BeatmapID:3387958
BeatmapSetID:1649795

[Difficulty]
HPDrainRate:8
CircleSize:4
OverallDifficulty:8
ApproachRate:5
SliderMultiplier:1.4
SliderTickRate:1

[Events]
//Background and Video events
0,0,"roselia.jpg",0,0
//Break Periods
//Storyboard Layer 0 (Background)
//Storyboard Layer 1 (Fail)
//Storyboard Layer 2 (Pass)
//Storyboard Layer 3 (Foreground)
//Storyboard Layer 4 (Overlay)
//Storyboard Sound Samples

[TimingPoints]
510,307.692307692308,4,2,1,70,1,0
64356,-100,4,2,1,70,0,1
82971,-100,4,2,1,70,0,0

[HitObjects]
64,192,510,5,0,0:0:0:0:
448,192,510,1,0,0:0:0:0:
192,192,663,1,0,0:0:0:0:
320,192,817,1,0,0:0:0:0:
64,192,971,1,0,0:0:0:0:
448,192,971,1,0,0:0:0:0:
192,192,1125,1,0,0:0:0:0:
320,192,1279,1,0,0:0:0:0:
64,192,1586,1,0,0:0:0:0:
192,192,1740,1,0,0:0:0:0:
448,192,1894,1,0,0:0:0:0:
320,192,2048,1,0,0:0:0:0:
192,192,2202,1,0,0:0:0:0:
64,192,2356,1,0,0:0:0:0:
320,192,2510,1,0,0:0:0:0:
192,192,2663,1,0,0:0:0:0:
448,192,2817,1,0,0:0:0:0:
320,192,2894,1,0,0:0:0:0:
64,192,2971,1,0,0:0:0:0:
192,192,3125,1,0,0:0:0:0:
320,192,3279,1,0,0:0:0:0:
448,192,3279,128,0,4971:0:0:0:0:
64,192,3433,1,0,0:0:0:0:
192,192,3586,1,0,0:0:0:0:
320,192,3740,1,0,0:0:0:0:
192,192,3894,1,0,0:0:0:0:
64,192,4048,1,0,0:0:0:0:
320,192,4202,1,0,0:0:0:0:
192,192,4356,1,0,0:0:0:0:
64,192,4510,1,0,0:0:0:0:
192,192,4663,1,0,0:0:0:0:
320,192,4817,1,0,0:0:0:0:
64,192,4971,1,0,0:0:0:70:KICK 2.wav
192,192,5048,1,0,0:0:0:70:KICK 2.wav
320,192,5125,1,8,0:0:0:0:
448,192,5125,1,0,0:0:0:0:
64,192,5433,1,2,0:0:0:0:
448,192,5433,1,4,0:0:0:0:
320,192,5586,1,0,0:0:0:0:
64,192,5740,1,8,0:0:0:0:
192,192,5740,1,0,0:0:0:0:
320,192,5894,128,0,6356:0:0:0:0:
64,192,6048,1,2,0:0:0:0:
448,192,6048,1,0,0:0:0:0:
192,192,6356,1,8,0:0:0:0:
448,192,6356,1,0,0:0:0:0:
448,192,6510,1,0,0:0:0:0:
64,192,6663,1,2,0:0:0:0:
192,192,6663,1,0,0:0:0:0:
64,192,6817,128,0,7279:0:0:0:0:
320,192,6971,1,8,0:0:0:0:
448,192,6971,1,0,0:0:0:0:
192,192,7279,1,2,0:0:0:0:
320,192,7279,1,0,0:0:0:0:
192,192,7433,1,0,0:0:0:0:
320,192,7586,1,8,0:0:0:0:
448,192,7586,1,0,0:0:0:0:
448,192,7740,1,0,0:0:0:0:
64,192,7894,1,2,0:0:0:0:
192,192,7894,1,0,0:0:0:0:
64,192,8048,1,0,0:0:0:0:
192,192,8202,1,8,0:0:0:0:
448,192,8202,1,0,0:0:0:0:
448,192,8356,128,0,8663:0:0:0:0:
64,192,8510,1,2,0:0:0:0:
320,192,8510,1,0,0:0:0:0:
320,192,8663,1,0,0:0:0:0:
64,192,8817,1,8,0:0:0:0:
192,192,8817,1,0,0:0:0:0:
64,192,8971,1,0,0:0:0:0:
320,192,9125,1,2,0:0:0:0:
448,192,9125,1,0,0:0:0:0:
320,192,9279,128,0,9740:0:0:0:0:
64,192,9433,1,8,0:0:0:0:
192,192,9433,1,0,0:0:0:0:
64,192,9740,1,2,0:0:0:0:
448,192,9740,1,0,0:0:0:0:
192,192,9894,1,8,0:0:0:0:
320,192,9971,1,8,0:0:0:0:
64,192,10048,1,8,0:0:0:0:
448,192,10048,1,0,0:0:0:0:
192,192,10125,1,8,0:0:0:0:
320,192,10202,1,8,0:0:0:0:
448,192,10279,1,8,0:0:0:0:
64,192,10356,1,2,0:0:0:0:
192,192,10356,1,4,0:0:0:0:
320,192,10510,1,0,0:0:0:0:
64,192,10663,1,8,0:0:0:0:
448,192,10663,1,0,0:0:0:0:
192,192,10817,128,0,11279:0:0:0:0:
320,192,10971,1,2,0:0:0:0:
448,192,10971,1,0,0:0:0:0:
64,192,11279,1,8,0:0:0:0:
320,192,11279,1,0,0:0:0:0:
64,192,11433,1,0,0:0:0:0:
192,192,11586,1,2,0:0:0:0:
448,192,11586,1,0,0:0:0:0:
448,192,11740,128,0,12202:0:0:0:0:
64,192,11894,1,8,0:0:0:0:
320,192,11894,1,0,0:0:0:0:
64,192,12202,1,2,0:0:0:0:
192,192,12202,1,0,0:0:0:0:
64,192,12356,1,0,0:0:0:0:
192,192,12510,1,8,0:0:0:0:
320,192,12510,1,0,0:0:0:0:
320,192,12663,1,0,0:0:0:0:
192,192,12817,1,2,0:0:0:0:
448,192,12817,1,0,0:0:0:0:
448,192,12971,1,0,0:0:0:0:
64,192,13125,1,8,0:0:0:0:
320,192,13125,1,0,0:0:0:0:
64,192,13279,128,0,13586:0:0:0:0:
192,192,13433,1,2,0:0:0:0:
448,192,13433,1,0,0:0:0:0:
192,192,13586,1,0,0:0:0:0:
320,192,13740,1,8,0:0:0:0:
448,192,13740,1,0,0:0:0:0:
448,192,13894,1,0,0:0:0:0:
64,192,14048,1,8,0:0:0:0:
192,192,14048,1,4,0:0:0:0:
320,192,14202,1,2,0:0:0:0:
448,192,14202,1,0,0:0:0:0:
64,192,14356,1,8,0:0:0:0:
448,192,14356,1,4,0:0:0:0:
64,192,14510,1,8,0:0:0:0:
448,192,14510,1,4,0:0:0:0:
64,192,14663,1,2,0:0:0:0:
192,192,14663,1,0,0:0:0:0:
320,192,14817,1,8,0:0:0:0:
448,192,14817,1,0,0:0:0:0:
64,192,14971,1,0,0:0:0:70:KICK 2.wav
448,192,14971,1,0,0:0:0:0:
192,192,15048,1,0,0:0:0:70:KICK 2.wav
320,192,15125,1,0,0:0:0:70:KICK 2.wav
448,192,15202,1,0,0:0:0:70:KICK 2.wav
64,192,15279,128,2,15740:0:0:0:0:
192,192,15279,1,0,0:0:0:0:
320,192,15586,1,2,0:0:0:0:
448,192,15586,1,0,0:0:0:0:
192,192,15740,128,0,16202:0:0:0:0:
320,192,15894,1,2,0:0:0:0:
448,192,15894,1,0,0:0:0:0:
64,192,16202,1,2,0:0:0:0:
320,192,16202,128,0,16663:0:0:0:0:
64,192,16510,1,2,0:0:0:0:
192,192,16510,1,0,0:0:0:0:
448,192,16663,128,0,17125:0:0:0:0:
192,192,16817,1,2,0:0:0:0:
320,192,16817,1,0,0:0:0:0:
64,192,17125,128,2,17433:0:0:0:0:
320,192,17125,1,0,0:0:0:0:
192,192,17433,128,2,17740:0:0:0:0:
448,192,17433,1,0,0:0:0:0:
320,192,17740,1,2,0:0:0:0:
448,192,17740,128,0,18202:0:0:0:0:
64,192,18048,1,2,0:0:0:0:
192,192,18048,1,0,0:0:0:0:
320,192,18202,128,0,18663:0:0:0:0:
64,192,18356,1,2,0:0:0:0:
192,192,18356,1,0,0:0:0:0:
64,192,18663,128,2,19894:0:0:0:0:
448,192,18663,1,0,0:0:0:0:
192,192,18971,1,2,0:0:0:0:
448,192,18971,1,0,0:0:0:0:
192,192,19279,1,2,0:0:0:0:
320,192,19279,1,0,0:0:0:0:
320,192,19586,1,2,0:0:0:0:
448,192,19586,1,0,0:0:0:0:
192,192,19740,1,0,0:0:0:0:
320,192,19817,1,0,0:0:0:0:
192,192,19894,1,2,0:0:0:0:
448,192,19894,1,0,0:0:0:0:
320,192,20048,1,0,0:0:0:0:
192,192,20125,1,0,0:0:0:0:
64,192,20202,1,2,0:0:0:0:
448,192,20202,1,4,0:0:0:0:
192,192,20510,1,8,0:0:0:0:
320,192,20510,1,0,0:0:0:0:
192,192,20817,1,2,0:0:0:0:
448,192,20817,1,0,0:0:0:0:
320,192,20971,1,0,0:0:0:0:
64,192,21125,1,2,0:0:0:0:
192,192,21125,1,0,0:0:0:0:
320,192,21279,1,8,0:0:0:0:
448,192,21279,1,0,0:0:0:0:
64,192,21433,1,2,0:0:0:0:
448,192,21433,1,0,0:0:0:0:
320,192,21586,1,0,0:0:0:0:
64,192,21740,1,8,0:0:0:0:
192,192,21740,1,0,0:0:0:0:
320,192,21894,1,0,0:0:0:0:
192,192,22048,1,2,0:0:0:0:
448,192,22048,1,0,0:0:0:0:
64,192,22202,1,0,0:0:0:0:
320,192,22356,1,8,0:0:0:0:
448,192,22356,1,0,0:0:0:0:
64,192,22510,1,8,0:0:0:0:
192,192,22586,1,8,0:0:0:0:
320,192,22663,1,2,0:0:0:0:
448,192,22663,1,0,0:0:0:0:
64,192,22817,1,0,0:0:0:0:
192,192,22971,1,8,0:0:0:0:
320,192,22971,1,0,0:0:0:0:
448,192,23125,1,0,0:0:0:0:
64,192,23279,1,2,0:0:0:0:
192,192,23279,1,0,0:0:0:0:
320,192,23433,1,0,0:0:0:0:
192,192,23586,1,2,0:0:0:0:
448,192,23586,1,0,0:0:0:0:
64,192,23740,1,8,0:0:0:0:
320,192,23740,1,0,0:0:0:0:
64,192,23894,1,2,0:0:0:0:
448,192,23894,1,0,0:0:0:0:
192,192,24048,1,0,0:0:0:0:
320,192,24202,1,8,0:0:0:0:
448,192,24202,1,0,0:0:0:0:
192,192,24356,1,0,0:0:0:0:
64,192,24510,1,2,0:0:0:0:
320,192,24510,1,0,0:0:0:0:
448,192,24663,1,0,0:0:0:0:
64,192,24817,1,8,0:0:0:0:
192,192,24817,1,0,0:0:0:0:
448,192,24971,1,8,0:0:0:0:
320,192,25048,1,8,0:0:0:0:
64,192,25125,1,4,0:0:0:0:
192,192,25125,1,2,0:0:0:0:
320,192,25279,1,0,0:0:0:0:
64,192,25433,128,8,25740:0:0:0:0:
448,192,25433,1,0,0:0:0:0:
192,192,25586,1,0,0:0:0:0:
320,192,25740,1,2,0:0:0:0:
448,192,25740,128,0,25894:0:0:0:0:
192,192,25894,128,0,26048:0:0:0:0:
64,192,26048,1,2,0:0:0:0:
320,192,26048,128,0,26202:0:0:0:0:
64,192,26202,128,8,26356:0:0:0:0:
192,192,26356,1,2,0:0:0:0:
448,192,26356,128,0,26663:0:0:0:0:
64,192,26663,1,8,0:0:0:0:
320,192,26663,1,0,0:0:0:0:
192,192,26817,128,0,26971:0:0:0:0:
64,192,26971,1,2,0:0:0:0:
448,192,26971,1,0,0:0:0:0:
320,192,27125,128,0,27279:0:0:0:0:
192,192,27279,1,8,0:0:0:0:
448,192,27279,1,0,0:0:0:0:
64,192,27433,1,8,0:0:0:0:
192,192,27510,1,8,0:0:0:0:
320,192,27586,1,2,0:0:0:0:
448,192,27586,1,0,0:0:0:0:
192,192,27740,1,0,0:0:0:0:
64,192,27894,1,8,0:0:0:0:
448,192,27894,128,0,28202:0:0:0:0:
64,192,28202,128,2,28356:0:0:0:0:
192,192,28202,1,0,0:0:0:0:
320,192,28356,128,0,28510:0:0:0:0:
192,192,28510,128,2,28663:0:0:0:0:
448,192,28510,1,0,0:0:0:0:
64,192,28663,1,8,0:0:0:0:
448,192,28663,128,0,28817:0:0:0:0:
64,192,28817,128,2,29125:0:0:0:0:
320,192,28817,1,0,0:0:0:0:
192,192,29125,1,8,0:0:0:0:
448,192,29125,1,4,0:0:0:0:
320,192,29279,128,0,29433:0:0:0:0:
64,192,29433,1,2,0:0:0:0:
448,192,29433,1,0,0:0:0:0:
192,192,29586,1,8,0:0:0:0:
320,192,29663,1,8,0:0:0:0:
64,192,29740,1,8,0:0:0:0:
448,192,29740,1,0,0:0:0:0:
192,192,29817,1,8,0:0:0:0:
320,192,29894,1,8,0:0:0:0:
192,192,29971,1,8,0:0:0:0:
64,192,30048,1,2,0:0:0:0:
448,192,30048,1,4,0:0:0:0:
192,192,30202,1,0,0:0:0:0:
320,192,30356,1,8,0:0:0:0:
448,192,30356,128,0,30663:0:0:0:0:
64,192,30663,1,2,0:0:0:0:
192,192,30663,1,0,0:0:0:0:
320,192,30817,1,0,0:0:0:0:
64,192,30971,1,2,0:0:0:0:
448,192,30971,1,0,0:0:0:0:
192,192,31125,1,8,0:0:0:0:
320,192,31125,1,0,0:0:0:0:
64,192,31279,1,2,0:0:0:0:
448,192,31279,1,0,0:0:0:0:
192,192,31433,1,0,0:0:0:0:
320,192,31586,1,8,0:0:0:0:
448,192,31586,128,0,31740:0:0:0:0:
64,192,31740,128,0,32048:0:0:0:0:
192,192,31894,1,2,0:0:0:0:
320,192,31894,1,0,0:0:0:0:
448,192,32048,128,0,32202:0:0:0:0:
64,192,32202,1,8,0:0:0:0:
192,192,32202,1,0,0:0:0:0:
320,192,32356,1,8,0:0:0:0:
192,192,32433,1,8,0:0:0:0:
64,192,32510,1,2,0:0:0:0:
448,192,32510,1,0,0:0:0:0:
448,192,32663,1,0,0:0:0:0:
192,192,32817,128,8,33125:0:0:0:0:
320,192,32817,1,0,0:0:0:0:
64,192,33125,1,2,0:0:0:0:
448,192,33125,1,0,0:0:0:0:
320,192,33279,1,0,0:0:0:0:
64,192,33433,1,2,0:0:0:0:
192,192,33433,1,0,0:0:0:0:
320,192,33586,1,8,0:0:0:0:
448,192,33586,1,0,0:0:0:0:
64,192,33740,1,2,0:0:0:0:
192,192,33740,1,0,0:0:0:0:
320,192,33894,1,0,0:0:0:0:
64,192,34048,128,8,34202:0:0:0:0:
448,192,34048,1,0,0:0:0:0:
192,192,34202,128,0,34356:0:0:0:0:
320,192,34356,1,2,0:0:0:0:
448,192,34356,1,0,0:0:0:0:
64,192,34510,1,8,0:0:0:0:
192,192,34510,1,0,0:0:0:0:
320,192,34586,1,0,0:0:0:70:KICK 2.wav
448,192,34663,1,0,0:0:0:70:KICK 2.wav
192,192,34740,1,0,0:0:0:70:KICK 2.wav
64,192,34817,1,0,0:0:0:70:KICK 2.wav
320,192,34894,1,0,0:0:0:70:KICK 2.wav
192,192,34971,1,2,0:0:0:0:
448,192,34971,1,4,0:0:0:0:
64,192,35125,1,0,0:0:0:0:
192,192,35279,1,8,0:0:0:0:
320,192,35279,128,4,35433:0:0:0:0:
448,192,35433,128,0,35894:0:0:0:0:
64,192,35586,1,2,0:0:0:0:
192,192,35586,1,0,0:0:0:0:
64,192,35894,128,2,36048:0:0:0:0:
320,192,35894,1,0,0:0:0:0:
192,192,36048,1,8,0:0:0:0:
448,192,36048,128,0,36510:0:0:0:0:
64,192,36202,1,2,0:0:0:0:
320,192,36202,1,0,0:0:0:0:
64,192,36510,1,8,0:0:0:0:
192,192,36510,1,4,0:0:0:0:
64,192,36663,1,0,0:0:0:0:
320,192,36817,1,2,0:0:0:0:
448,192,36817,1,0,0:0:0:0:
448,192,36971,1,0,0:0:0:0:
64,192,37125,1,8,0:0:0:0:
192,192,37125,1,0,0:0:0:0:
320,192,37279,1,8,0:0:0:0:
192,192,37356,1,8,0:0:0:0:
64,192,37433,1,2,0:0:0:0:
448,192,37433,1,0,0:0:0:0:
320,192,37586,1,0,0:0:0:0:
192,192,37740,1,8,0:0:0:0:
448,192,37740,1,4,0:0:0:0:
64,192,37894,1,0,0:0:0:0:
192,192,38048,1,8,0:0:0:0:
320,192,38048,1,4,0:0:0:0:
448,192,38202,1,0,0:0:0:0:
64,192,38356,1,2,0:0:0:0:
192,192,38356,1,0,0:0:0:0:
320,192,38510,1,8,0:0:0:0:
448,192,38510,1,0,0:0:0:0:
64,192,38663,128,2,39279:0:0:0:0:
448,192,38663,1,0,0:0:0:0:
192,192,38817,1,0,0:0:0:0:
320,192,38971,1,8,0:0:0:0:
448,192,38971,1,4,0:0:0:0:
192,192,39125,1,0,0:0:0:0:
320,192,39279,1,8,0:0:0:0:
448,192,39279,1,0,0:0:0:0:
192,192,39356,1,8,0:0:0:0:
64,192,39433,1,8,0:0:0:0:
448,192,39510,1,8,0:0:0:0:
320,192,39586,1,0,0:0:0:70:KICK 2.wav
192,192,39663,1,0,0:0:0:70:KICK 2.wav
320,192,39740,1,0,0:0:0:70:KICK 2.wav
192,192,39817,1,0,0:0:0:70:KICK 2.wav
64,192,39894,1,2,0:0:0:0:
448,192,39894,1,4,0:0:0:0:
64,192,40202,1,2,0:0:0:0:
320,192,40202,1,0,0:0:0:0:
64,192,40356,1,0,0:0:0:0:
192,192,40510,1,2,0:0:0:0:
448,192,40510,1,0,0:0:0:0:
448,192,40663,1,0,0:0:0:0:
192,192,40817,1,2,0:0:0:0:
320,192,40817,1,0,0:0:0:0:
192,192,40971,1,0,0:0:0:0:
64,192,41125,1,2,0:0:0:0:
320,192,41125,1,0,0:0:0:0:
64,192,41279,1,0,0:0:0:0:
192,192,41433,1,2,0:0:0:0:
448,192,41433,1,0,0:0:0:0:
448,192,41586,1,0,0:0:0:0:
192,192,41740,1,2,0:0:0:0:
320,192,41740,1,0,0:0:0:0:
192,192,41894,1,0,0:0:0:0:
64,192,42048,1,2,0:0:0:0:
320,192,42048,1,0,0:0:0:0:
192,192,42202,1,0,0:0:0:0:
64,192,42356,1,2,0:0:0:0:
448,192,42356,1,4,0:0:0:0:
192,192,42663,1,2,0:0:0:0:
448,192,42663,1,0,0:0:0:0:
448,192,42817,1,0,0:0:0:0:
64,192,42971,1,2,0:0:0:0:
320,192,42971,1,0,0:0:0:0:
64,192,43125,1,0,0:0:0:0:
192,192,43279,1,2,0:0:0:0:
320,192,43279,1,0,0:0:0:0:
320,192,43433,1,0,0:0:0:0:
192,192,43586,1,2,0:0:0:0:
448,192,43586,1,0,0:0:0:0:
448,192,43740,1,0,0:0:0:0:
64,192,43894,1,2,0:0:0:0:
320,192,43894,1,0,0:0:0:0:
64,192,44048,1,0,0:0:0:0:
192,192,44202,1,2,0:0:0:0:
320,192,44202,1,0,0:0:0:0:
320,192,44356,1,0,0:0:0:0:
192,192,44510,1,2,0:0:0:0:
448,192,44510,1,0,0:0:0:0:
320,192,44663,1,0,0:0:0:0:
64,192,44817,1,2,0:0:0:0:
448,192,44817,1,4,0:0:0:0:
64,192,45125,1,2,0:0:0:0:
192,192,45125,1,0,0:0:0:0:
64,192,45279,1,0,0:0:0:0:
320,192,45433,1,2,0:0:0:0:
448,192,45433,1,0,0:0:0:0:
448,192,45586,1,0,0:0:0:0:
64,192,45740,1,2,0:0:0:0:
320,192,45740,1,0,0:0:0:0:
320,192,45894,1,0,0:0:0:0:
64,192,46048,1,2,0:0:0:0:
192,192,46048,1,0,0:0:0:0:
64,192,46202,1,0,0:0:0:0:
320,192,46356,1,2,0:0:0:0:
448,192,46356,1,0,0:0:0:0:
448,192,46510,1,0,0:0:0:0:
64,192,46663,1,2,0:0:0:0:
320,192,46663,1,0,0:0:0:0:
320,192,46817,1,0,0:0:0:0:
64,192,46971,1,2,0:0:0:0:
192,192,46971,1,0,0:0:0:0:
320,192,47125,1,0,0:0:0:0:
64,192,47279,1,2,0:0:0:0:
448,192,47279,1,4,0:0:0:0:
320,192,47586,1,2,0:0:0:0:
448,192,47586,1,0,0:0:0:0:
448,192,47740,1,0,0:0:0:0:
64,192,47894,1,2,0:0:0:0:
192,192,47894,1,0,0:0:0:0:
64,192,48048,1,0,0:0:0:0:
192,192,48202,1,2,0:0:0:0:
448,192,48202,1,0,0:0:0:0:
192,192,48356,1,0,0:0:0:0:
320,192,48510,1,2,0:0:0:0:
448,192,48510,1,0,0:0:0:0:
448,192,48663,1,0,0:0:0:0:
64,192,48817,1,2,0:0:0:0:
192,192,48817,1,0,0:0:0:0:
64,192,48971,1,8,0:0:0:0:
192,192,49048,1,8,0:0:0:0:
320,192,49125,1,8,0:0:0:0:
448,192,49125,1,0,0:0:0:0:
64,192,49279,1,8,0:0:0:0:
448,192,49279,1,0,0:0:0:0:
64,192,49433,1,2,0:0:0:0:
192,192,49433,1,0,0:0:0:0:
320,192,49586,1,2,0:0:0:0:
448,192,49586,1,0,0:0:0:0:
64,192,49740,1,2,0:0:0:0:
448,192,49740,1,4,0:0:0:0:
192,192,50048,1,8,0:0:0:0:
320,192,50048,1,0,0:0:0:0:
64,192,50202,1,0,0:0:0:0:
192,192,50279,1,0,0:0:0:70:KICK 2.wav
320,192,50356,1,0,0:0:0:70:KICK 2.wav
448,192,50356,1,0,0:0:0:0:
192,192,50510,1,0,0:0:0:0:
64,192,50663,1,2,0:0:0:0:
448,192,50663,1,0,0:0:0:0:
192,192,50817,1,8,0:0:0:0:
320,192,50817,1,0,0:0:0:0:
64,192,50971,1,2,0:0:0:0:
448,192,50971,1,0,0:0:0:0:
320,192,51125,1,0,0:0:0:0:
64,192,51279,1,8,0:0:0:0:
192,192,51279,1,0,0:0:0:0:
448,192,51433,1,0,0:0:0:0:
64,192,51586,1,2,0:0:0:0:
320,192,51586,1,0,0:0:0:0:
192,192,51740,1,0,0:0:0:0:
64,192,51894,1,8,0:0:0:0:
448,192,51894,1,0,0:0:0:0:
320,192,52048,1,0,0:0:0:0:
192,192,52125,1,0,0:0:0:70:KICK 2.wav
64,192,52202,1,4,0:0:0:0:
448,192,52202,1,2,0:0:0:0:
192,192,52510,1,8,0:0:0:0:
320,192,52510,1,0,0:0:0:0:
448,192,52663,1,0,0:0:0:0:
320,192,52740,1,0,0:0:0:70:KICK 2.wav
64,192,52817,1,0,0:0:0:70:KICK 2.wav
192,192,52817,1,0,0:0:0:0:
320,192,52971,1,0,0:0:0:0:
64,192,53125,1,2,0:0:0:0:
448,192,53125,1,0,0:0:0:0:
192,192,53279,1,8,0:0:0:0:
320,192,53279,1,0,0:0:0:0:
64,192,53433,1,2,0:0:0:0:
448,192,53433,1,0,0:0:0:0:
192,192,53586,1,0,0:0:0:0:
320,192,53740,1,8,0:0:0:0:
448,192,53740,1,0,0:0:0:0:
64,192,53894,1,0,0:0:0:0:
192,192,53971,1,0,0:0:0:70:KICK 2.wav
320,192,54048,1,0,0:0:0:70:KICK 2.wav
448,192,54048,1,0,0:0:0:0:
64,192,54202,1,2,0:0:0:0:
192,192,54202,1,0,0:0:0:0:
64,192,54356,1,0,0:0:0:70:KICK 2.wav
448,192,54356,1,0,0:0:0:0:
320,192,54510,1,0,0:0:0:0:
64,192,54663,1,2,0:0:0:0:
448,192,54663,1,4,0:0:0:0:
192,192,54971,1,8,0:0:0:0:
320,192,54971,1,0,0:0:0:0:
448,192,55125,1,0,0:0:0:0:
320,192,55202,1,0,0:0:0:70:KICK 2.wav
64,192,55279,1,0,0:0:0:70:KICK 2.wav
192,192,55279,1,0,0:0:0:0:
320,192,55433,1,0,0:0:0:0:
448,192,55586,128,0,56202:0:0:0:0:
64,192,55740,1,8,0:0:0:0:
192,192,55740,1,0,0:0:0:0:
320,192,55894,1,2,0:0:0:0:
64,192,56202,128,8,56510:0:0:0:0:
192,192,56202,1,0,0:0:0:0:
320,192,56510,128,2,56817:0:0:0:0:
448,192,56510,1,0,0:0:0:0:
64,192,56817,1,8,0:0:0:0:
192,192,56817,128,0,57433:0:0:0:0:
448,192,56971,1,0,0:0:0:70:KICK 2.wav
320,192,57048,1,0,0:0:0:70:KICK 2.wav
64,192,57125,1,4,0:0:0:0:
448,192,57125,1,2,0:0:0:0:
64,192,57433,128,2,57740:0:0:0:0:
320,192,57433,1,0,0:0:0:0:
192,192,57663,1,0,0:0:0:70:KICK 2.wav
320,192,57740,1,0,0:0:0:70:KICK 2.wav
448,192,57740,128,0,58048:0:0:0:0:
64,192,58048,1,2,0:0:0:0:
192,192,58048,1,0,0:0:0:0:
320,192,58202,1,8,0:0:0:0:
448,192,58202,1,0,0:0:0:0:
64,192,58356,1,2,0:0:0:0:
192,192,58356,1,0,0:0:0:0:
320,192,58510,1,2,0:0:0:0:
448,192,58510,1,0,0:0:0:0:
64,192,58663,1,8,0:0:0:0:
448,192,58663,1,4,0:0:0:0:
64,192,58971,1,2,0:0:0:0:
192,192,58971,1,0,0:0:0:0:
320,192,59125,1,8,0:0:0:0:
192,192,59202,1,8,0:0:0:0:
64,192,59279,1,8,0:0:0:0:
448,192,59279,1,0,0:0:0:0:
320,192,59356,1,8,0:0:0:0:
192,192,59433,1,8,0:0:0:0:
64,192,59510,1,8,0:0:0:0:
320,192,59586,1,2,0:0:0:0:
448,192,59586,1,4,0:0:0:0:
448,192,59740,1,0,0:0:0:0:
64,192,59894,1,8,0:0:0:0:
192,192,59894,1,0,0:0:0:0:
64,192,60048,1,0,0:0:0:0:
320,192,60202,1,2,0:0:0:0:
448,192,60202,1,0,0:0:0:0:
192,192,60356,1,0,0:0:0:0:
64,192,60510,1,8,0:0:0:0:
448,192,60510,1,0,0:0:0:0:
320,192,60663,1,0,0:0:0:0:
64,192,60817,1,2,0:0:0:0:
192,192,60817,1,4,0:0:0:0:
64,192,60971,1,0,0:0:0:0:
320,192,61125,1,8,0:0:0:0:
448,192,61125,1,0,0:0:0:0:
448,192,61279,1,0,0:0:0:0:
64,192,61433,1,2,0:0:0:0:
192,192,61433,1,0,0:0:0:0:
320,192,61586,1,8,0:0:0:0:
192,192,61663,1,8,0:0:0:0:
64,192,61740,1,8,0:0:0:0:
448,192,61740,1,0,0:0:0:0:
320,192,61817,1,8,0:0:0:0:
192,192,61894,1,8,0:0:0:0:
64,192,61971,1,8,0:0:0:0:
320,192,62048,1,0,0:0:0:0:
448,192,62048,128,0,63279:0:0:0:0:
64,192,63279,1,8,0:0:0:0:
192,192,63279,1,0,0:0:0:0:
320,192,63356,1,8,0:0:0:0:
64,192,63433,1,8,0:0:0:0:
192,192,63510,1,8,0:0:0:0:
320,192,63586,1,0,0:0:0:70:KICK 2.wav
448,192,63586,1,0,0:0:0:0:
192,192,63663,1,0,0:0:0:70:KICK 2.wav
448,192,63740,1,0,0:0:0:70:KICK 2.wav
320,192,63817,1,0,0:0:0:70:KICK 2.wav
64,192,63894,1,2,0:0:0:0:
192,192,63894,1,8,0:0:0:0:
320,192,64048,1,2,0:0:0:0:
448,192,64048,1,8,0:0:0:0:
64,192,64356,128,2,64663:0:0:0:0:
192,192,64356,1,4,0:0:0:0:
448,192,64356,1,0,0:0:0:0:
320,192,64663,1,2,0:0:0:0:
448,192,64663,1,0,0:0:0:0:
64,192,64817,1,8,0:0:0:0:
192,192,64817,128,0,64971:0:0:0:0:
320,192,64971,128,0,65125:0:0:0:0:
64,192,65125,1,2,0:0:0:0:
448,192,65125,1,0,0:0:0:0:
192,192,65279,128,0,65586:0:0:0:0:
64,192,65433,1,8,0:0:0:0:
448,192,65433,1,0,0:0:0:0:
320,192,65586,128,0,65894:0:0:0:0:
192,192,65740,1,2,0:0:0:0:
448,192,65740,1,0,0:0:0:0:
64,192,65894,128,0,66048:0:0:0:0:
192,192,66048,1,8,0:0:0:0:
448,192,66048,128,0,66356:0:0:0:0:
320,192,66202,1,0,0:0:0:0:
64,192,66356,1,2,0:0:0:0:
192,192,66356,1,0,0:0:0:0:
320,192,66510,1,0,0:0:0:0:
64,192,66663,128,8,66817:0:0:0:0:
448,192,66663,1,0,0:0:0:0:
192,192,66817,128,8,67279:0:0:0:0:
320,192,66894,1,8,0:0:0:0:
64,192,66971,1,2,0:0:0:0:
448,192,66971,1,0,0:0:0:0:
320,192,67279,1,8,0:0:0:0:
448,192,67279,128,0,67433:0:0:0:0:
64,192,67433,128,0,67740:0:0:0:0:
192,192,67586,1,2,0:0:0:0:
320,192,67586,1,0,0:0:0:0:
448,192,67740,128,0,68048:0:0:0:0:
64,192,67894,1,8,0:0:0:0:
192,192,67894,1,0,0:0:0:0:
320,192,68048,128,0,68202:0:0:0:0:
64,192,68202,1,2,0:0:0:0:
192,192,68202,1,0,0:0:0:0:
448,192,68356,1,0,0:0:0:0:
192,192,68510,1,8,0:0:0:0:
448,192,68510,1,0,0:0:0:0:
192,192,68663,128,0,68817:0:0:0:0:
64,192,68817,1,2,0:0:0:0:
320,192,68817,1,0,0:0:0:0:
64,192,68971,1,8,0:0:0:0:
448,192,68971,1,0,0:0:0:0:
192,192,69048,1,8,0:0:0:0:
320,192,69125,1,8,0:0:0:0:
448,192,69125,1,0,0:0:0:0:
64,192,69279,128,2,69586:0:0:0:0:
192,192,69279,1,4,0:0:0:0:
320,192,69279,1,0,0:0:0:0:
320,192,69586,1,2,0:0:0:0:
448,192,69586,1,0,0:0:0:0:
64,192,69740,1,8,0:0:0:0:
192,192,69740,1,0,0:0:0:0:
192,192,69894,1,2,0:0:0:0:
320,192,70048,1,8,0:0:0:0:
448,192,70048,1,0,0:0:0:0:
320,192,70202,1,2,0:0:0:0:
64,192,70356,1,8,0:0:0:0:
192,192,70356,1,0,0:0:0:0:
64,192,70510,1,2,0:0:0:0:
320,192,70663,1,8,0:0:0:0:
448,192,70663,1,0,0:0:0:0:
448,192,70817,1,2,0:0:0:0:
64,192,70971,1,8,0:0:0:0:
192,192,70971,1,0,0:0:0:0:
192,192,71125,1,2,0:0:0:0:
320,192,71279,1,8,0:0:0:0:
448,192,71279,1,0,0:0:0:0:
64,192,71433,1,8,0:0:0:0:
192,192,71510,1,8,0:0:0:0:
320,192,71586,1,8,0:0:0:0:
448,192,71586,1,0,0:0:0:0:
192,192,71663,1,8,0:0:0:0:
64,192,71740,1,2,0:0:0:0:
320,192,71740,1,4,0:0:0:0:
448,192,71740,128,0,72048:0:0:0:0:
192,192,72048,1,0,0:0:0:70:KICK 2.wav
320,192,72125,1,0,0:0:0:70:KICK 2.wav
64,192,72202,1,8,0:0:0:0:
192,192,72202,1,0,0:0:0:0:
320,192,72356,1,2,0:0:0:0:
448,192,72356,1,0,0:0:0:0:
64,192,72510,1,8,0:0:0:0:
448,192,72510,1,0,0:0:0:0:
64,192,72663,1,2,0:0:0:0:
192,192,72663,1,0,0:0:0:0:
320,192,72817,1,8,0:0:0:0:
448,192,72817,1,0,0:0:0:0:
64,192,72971,128,8,73279:0:0:0:0:
192,192,72971,1,4,0:0:0:0:
448,192,72971,1,0,0:0:0:0:
320,192,73279,1,8,0:0:0:0:
192,192,73356,1,8,0:0:0:0:
64,192,73433,1,8,0:0:0:0:
448,192,73433,1,0,0:0:0:0:
320,192,73510,1,8,0:0:0:0:
192,192,73586,1,0,0:0:0:70:KICK 2.wav
64,192,73663,1,0,0:0:0:70:KICK 2.wav
320,192,73740,1,8,0:0:0:0:
448,192,73740,1,0,0:0:0:0:
64,192,73817,1,8,0:0:0:0:
192,192,73894,1,8,0:0:0:0:
320,192,73971,1,8,0:0:0:0:
64,192,74048,1,8,0:0:0:0:
448,192,74048,1,0,0:0:0:0:
192,192,74125,1,8,0:0:0:0:
64,192,74202,1,2,0:0:0:0:
320,192,74202,1,4,0:0:0:0:
448,192,74202,128,0,74510:0:0:0:0:
64,192,74510,1,2,0:0:0:0:
192,192,74510,1,0,0:0:0:0:
320,192,74663,128,8,74817:0:0:0:0:
448,192,74663,1,4,0:0:0:0:
192,192,74817,128,0,74971:0:0:0:0:
64,192,74971,1,2,0:0:0:0:
448,192,74971,1,0,0:0:0:0:
320,192,75125,128,0,75433:0:0:0:0:
64,192,75279,1,8,0:0:0:0:
448,192,75279,1,0,0:0:0:0:
192,192,75433,128,0,75740:0:0:0:0:
64,192,75586,1,2,0:0:0:0:
320,192,75586,1,0,0:0:0:0:
448,192,75740,128,0,75894:0:0:0:0:
64,192,75894,128,8,76202:0:0:0:0:
320,192,75894,1,0,0:0:0:0:
192,192,76048,1,0,0:0:0:0:
320,192,76202,1,2,0:0:0:0:
448,192,76202,1,0,0:0:0:0:
192,192,76356,1,0,0:0:0:0:
64,192,76510,1,8,0:0:0:0:
448,192,76510,128,0,76663:0:0:0:0:
320,192,76663,128,8,77125:0:0:0:0:
192,192,76740,1,8,0:0:0:0:
64,192,76817,1,2,0:0:0:0:
448,192,76817,1,0,0:0:0:0:
64,192,77125,128,8,77279:0:0:0:0:
192,192,77125,1,0,0:0:0:0:
448,192,77279,128,0,77586:0:0:0:0:
192,192,77433,1,2,0:0:0:0:
320,192,77433,1,0,0:0:0:0:
64,192,77586,128,0,77894:0:0:0:0:
320,192,77740,1,8,0:0:0:0:
448,192,77740,1,0,0:0:0:0:
192,192,77894,128,0,78048:0:0:0:0:
320,192,78048,1,2,0:0:0:0:
448,192,78048,1,0,0:0:0:0:
448,192,78202,128,2,78356:0:0:0:0:
64,192,78356,1,8,0:0:0:0:
192,192,78356,1,4,0:0:0:0:
64,192,78510,128,2,78663:0:0:0:0:
320,192,78663,1,8,0:0:0:0:
448,192,78663,1,0,0:0:0:0:
192,192,78740,1,8,0:0:0:0:
448,192,78817,1,0,0:0:0:70:KICK 2.wav
320,192,78894,1,0,0:0:0:70:KICK 2.wav
64,192,78971,1,0,0:0:0:70:KICK 2.wav
192,192,78971,1,0,0:0:0:0:
320,192,79048,1,0,0:0:0:70:KICK 2.wav
448,192,79125,1,0,0:0:0:70:KICK 2.wav
192,192,79202,1,0,0:0:0:70:KICK 2.wav
64,192,79279,1,8,0:0:0:0:
320,192,79279,1,4,0:0:0:0:
448,192,79279,1,0,0:0:0:0:
192,192,79433,1,2,0:0:0:0:
320,192,79586,1,2,0:0:0:0:
64,192,79740,1,8,0:0:0:0:
192,192,79740,1,4,0:0:0:0:
448,192,79740,1,0,0:0:0:0:
320,192,79894,1,2,0:0:0:0:
192,192,80048,1,2,0:0:0:0:
64,192,80202,1,8,0:0:0:0:
320,192,80202,1,4,0:0:0:0:
448,192,80202,1,0,0:0:0:0:
192,192,80356,1,2,0:0:0:0:
320,192,80510,1,2,0:0:0:0:
64,192,80663,1,8,0:0:0:0:
192,192,80663,1,4,0:0:0:0:
448,192,80663,1,0,0:0:0:0:
320,192,80817,1,2,0:0:0:0:
192,192,80971,1,2,0:0:0:0:
64,192,81125,1,8,0:0:0:0:
320,192,81125,1,4,0:0:0:0:
448,192,81125,1,0,0:0:0:0:
448,192,81279,1,2,0:0:0:0:
64,192,81433,1,8,0:0:0:0:
192,192,81433,1,4,0:0:0:0:
320,192,81433,1,0,0:0:0:0:
64,192,81586,1,2,0:0:0:0:
192,192,81740,1,8,0:0:0:0:
448,192,81740,1,0,0:0:0:0:
320,192,81817,1,8,0:0:0:0:
64,192,81894,1,0,0:0:0:70:KICK 2.wav
192,192,81971,1,0,0:0:0:70:KICK 2.wav
320,192,82048,1,0,0:0:0:70:KICK 2.wav
448,192,82125,1,0,0:0:0:70:KICK 2.wav
64,192,82202,1,8,0:0:0:0:
192,192,82202,1,0,0:0:0:0:
320,192,82279,1,8,0:0:0:0:
448,192,82356,1,0,0:0:0:70:KICK 2.wav
192,192,82433,1,0,0:0:0:70:KICK 2.wav
320,192,82510,1,0,0:0:0:70:KICK 2.wav
64,192,82586,1,0,0:0:0:70:KICK 2.wav
192,192,82663,1,8,0:0:0:0:
320,192,82663,1,0,0:0:0:0:
448,192,82740,1,8,0:0:0:0:
64,192,82817,1,8,0:0:0:0:
320,192,82894,1,8,0:0:0:0:
64,192,82971,128,0,83125:0:0:0:0:
192,192,82971,1,0,0:0:0:0:
320,192,83125,128,0,83433:0:0:0:0:
192,192,83433,128,0,83740:0:0:0:0:
448,192,83740,1,0,0:0:0:70:KICK 2.wav
320,192,83817,1,0,0:0:0:70:KICK 2.wav
64,192,83894,128,8,84202:0:0:0:0:
192,192,83894,1,0,0:0:0:0:
320,192,84202,1,2,0:0:0:0:
448,192,84202,1,4,0:0:0:0:
448,192,84356,1,0,0:0:0:0:
64,192,84510,1,8,0:0:0:0:
192,192,84510,1,0,0:0:0:0:
64,192,84663,1,0,0:0:0:0:
320,192,84817,1,2,0:0:0:0:
448,192,84817,1,0,0:0:0:0:
320,192,84971,1,0,0:0:0:0:
64,192,85125,1,8,0:0:0:0:
192,192,85125,1,0,0:0:0:0:
192,192,85279,128,0,85433:0:0:0:0:
320,192,85433,1,2,0:0:0:0:
448,192,85433,1,0,0:0:0:0:
448,192,85586,128,0,85740:0:0:0:0:
64,192,85740,1,8,0:0:0:0:
192,192,85740,1,0,0:0:0:0:
64,192,85894,128,0,86048:0:0:0:0:
320,192,86048,1,2,0:0:0:0:
448,192,86048,1,0,0:0:0:0:
320,192,86202,128,0,86356:0:0:0:0:
64,192,86356,1,8,0:0:0:0:
192,192,86356,1,0,0:0:0:0:
192,192,86510,128,0,86663:0:0:0:0:
64,192,86663,1,2,0:0:0:0:
448,192,86663,1,0,0:0:0:0:
448,192,86817,1,0,0:0:0:0:
192,192,86971,1,8,0:0:0:0:
320,192,86971,1,0,0:0:0:0:
192,192,87125,1,0,0:0:0:0:
64,192,87279,1,2,0:0:0:0:
448,192,87279,1,0,0:0:0:0:
64,192,87433,1,0,0:0:0:0:
192,192,87586,1,8,0:0:0:0:
320,192,87586,1,0,0:0:0:0:
320,192,87740,128,0,87894:0:0:0:0:
64,192,87894,1,2,0:0:0:0:
448,192,87894,1,0,0:0:0:0:
448,192,88048,128,0,88202:0:0:0:0:
192,192,88202,1,8,0:0:0:0:
320,192,88202,1,0,0:0:0:0:
192,192,88356,128,0,88510:0:0:0:0:
64,192,88510,1,2,0:0:0:0:
448,192,88510,1,0,0:0:0:0:
64,192,88663,1,8,0:0:0:0:
192,192,88740,1,8,0:0:0:0:
320,192,88817,1,8,0:0:0:0:
448,192,88817,1,0,0:0:0:0:
192,192,88894,1,8,0:0:0:0:
448,192,88971,1,8,0:0:0:0:
320,192,89048,1,8,0:0:0:0:
64,192,89125,1,2,0:0:0:0:
192,192,89125,1,4,0:0:0:0:
64,192,89279,1,0,0:0:0:0:
320,192,89433,1,8,0:0:0:0:
448,192,89433,1,0,0:0:0:0:
448,192,89586,1,0,0:0:0:0:
64,192,89740,1,2,0:0:0:0:
192,192,89740,1,0,0:0:0:0:
192,192,89894,1,0,0:0:0:0:
320,192,90048,1,8,0:0:0:0:
448,192,90048,1,0,0:0:0:0:
320,192,90202,128,0,90356:0:0:0:0:
64,192,90356,1,2,0:0:0:0:
192,192,90356,1,0,0:0:0:0:
64,192,90510,128,0,90663:0:0:0:0:
320,192,90663,1,8,0:0:0:0:
448,192,90663,1,0,0:0:0:0:
448,192,90817,128,0,90971:0:0:0:0:
64,192,90971,1,2,0:0:0:0:
192,192,90971,1,0,0:0:0:0:
192,192,91125,128,0,91279:0:0:0:0:
320,192,91279,1,8,0:0:0:0:
448,192,91279,1,0,0:0:0:0:
320,192,91433,128,0,91586:0:0:0:0:
64,192,91586,1,2,0:0:0:0:
448,192,91586,1,0,0:0:0:0:
64,192,91740,1,0,0:0:0:0:
192,192,91894,1,8,0:0:0:0:
320,192,91894,1,0,0:0:0:0:
320,192,92048,1,0,0:0:0:0:
64,192,92202,1,2,0:0:0:0:
448,192,92202,1,0,0:0:0:0:
448,192,92356,1,0,0:0:0:0:
192,192,92510,1,8,0:0:0:0:
320,192,92510,1,0,0:0:0:0:
192,192,92663,128,0,92817:0:0:0:0:
64,192,92817,1,2,0:0:0:0:
448,192,92817,1,0,0:0:0:0:
64,192,92971,128,0,93125:0:0:0:0:
192,192,93125,1,8,0:0:0:0:
320,192,93125,1,4,0:0:0:0:
320,192,93279,128,0,93433:0:0:0:0:
64,192,93433,1,2,0:0:0:0:
448,192,93433,1,0,0:0:0:0:
192,192,93586,1,8,0:0:0:0:
320,192,93663,1,8,0:0:0:0:
64,192,93740,1,0,0:0:0:70:KICK 2.wav
448,192,93740,1,0,0:0:0:0:
320,192,93817,1,0,0:0:0:70:KICK 2.wav
192,192,93894,1,0,0:0:0:70:KICK 2.wav
64,192,93971,1,0,0:0:0:70:KICK 2.wav
320,192,94048,1,2,0:0:0:0:
448,192,94048,128,0,94510:0:0:0:0:
64,192,94356,1,2,0:0:0:0:
192,192,94356,1,0,0:0:0:0:
320,192,94510,128,0,94971:0:0:0:0:
64,192,94663,1,2,0:0:0:0:
192,192,94663,1,0,0:0:0:0:
192,192,94971,128,2,95433:0:0:0:0:
448,192,94971,1,0,0:0:0:0:
320,192,95279,1,2,0:0:0:0:
448,192,95279,1,0,0:0:0:0:
64,192,95433,128,0,95894:0:0:0:0:
320,192,95586,1,2,0:0:0:0:
448,192,95586,1,0,0:0:0:0:
192,192,95894,1,2,0:0:0:0:
448,192,95894,128,0,96202:0:0:0:0:
64,192,96202,1,2,0:0:0:0:
320,192,96202,128,0,96510:0:0:0:0:
64,192,96510,128,2,96971:0:0:0:0:
192,192,96510,1,4,0:0:0:0:
320,192,96817,1,2,0:0:0:0:
448,192,96817,1,0,0:0:0:0:
192,192,96971,128,0,97433:0:0:0:0:
320,192,97125,1,2,0:0:0:0:
448,192,97125,1,0,0:0:0:0:
64,192,97433,1,2,0:0:0:0:
448,192,97433,128,0,98356:0:0:0:0:
64,192,97740,1,2,0:0:0:0:
320,192,97740,1,0,0:0:0:0:
192,192,98048,1,2,0:0:0:0:
320,192,98048,1,0,0:0:0:0:
64,192,98356,1,2,0:0:0:0:
192,192,98356,1,0,0:0:0:0:
320,192,98433,1,0,0:0:0:0:
448,192,98510,1,0,0:0:0:0:
192,192,98586,1,0,0:0:0:0:
320,192,98663,1,2,0:0:0:0:
448,192,98663,1,0,0:0:0:0:
64,192,98740,1,0,0:0:0:0:
192,192,98817,1,0,0:0:0:0:
320,192,98894,1,0,0:0:0:0:
64,192,98971,1,0,0:0:0:0:
