osu file format v14

[General]
AudioFilename: audio.mp3
AudioLeadIn: 0
PreviewTime: 73840
Countdown: 0
SampleSet: Normal
StackLeniency: 0.7
Mode: 1
LetterboxInBreaks: 0
WidescreenStoryboard: 0

[Editor]
Bookmarks: 18811,18985,39218,39392,39916,40090,51427,51602
DistanceSpacing: 0.8
BeatDivisor: 4
GridSize: 32
TimelineZoom: 2.4

[Metadata]
Title:The Everlasting Guilty Crown
TitleUnicode:The Everlasting Guilty Crown
Artist:Roselia
ArtistUnicode:Roselia
Creator:toara_fict
Version:Oni
Source:バンドリ! ガールズバンドパーティ!
Tags:ryo supercell EGOIST BanG Dream! Garupa Bandori ロゼリア ガルパ Girls Band Party! 湊友希那 Minato Yukina 相羽あいな Aiba Aina 宇田川あこ Udagawa Ako 櫻川めぐ Sakuragawa Megu 白金燐子 Shirokane Rinko 明坂聡美 Akesaka Satomi 氷川紗夜 Hikawa Sayo 工藤晴香 Kudou Haruka 今井リサ Imai Risa 遠藤ゆりか Endou Yurika
BeatmapID:1400060
BeatmapSetID:661299

[Difficulty]
HPDrainRate:5.8
CircleSize:6
OverallDifficulty:5.6
ApproachRate:10
SliderMultiplier:1.4
SliderTickRate:2

[Events]
//Background and Video events
0,0,"asdasdas.png",0,120
//Break Periods
//Storyboard Layer 0 (Background)
//Storyboard Layer 1 (Fail)
//Storyboard Layer 2 (Pass)
//Storyboard Layer 3 (Foreground)
//Storyboard Sound Samples

[TimingPoints]
2765,348.837209302326,4,1,0,70,1,0
8346,-100,4,1,0,80,0,0
30671,-100,4,1,0,70,0,0
41834,-100,4,1,0,80,0,0
51602,-100,4,1,0,50,0,0
52299,-100,4,1,0,90,0,0
73927,-100,4,1,0,80,0,0
75323,-100,4,1,0,100,0,1
119974,-100,4,1,0,90,0,0
121369,337.078651685393,4,1,0,60,1,0
122043,359.281437125748,4,1,0,60,1,0
122761,338.983050847458,4,1,0,60,1,0
123099,529.411764705882,4,1,0,60,1,0
123099,-66.6666666666667,4,1,0,60,0,0
124157,521.739130434783,4,1,0,60,1,0
124157,-66.6666666666667,4,1,0,60,0,0
124678,337.078651685393,4,1,0,60,1,0
125015,352.941176470588,4,1,0,60,1,0
125720,359.281437125748,4,1,0,60,1,0
126079,331.491712707182,4,1,0,60,1,0
126079,-117.647058823529,4,1,0,60,0,0
126410,422.535211267606,4,1,0,70,1,0

[Colours]
Combo1 : 255,255,255
Combo2 : 128,255,255
Combo3 : 255,98,98
Combo4 : 176,98,255
Combo5 : 255,151,203
Combo6 : 255,0,0

[HitObjects]
224,160,2765,5,0,0:0:0:0:
288,160,2939,1,8,0:0:0:0:
224,160,3288,1,0,0:0:0:0:
288,160,3462,1,8,0:0:0:0:
224,160,3811,1,0,0:0:0:0:
288,160,3985,1,8,0:0:0:0:
224,160,4334,1,0,0:0:0:0:
288,160,4509,1,8,0:0:0:0:
288,160,4683,1,0,0:0:0:0:
288,160,4858,1,8,0:0:0:0:
288,160,5032,1,8,0:0:0:0:
224,160,5555,1,0,0:0:0:0:
288,160,5730,1,8,0:0:0:0:
224,160,6078,1,0,0:0:0:0:
288,160,6253,1,8,0:0:0:0:
224,160,6602,1,0,0:0:0:0:
288,160,6776,1,8,0:0:0:0:
288,160,6951,1,8,0:0:0:0:
224,160,7125,1,0,0:0:0:0:
288,160,7299,1,8,0:0:0:0:
288,160,7474,1,8,0:0:0:0:
224,160,7648,1,0,0:0:0:0:
288,160,7823,1,8,0:0:0:0:
224,160,7997,1,0,0:0:0:0:
224,160,8084,1,0,0:0:0:0:
288,160,8171,1,8,0:0:0:0:
224,224,8346,1,4,0:0:0:0:
288,160,8695,1,8,0:0:0:0:
224,160,9392,1,0,0:0:0:0:
224,160,9567,1,0,0:0:0:0:
288,160,9741,1,8,0:0:0:0:
288,160,10439,1,8,0:0:0:0:
288,160,10613,1,8,0:0:0:0:
224,160,10788,1,0,0:0:0:0:
288,160,10962,1,8,0:0:0:0:
224,160,11137,1,0,0:0:0:0:
224,160,11311,1,0,0:0:0:0:
288,160,11485,1,8,0:0:0:0:
288,160,11660,1,8,0:0:0:0:
224,160,12183,1,0,0:0:0:0:
224,160,12358,1,0,0:0:0:0:
288,160,12532,1,8,0:0:0:0:
288,160,12706,1,8,0:0:0:0:
288,160,13230,1,8,0:0:0:0:
288,160,13404,1,8,0:0:0:0:
224,160,13578,1,0,0:0:0:0:
288,160,13753,1,8,0:0:0:0:
224,160,13927,1,0,0:0:0:0:
224,160,14102,1,0,0:0:0:0:
288,160,14276,1,8,0:0:0:0:
288,160,14451,1,8,0:0:0:0:
224,160,14974,1,0,0:0:0:0:
224,160,15148,1,0,0:0:0:0:
288,160,15323,1,8,0:0:0:0:
288,160,15497,1,8,0:0:0:0:
288,160,16020,1,8,0:0:0:0:
288,160,16195,1,8,0:0:0:0:
224,160,16369,1,0,0:0:0:0:
288,160,16544,1,8,0:0:0:0:
224,160,16718,1,0,0:0:0:0:
224,160,16892,1,0,0:0:0:0:
288,160,17067,1,8,0:0:0:0:
288,160,17241,1,8,0:0:0:0:
224,160,17765,1,0,0:0:0:0:
224,160,17939,1,0,0:0:0:0:
288,160,18113,1,8,0:0:0:0:
288,160,18288,1,8,0:0:0:0:
224,160,18811,1,0,0:0:0:0:
288,160,18985,1,8,0:0:0:0:
288,160,19160,1,8,0:0:0:0:
288,160,19247,1,8,0:0:0:0:
288,160,19334,1,8,0:0:0:0:
288,160,19421,1,8,0:0:0:0:
224,224,19509,1,0,0:0:0:0:
224,160,19683,1,0,0:0:0:0:
288,160,19858,1,8,0:0:0:0:
224,160,20555,1,0,0:0:0:0:
224,160,20730,1,0,0:0:0:0:
288,160,20904,1,8,0:0:0:0:
288,160,21078,1,8,0:0:0:0:
288,160,21602,1,8,0:0:0:0:
288,160,21776,1,8,0:0:0:0:
224,160,21951,1,0,0:0:0:0:
288,160,22125,1,8,0:0:0:0:
224,160,22300,1,0,0:0:0:0:
224,160,22474,1,0,0:0:0:0:
288,160,22648,1,8,0:0:0:0:
288,160,22823,1,8,0:0:0:0:
224,160,23346,1,0,0:0:0:0:
224,160,23521,1,0,0:0:0:0:
288,160,23695,1,8,0:0:0:0:
288,160,23869,1,8,0:0:0:0:
288,160,24393,1,8,0:0:0:0:
288,160,24567,1,8,0:0:0:0:
224,160,24741,1,0,0:0:0:0:
288,160,24916,1,8,0:0:0:0:
224,160,25090,1,0,0:0:0:0:
224,160,25265,1,0,0:0:0:0:
288,160,25439,1,8,0:0:0:0:
288,160,25614,1,8,0:0:0:0:
224,160,26137,1,0,0:0:0:0:
224,160,26311,1,0,0:0:0:0:
288,160,26486,1,8,0:0:0:0:
288,160,26660,1,8,0:0:0:0:
288,160,27183,1,8,0:0:0:0:
288,160,27358,1,8,0:0:0:0:
224,160,27532,1,0,0:0:0:0:
288,160,27707,1,8,0:0:0:0:
224,160,27881,1,0,0:0:0:0:
224,160,28055,1,0,0:0:0:0:
288,160,28230,1,8,0:0:0:0:
288,160,28404,1,8,0:0:0:0:
224,160,28578,1,0,0:0:0:0:
224,160,28928,1,0,0:0:0:0:
224,160,29102,1,0,0:0:0:0:
288,160,29276,1,8,0:0:0:0:
288,160,29451,1,8,0:0:0:0:
224,160,29538,1,8,0:0:0:0:
224,160,29625,1,0,0:0:0:0:
224,160,29799,1,0,0:0:0:0:
288,160,29974,1,8,0:0:0:0:
288,160,30061,1,8,0:0:0:0:
224,160,30148,1,0,0:0:0:0:
224,160,30235,1,0,0:0:0:0:
288,160,30323,1,8,0:0:0:0:
288,160,30497,1,8,0:0:0:0:
224,224,30672,1,4,0:0:0:0:
288,160,31020,1,8,0:0:0:0:
224,160,31369,1,0,0:0:0:0:
224,160,31544,1,0,0:0:0:0:
288,160,31718,1,8,0:0:0:0:
224,160,31892,1,0,0:0:0:0:
288,160,32067,1,8,0:0:0:0:
224,160,32416,1,0,0:0:0:0:
288,160,32765,1,8,0:0:0:0:
288,160,32939,1,8,0:0:0:0:
224,160,33113,1,0,0:0:0:0:
224,160,33462,1,0,0:0:0:0:
224,160,33637,1,0,0:0:0:0:
288,160,33811,1,8,0:0:0:0:
224,160,33985,1,0,0:0:0:0:
224,160,34334,1,0,0:0:0:0:
288,160,34509,1,8,0:0:0:0:
224,160,34858,1,0,0:0:0:0:
224,160,35032,1,0,0:0:0:0:
288,160,35206,1,8,0:0:0:0:
224,160,35381,1,0,0:0:0:0:
288,160,35555,1,8,0:0:0:0:
288,160,35730,1,8,0:0:0:0:
224,160,35904,1,0,0:0:0:0:
288,160,36078,1,8,0:0:0:0:
288,160,36166,1,8,0:0:0:0:
224,160,36253,1,0,0:0:0:0:
224,160,36427,1,0,0:0:0:0:
288,160,36602,1,8,0:0:0:0:
224,160,36776,1,0,0:0:0:0:
288,160,36863,1,0,0:0:0:0:
288,160,36951,1,8,0:0:0:0:
288,160,37125,1,8,0:0:0:0:
288,160,37299,1,0,0:0:0:0:
224,160,37474,1,0,0:0:0:0:
288,160,37648,1,8,0:0:0:0:
288,160,37823,1,8,0:0:0:0:
224,160,37997,1,0,0:0:0:0:
224,160,38171,1,0,0:0:0:0:
224,160,38259,1,0,0:0:0:0:
288,160,38346,1,8,0:0:0:0:
288,160,38520,1,8,0:0:0:0:
224,160,38695,1,0,0:0:0:0:
288,160,38869,1,8,0:0:0:0:
288,160,38956,1,8,0:0:0:0:
224,160,39044,1,0,0:0:0:0:
288,160,39218,1,8,0:0:0:0:
224,160,39305,1,0,0:0:0:0:
224,160,39480,1,0,0:0:0:0:
288,160,39567,1,8,0:0:0:0:
224,160,39741,1,0,0:0:0:0:
288,160,39916,1,8,0:0:0:0:
224,160,40003,1,0,0:0:0:0:
224,160,40177,1,0,0:0:0:0:
288,160,40265,1,8,0:0:0:0:
224,160,40439,1,0,0:0:0:0:
224,160,40613,1,8,0:0:0:0:
224,160,40701,1,0,0:0:0:0:
224,160,40875,1,0,0:0:0:0:
288,160,40962,1,8,0:0:0:0:
288,160,41137,1,0,0:0:0:0:
288,160,41311,1,8,0:0:0:0:
224,160,41398,1,8,0:0:0:0:
224,160,41485,1,0,0:0:0:0:
288,160,41660,1,8,0:0:0:0:
224,224,41834,1,4,0:0:0:0:
288,160,42182,1,8,0:0:0:0:
224,160,42531,1,0,0:0:0:0:
224,160,42706,1,0,0:0:0:0:
288,160,42880,1,8,0:0:0:0:
224,160,43054,1,0,0:0:0:0:
288,160,43229,1,8,0:0:0:0:
224,160,43578,1,0,0:0:0:0:
288,160,43927,1,8,0:0:0:0:
288,160,44101,1,8,0:0:0:0:
224,160,44275,1,0,0:0:0:0:
288,160,44450,1,8,0:0:0:0:
288,160,44538,1,8,0:0:0:0:
224,160,44624,1,0,0:0:0:0:
224,160,44799,1,0,0:0:0:0:
288,160,44973,1,8,0:0:0:0:
224,160,45147,1,0,0:0:0:0:
224,160,45496,1,0,0:0:0:0:
288,160,45671,1,8,0:0:0:0:
288,160,45846,1,8,0:0:0:0:
224,160,46020,1,0,0:0:0:0:
224,160,46194,1,0,0:0:0:0:
224,160,46282,1,0,0:0:0:0:
288,160,46368,1,8,0:0:0:0:
224,160,46543,1,0,0:0:0:0:
288,160,46717,1,8,0:0:0:0:
288,160,46892,1,8,0:0:0:0:
224,160,47066,1,0,0:0:0:0:
288,160,47240,1,8,0:0:0:0:
224,160,47416,1,4,0:0:0:0:
288,160,47764,1,8,0:0:0:0:
224,160,47938,1,0,0:0:0:0:
288,160,48113,1,8,0:0:0:0:
288,160,48287,1,8,0:0:0:0:
288,160,48375,1,8,0:0:0:0:
288,160,48461,1,0,0:0:0:0:
224,160,48636,1,0,0:0:0:0:
288,160,48810,1,8,0:0:0:0:
288,160,48985,1,8,0:0:0:0:
224,160,49159,1,0,0:0:0:0:
224,160,49333,1,0,0:0:0:0:
224,160,49421,1,0,0:0:0:0:
288,160,49508,1,8,0:0:0:0:
288,160,49682,1,8,0:0:0:0:
288,160,49770,1,8,0:0:0:0:
224,160,49857,1,0,0:0:0:0:
224,160,49945,1,0,0:0:0:0:
288,160,50031,1,8,0:0:0:0:
224,160,50206,1,0,0:0:0:0:
288,160,50555,1,8,0:0:0:0:
288,160,50729,1,8,0:0:0:0:
224,160,50903,1,0,0:0:0:0:
288,160,51078,1,8,0:0:0:0:
288,160,51166,1,8,0:0:0:0:
224,160,51253,1,0,0:0:0:0:
288,160,51427,1,8,0:0:0:0:
224,224,51602,1,4,0:0:0:0:
224,160,52299,1,0,0:0:0:0:
224,160,52387,1,0,0:0:0:0:
224,160,52473,1,0,0:0:0:0:
224,160,52560,1,0,0:0:0:0:
224,160,52647,1,0,0:0:0:0:
224,160,52735,1,0,0:0:0:0:
224,160,52822,1,0,0:0:0:0:
288,224,52997,1,12,0:0:0:0:
224,160,53346,1,0,0:0:0:0:
288,160,53520,1,8,0:0:0:0:
224,160,53695,1,0,0:0:0:0:
288,160,53869,1,8,0:0:0:0:
288,160,54218,1,8,0:0:0:0:
224,160,54392,1,0,0:0:0:0:
288,160,54567,1,8,0:0:0:0:
224,160,54741,1,0,0:0:0:0:
224,160,54916,1,0,0:0:0:0:
224,160,55003,1,0,0:0:0:0:
288,160,55090,1,8,0:0:0:0:
288,160,55265,1,8,0:0:0:0:
224,160,55439,1,0,0:0:0:0:
224,160,55613,1,0,0:0:0:0:
288,160,55788,1,8,0:0:0:0:
224,160,56137,1,0,0:0:0:0:
288,160,56311,1,8,0:0:0:0:
224,160,56485,1,0,0:0:0:0:
224,160,56660,1,0,0:0:0:0:
224,160,56747,1,0,0:0:0:0:
288,160,56834,1,8,0:0:0:0:
224,160,57009,1,0,0:0:0:0:
224,160,57183,1,0,0:0:0:0:
288,160,57358,1,8,0:0:0:0:
224,160,57532,1,0,0:0:0:0:
224,160,57619,1,0,0:0:0:0:
288,160,57706,1,8,0:0:0:0:
224,160,57881,1,0,0:0:0:0:
224,160,58055,1,0,0:0:0:0:
288,160,58230,1,8,0:0:0:0:
288,160,58317,1,8,0:0:0:0:
224,160,58404,1,0,0:0:0:0:
288,224,58578,1,12,0:0:0:0:
224,160,58927,1,0,0:0:0:0:
288,160,59102,1,8,0:0:0:0:
224,160,59276,1,0,0:0:0:0:
288,160,59451,1,8,0:0:0:0:
288,160,59538,1,8,0:0:0:0:
224,160,59625,1,0,0:0:0:0:
288,160,59799,1,8,0:0:0:0:
224,160,59974,1,0,0:0:0:0:
224,160,60061,1,0,0:0:0:0:
288,160,60148,1,8,0:0:0:0:
224,160,60323,1,0,0:0:0:0:
224,160,60497,1,0,0:0:0:0:
288,160,60671,1,8,0:0:0:0:
288,160,60759,1,8,0:0:0:0:
288,160,60846,1,8,0:0:0:0:
224,160,60933,1,8,0:0:0:0:
224,160,61020,1,0,0:0:0:0:
288,160,61195,1,0,0:0:0:0:
288,160,61369,1,8,0:0:0:0:
224,160,61718,1,0,0:0:0:0:
288,160,61892,1,8,0:0:0:0:
224,160,62241,1,0,0:0:0:0:
288,160,62416,1,8,0:0:0:0:
288,160,62590,1,8,0:0:0:0:
224,160,62765,1,0,0:0:0:0:
288,160,62939,1,8,0:0:0:0:
288,160,63288,1,8,0:0:0:0:
224,160,63462,1,0,0:0:0:0:
224,160,63637,1,0,0:0:0:0:
288,160,63811,1,8,0:0:0:0:
288,160,63898,1,8,0:0:0:0:
288,160,63985,1,8,0:0:0:0:
224,224,64160,1,4,0:0:0:0:
288,160,64509,1,8,0:0:0:0:
256,160,64683,1,8,0:0:0:0:
256,160,64770,1,8,0:0:0:0:
224,160,64858,1,0,0:0:0:0:
224,160,65032,1,0,0:0:0:0:
224,160,65206,1,0,0:0:0:0:
288,160,65381,1,8,0:0:0:0:
288,160,65730,1,8,0:0:0:0:
224,160,65904,1,0,0:0:0:0:
224,160,66078,1,0,0:0:0:0:
288,160,66253,1,8,0:0:0:0:
224,160,66427,1,0,0:0:0:0:
224,160,66515,1,0,0:0:0:0:
288,160,66602,1,8,0:0:0:0:
224,160,66776,1,0,0:0:0:0:
288,160,66951,1,8,0:0:0:0:
224,160,67299,1,8,0:0:0:0:
288,160,67474,1,0,0:0:0:0:
224,160,67561,1,8,0:0:0:0:
288,160,67648,1,0,0:0:0:0:
224,160,67823,1,8,0:0:0:0:
288,160,67997,1,0,0:0:0:0:
224,160,68084,1,0,0:0:0:0:
288,160,68171,1,0,0:0:0:0:
288,160,68346,1,8,0:0:0:0:
224,160,68695,1,0,0:0:0:0:
288,160,68869,1,8,0:0:0:0:
224,160,68956,1,8,0:0:0:0:
224,160,69044,1,0,0:0:0:0:
288,160,69131,1,8,0:0:0:0:
224,160,69218,1,0,0:0:0:0:
288,160,69392,1,8,0:0:0:0:
288,160,69567,1,8,0:0:0:0:
224,224,69741,1,4,0:0:0:0:
224,160,70090,1,8,0:0:0:0:
224,160,70265,1,8,0:0:0:0:
224,160,70352,1,8,0:0:0:0:
288,160,70439,1,0,0:0:0:0:
288,160,70613,1,0,0:0:0:0:
224,160,70788,1,8,0:0:0:0:
224,160,70962,1,8,0:0:0:0:
288,160,71137,1,0,0:0:0:0:
288,160,71311,1,0,0:0:0:0:
288,160,71398,1,0,0:0:0:0:
224,160,71485,1,8,0:0:0:0:
224,160,71660,1,8,0:0:0:0:
288,160,71834,1,0,0:0:0:0:
288,160,72009,1,0,0:0:0:0:
224,160,72183,1,8,0:0:0:0:
288,160,72358,1,0,0:0:0:0:
224,224,72532,1,12,0:0:0:0:
288,160,72706,1,0,0:0:0:0:
288,160,72794,1,0,0:0:0:0:
224,160,72881,1,8,0:0:0:0:
288,160,73055,1,0,0:0:0:0:
288,160,73142,1,0,0:0:0:0:
224,160,73230,1,8,0:0:0:0:
288,160,73317,1,0,0:0:0:0:
288,160,73404,1,8,0:0:0:0:
288,160,73491,1,8,0:0:0:0:
288,160,73578,1,0,0:0:0:0:
288,160,73753,1,0,0:0:0:0:
224,160,73927,1,8,0:0:0:0:
224,224,75323,1,12,0:0:0:0:
288,160,75671,1,0,0:0:0:0:
288,160,75933,1,0,0:0:0:0:
224,160,76020,1,8,0:0:0:0:
224,160,76195,1,8,0:0:0:0:
288,160,76369,1,0,0:0:0:0:
288,160,76544,1,0,0:0:0:0:
224,160,76718,1,8,0:0:0:0:
224,160,76805,1,8,0:0:0:0:
224,160,76892,1,8,0:0:0:0:
224,160,76980,1,8,0:0:0:0:
288,160,77067,1,0,0:0:0:0:
224,160,77241,1,8,0:0:0:0:
224,160,77416,1,0,0:0:0:0:
288,160,77503,1,8,0:0:0:0:
224,160,77590,1,0,0:0:0:0:
288,160,77765,1,8,0:0:0:0:
224,160,77939,1,8,0:0:0:0:
224,160,78026,1,8,0:0:0:0:
224,160,78113,1,0,0:0:0:0:
224,160,78288,1,0,0:0:0:0:
288,160,78462,1,8,0:0:0:0:
288,160,78637,1,0,0:0:0:0:
288,160,78724,1,0,0:0:0:0:
288,160,78811,1,8,0:0:0:0:
224,160,78985,1,8,0:0:0:0:
288,160,79160,1,0,0:0:0:0:
288,160,79334,1,0,0:0:0:0:
288,160,79421,1,0,0:0:0:0:
224,160,79509,1,8,0:0:0:0:
224,160,79596,1,8,0:0:0:0:
288,160,79683,1,0,0:0:0:0:
288,160,79858,1,0,0:0:0:0:
224,160,80032,1,8,0:0:0:0:
224,160,80206,1,0,0:0:0:0:
288,160,80294,1,8,0:0:0:0:
288,160,80381,1,8,0:0:0:0:
288,160,80555,1,0,0:0:0:0:
288,160,80730,1,0,0:0:0:0:
224,224,80904,1,12,0:0:0:0:
288,160,81253,1,0,0:0:0:0:
288,160,81427,1,0,0:0:0:0:
224,160,81602,1,8,0:0:0:0:
224,160,81689,1,8,0:0:0:0:
224,160,81776,1,8,0:0:0:0:
224,160,81863,1,8,0:0:0:0:
288,160,81951,1,0,0:0:0:0:
288,160,82125,1,0,0:0:0:0:
224,160,82299,1,8,0:0:0:0:
288,160,82387,1,0,0:0:0:0:
288,160,82474,1,0,0:0:0:0:
224,160,82561,1,8,0:0:0:0:
288,160,82648,1,0,0:0:0:0:
224,160,82823,1,8,0:0:0:0:
224,160,82997,1,0,0:0:0:0:
288,160,83084,1,8,0:0:0:0:
288,160,83171,1,8,0:0:0:0:
288,160,83346,1,0,0:0:0:0:
288,160,83520,1,0,0:0:0:0:
288,160,83608,1,0,0:0:0:0:
224,160,83695,1,8,0:0:0:0:
224,160,83869,1,8,0:0:0:0:
288,160,84044,1,0,0:0:0:0:
224,160,84218,1,8,0:0:0:0:
224,160,84567,1,8,0:0:0:0:
288,160,84741,1,0,0:0:0:0:
288,160,84916,1,8,0:0:0:0:
288,160,85003,1,8,0:0:0:0:
288,160,85090,1,0,0:0:0:0:
288,160,85265,1,0,0:0:0:0:
224,224,85439,1,12,0:0:0:0:
288,160,85613,1,0,0:0:0:0:
288,160,85701,1,0,0:0:0:0:
224,160,85788,1,8,0:0:0:0:
288,160,85961,1,0,0:0:0:0:
288,160,86049,1,0,0:0:0:0:
288,160,86137,1,0,0:0:0:0:
288,160,86224,1,0,0:0:0:0:
288,160,86311,1,0,0:0:0:0:
224,224,86485,1,12,0:0:0:0:
288,160,86833,1,0,0:0:0:0:
288,160,87095,1,0,0:0:0:0:
224,160,87182,1,8,0:0:0:0:
224,160,87357,1,8,0:0:0:0:
288,160,87531,1,0,0:0:0:0:
288,160,87706,1,8,0:0:0:0:
224,160,87880,1,8,0:0:0:0:
288,160,87968,1,0,0:0:0:0:
224,160,88054,1,8,0:0:0:0:
224,160,88142,1,8,0:0:0:0:
288,160,88229,1,0,0:0:0:0:
224,160,88403,1,8,0:0:0:0:
224,160,88578,1,0,0:0:0:0:
288,160,88665,1,8,0:0:0:0:
224,160,88752,1,0,0:0:0:0:
288,160,88840,1,0,0:0:0:0:
288,160,88927,1,8,0:0:0:0:
224,160,89101,1,8,0:0:0:0:
224,160,89275,1,0,0:0:0:0:
224,160,89450,1,0,0:0:0:0:
288,160,89538,1,0,0:0:0:0:
288,160,89624,1,8,0:0:0:0:
288,160,89799,1,0,0:0:0:0:
288,160,89973,1,8,0:0:0:0:
288,160,90061,1,0,0:0:0:0:
288,160,90147,1,8,0:0:0:0:
288,160,90235,1,8,0:0:0:0:
288,160,90322,1,0,0:0:0:0:
224,160,90410,1,0,0:0:0:0:
288,160,90496,1,8,0:0:0:0:
224,160,90671,1,0,0:0:0:0:
288,160,90846,1,8,0:0:0:0:
224,160,90932,1,8,0:0:0:0:
288,160,91020,1,0,0:0:0:0:
224,160,91194,1,8,0:0:0:0:
224,160,91368,1,0,0:0:0:0:
288,160,91456,1,0,0:0:0:0:
288,160,91543,1,8,0:0:0:0:
224,160,91631,1,0,0:0:0:0:
288,160,91717,1,8,0:0:0:0:
288,160,91892,1,8,0:0:0:0:
288,224,92066,1,4,0:0:0:0:
288,160,92415,1,8,0:0:0:0:
288,160,92589,1,0,0:0:0:0:
224,160,92764,1,8,0:0:0:0:
224,160,92939,1,0,0:0:0:0:
224,160,93026,1,0,0:0:0:0:
288,160,93113,1,8,0:0:0:0:
288,160,93287,1,0,0:0:0:0:
224,160,93461,1,8,0:0:0:0:
288,160,93549,1,8,0:0:0:0:
288,160,93636,1,0,0:0:0:0:
288,160,93810,1,0,0:0:0:0:
224,160,93985,1,8,0:0:0:0:
224,160,94159,1,0,0:0:0:0:
288,160,94246,1,8,0:0:0:0:
288,160,94333,1,8,0:0:0:0:
288,160,94508,1,0,0:0:0:0:
288,160,94682,1,0,0:0:0:0:
224,224,94858,1,12,0:0:0:0:
288,160,95206,1,0,0:0:0:0:
224,160,95380,1,8,0:0:0:0:
224,160,95468,1,8,0:0:0:0:
288,160,95555,1,0,0:0:0:0:
288,160,95729,1,8,0:0:0:0:
288,160,95903,1,0,0:0:0:0:
288,160,95991,1,0,0:0:0:0:
288,160,96078,1,8,0:0:0:0:
288,160,96166,1,0,0:0:0:0:
224,160,96252,1,8,0:0:0:0:
224,160,96427,1,0,0:0:0:0:
288,160,96601,1,12,0:0:0:0:
288,160,96776,1,0,0:0:0:0:
224,160,96950,1,0,0:0:0:0:
224,160,97038,1,0,0:0:0:0:
288,160,97123,1,8,0:0:0:0:
288,160,97212,1,0,0:0:0:0:
288,160,97299,1,8,0:0:0:0:
288,160,97386,1,8,0:0:0:0:
288,160,97474,1,0,0:0:0:0:
224,224,97647,1,12,0:0:0:0:
224,160,97997,1,8,0:0:0:0:
224,160,98084,1,8,0:0:0:0:
224,160,98171,1,0,0:0:0:0:
224,160,98259,1,8,0:0:0:0:
288,160,98346,1,0,0:0:0:0:
288,160,98520,1,0,0:0:0:0:
224,160,98695,1,8,0:0:0:0:
288,160,98869,1,0,0:0:0:0:
288,160,98956,1,0,0:0:0:0:
224,160,99044,1,8,0:0:0:0:
224,160,99218,1,8,0:0:0:0:
288,160,99392,1,0,0:0:0:0:
224,160,99567,1,8,0:0:0:0:
288,160,99654,1,0,0:0:0:0:
224,160,99741,1,8,0:0:0:0:
288,160,99916,1,0,0:0:0:0:
288,160,100090,1,0,0:0:0:0:
288,160,100177,1,0,0:0:0:0:
224,160,100265,1,8,0:0:0:0:
224,160,100352,1,8,0:0:0:0:
288,160,100439,1,0,0:0:0:0:
224,160,100613,1,8,0:0:0:0:
288,160,100788,1,0,0:0:0:0:
224,160,100962,1,8,0:0:0:0:
224,160,101137,1,8,0:0:0:0:
224,160,101224,1,8,0:0:0:0:
288,160,101311,1,0,0:0:0:0:
224,160,101485,1,8,0:0:0:0:
224,160,101660,1,8,0:0:0:0:
288,160,101834,1,0,0:0:0:0:
288,160,102183,1,0,0:0:0:0:
288,160,102358,1,8,0:0:0:0:
288,160,102532,1,0,0:0:0:0:
288,160,102706,1,8,0:0:0:0:
224,160,102794,1,0,0:0:0:0:
288,160,102881,1,8,0:0:0:0:
224,160,102968,1,8,0:0:0:0:
288,160,103055,1,0,0:0:0:0:
224,160,103230,1,8,0:0:0:0:
224,160,103404,1,8,0:0:0:0:
288,160,103578,1,0,0:0:0:0:
288,160,103666,1,0,0:0:0:0:
224,160,103753,1,8,0:0:0:0:
288,160,103927,1,0,0:0:0:0:
288,160,104102,1,0,0:0:0:0:
224,160,104276,1,8,0:0:0:0:
288,160,104625,1,0,0:0:0:0:
224,160,104799,1,8,0:0:0:0:
288,160,104974,1,0,0:0:0:0:
288,160,105148,1,0,0:0:0:0:
288,160,105235,1,0,0:0:0:0:
224,160,105323,1,8,0:0:0:0:
288,160,105497,1,0,0:0:0:0:
224,160,105671,1,8,0:0:0:0:
224,160,105759,1,8,0:0:0:0:
288,160,105846,1,0,0:0:0:0:
224,224,106020,1,12,0:0:0:0:
224,160,106369,1,0,0:0:0:0:
288,160,106544,1,8,0:0:0:0:
224,160,106631,1,8,0:0:0:0:
288,160,106718,1,0,0:0:0:0:
288,160,106892,1,0,0:0:0:0:
224,160,107067,1,12,0:0:0:0:
288,160,107416,1,0,0:0:0:0:
288,160,107590,1,0,0:0:0:0:
224,224,107765,1,12,0:0:0:0:
288,160,107939,1,0,0:0:0:0:
288,160,108026,1,0,0:0:0:0:
288,160,108113,1,0,0:0:0:0:
224,160,108201,1,0,0:0:0:0:
224,160,108288,1,8,0:0:0:0:
288,160,108462,1,0,0:0:0:0:
288,160,108637,1,0,0:0:0:0:
224,224,108811,1,12,0:0:0:0:
224,160,109161,1,8,0:0:0:0:
288,160,109248,1,0,0:0:0:0:
224,160,109335,1,8,0:0:0:0:
224,160,109423,1,8,0:0:0:0:
288,160,109510,1,0,0:0:0:0:
288,160,109684,1,0,0:0:0:0:
224,160,109859,1,8,0:0:0:0:
288,160,110033,1,0,0:0:0:0:
288,160,110120,1,0,0:0:0:0:
224,160,110208,1,8,0:0:0:0:
224,160,110382,1,8,0:0:0:0:
288,160,110556,1,0,0:0:0:0:
224,160,110731,1,8,0:0:0:0:
288,160,110818,1,0,0:0:0:0:
224,160,110905,1,8,0:0:0:0:
288,160,111080,1,0,0:0:0:0:
288,160,111254,1,0,0:0:0:0:
288,160,111341,1,0,0:0:0:0:
224,160,111429,1,8,0:0:0:0:
288,160,111603,1,0,0:0:0:0:
224,160,111777,1,8,0:0:0:0:
224,160,111863,1,8,0:0:0:0:
288,160,111952,1,0,0:0:0:0:
288,160,112125,1,0,0:0:0:0:
224,160,112301,1,8,0:0:0:0:
224,160,112388,1,8,0:0:0:0:
288,160,112475,1,0,0:0:0:0:
224,160,112649,1,8,0:0:0:0:
224,160,112824,1,8,0:0:0:0:
288,160,112998,1,0,0:0:0:0:
288,160,113347,1,0,0:0:0:0:
288,160,113520,1,0,0:0:0:0:
288,160,113696,1,8,0:0:0:0:
288,160,113782,1,0,0:0:0:0:
288,160,113870,1,8,0:0:0:0:
224,160,113958,1,8,0:0:0:0:
224,160,114044,1,0,0:0:0:0:
288,160,114219,1,0,0:0:0:0:
224,224,114394,1,12,0:0:0:0:
288,160,114742,1,0,0:0:0:0:
224,160,114917,1,0,0:0:0:0:
288,160,115003,1,0,0:0:0:0:
288,160,115091,1,8,0:0:0:0:
288,160,115266,1,8,0:0:0:0:
224,160,115440,1,0,0:0:0:0:
288,160,115526,1,0,0:0:0:0:
224,160,115613,1,0,0:0:0:0:
288,160,115788,1,8,0:0:0:0:
224,160,115963,1,8,0:0:0:0:
288,160,116138,1,0,0:0:0:0:
288,160,116312,1,8,0:0:0:0:
288,160,116399,1,8,0:0:0:0:
224,160,116487,1,0,0:0:0:0:
224,160,116573,1,8,0:0:0:0:
288,160,116661,1,0,0:0:0:0:
224,160,116747,1,0,0:0:0:0:
224,160,116835,1,8,0:0:0:0:
288,160,117010,1,0,0:0:0:0:
224,224,117184,1,12,0:0:0:0:
224,160,117533,1,8,0:0:0:0:
288,160,117708,1,0,0:0:0:0:
288,160,117795,1,0,0:0:0:0:
224,160,117882,1,8,0:0:0:0:
288,160,118056,1,0,0:0:0:0:
224,160,118231,1,12,0:0:0:0:
288,160,118580,1,0,0:0:0:0:
288,160,118754,1,0,0:0:0:0:
224,224,118927,1,12,0:0:0:0:
288,160,119103,1,0,0:0:0:0:
288,160,119190,1,0,0:0:0:0:
288,160,119277,1,8,0:0:0:0:
224,160,119392,1,0,0:0:0:0:
224,160,119509,1,0,0:0:0:0:
288,160,119626,1,8,0:0:0:0:
288,160,119741,1,0,0:0:0:0:
224,160,119858,1,0,0:0:0:0:
224,224,119975,1,12,0:0:0:0:
256,160,121020,1,0,0:0:0:0:
224,160,121369,1,8,0:0:0:0:
224,160,122043,1,8,0:0:0:0:
224,160,122402,1,0,0:0:0:0:
224,160,122761,1,8,0:0:0:0:
224,160,123099,1,8,0:0:0:0:
224,160,124157,1,8,0:0:0:0:
288,160,125015,1,0,0:0:0:0:
224,160,125367,1,8,0:0:0:0:
224,160,125720,1,8,0:0:0:0:
288,160,126079,1,0,0:0:0:0:
224,160,126410,1,8,0:0:0:0:
